osu file format v9

[General]
AudioFilename: Krewella - Killin It.mp3
AudioLeadIn: 0
PreviewTime: -1
Countdown: 0
SampleSet: Normal
StackLeniency: 0.7
Mode: 0
LetterboxInBreaks: 0

[Editor]
DistanceSpacing: 0.9
BeatDivisor: 4
GridSize: 4

[Metadata]
Title:Killin It
Artist:Krewella
Creator:[Te][Amo]
Version:Collab
Source:
Tags:Ylinestra44 GamerX4life Gabe raimoncortese dubstep

[Difficulty]
HPDrainRate:8
CircleSize:5
OverallDifficulty:7
ApproachRate:8
SliderMultiplier:1.7
SliderTickRate:1

[Events]
//Background and Video events
0,0,"Bass.jpg"
//Break Periods
2,24295,35345
2,46794,47345
2,69295,71345
2,168295,173345
//Storyboard Layer 0 (Background)
//Storyboard Layer 1 (Fail)
//Storyboard Layer 2 (Pass)
//Storyboard Layer 3 (Foreground)
//Storyboard Sound Samples
//Background Colour Transformations
3,100,163,162,255

[TimingPoints]
95,375,4,1,1,80,1,0
48095,-100,4,1,1,80,0,1
52782,-100,4,2,0,80,0,1
54095,-100,4,1,1,80,0,1
60095,-100,4,1,1,80,0,0
60845,-100,4,1,1,80,0,1
64782,-100,4,2,0,50,0,1
66095,-100,4,1,1,80,0,1
69095,-100,4,1,1,80,0,0
72095,-100,4,1,1,80,0,1
84095,-100,4,1,1,80,0,0
84845,-100,4,1,1,80,0,1
93095,-100,4,1,1,80,0,0
120095,-83.3333333333333,4,1,1,80,0,1
132095,-100,4,1,1,80,0,0
132845,-83.3333333333333,4,1,1,80,0,1
141095,-100,4,1,1,80,0,0

[Colours]
Combo1 : 0,210,255
Combo2 : 254,1,108
Combo3 : 172,255,0
Combo4 : 255,191,0

[HitObjects]
256,192,9095,12,0,11345
76,248,12095,6,0,B|88:288|124:320|172:320|212:288,1,170,6|0
256,224,12657,1,0
299,287,12845,2,0,B|340:320|388:320|424:288|436:248,1,170,8|0
360,236,13407,2,0,B|312:204|340:160|368:112|324:84,1,170,2|2
256,120,13970,1,2
152,236,14345,2,0,B|200:204|172:160|144:112|188:84,1,170,8|0
80,192,15095,6,0,B|60:236|60:236|56:272|76:316|128:324,1,170,2|0
256,240,15845,1,8
385,323,16220,1,0
324,276,16407,1,2
256,308,16595,1,0
188,276,16782,1,2
126,323,16970,1,0
204,192,17345,6,0,B|168:168|144:132|148:84|184:48,1,170,8|0
327,47,18095,2,0,B|364:84|368:132|344:168|308:192,1,170,2|0
256,48,18845,2,0,B|252:92|216:124|168:128|128:96,1,170,8|0
187,53,19407,2,0,B|205:93|190:138|150:166|100:158,1,170,2|2
32,192,19970,1,0
176,240,20345,1,8
329,240,20720,1,0
192,304,21095,6,0,B|240:292|264:248|264:180|208:152|160:148|116:168|96:212|104:248|122:279,1,340,2|8
100,128,22220,1,0
176,108,22407,2,0,B|220:112|256:136,1,85,2|0
256,60,22782,1,2
255,135,22970,2,0,B|292:112|336:108,1,85,2|0
412,128,23345,5,8
483,155,23532,1,0
483,231,23720,1,0
412,256,23907,1,0
364,196,24095,1,4
196,72,36095,6,0,B|192:116|220:152,1,85,4|0
292,151,36470,2,0,B|320:116|316:72,2,85,2|0|2
292,228,37032,2,0,B|292:312,1,85,0|2
220,313,37407,2,0,B|220:228,2,85,0|2|0
143,313,37970,1,2
68,304,38157,6,0,B|52:280|52:280|56:252|56:252|44:228,1,85,0|2
43,156,38532,2,0,B|56:132|56:132|52:104|52:104|68:80,1,85,0|2
143,71,38907,1,0
212,108,39095,2,0,B|248:144|248:144|300:192|356:152,1,170,2|2
364,76,39657,1,0
292,100,39845,2,0,B|262:161|318:204|318:204|358:236,1,170,2|2
306,288,40407,5,0
256,344,40595,1,2
206,288,40782,1,0
136,320,40970,2,0,B|52:320,2,85,2|0|2
140,244,41532,1,0
140,244,41720,2,0,B|96:244|60:216|56:160|92:120,1,170,2|2
116,48,42282,5,0
156,116,42470,2,0,B|200:80|236:112|272:144|316:124,1,170,2|2
284,56,43032,1,0
360,68,43220,1,2
436,80,43407,1,0
420,152,43595,6,0,B|444:192|432:236|404:272|351:275,1,170,2|2
288,232,44157,1,0
256,300,44345,1,2
224,232,44532,1,0
160,274,44720,2,0,B|108:272|80:236|68:192|92:152,1,170,2|2
112,120,45188,5,2
144,100,45282,1,2
180,84,45376,1,2
220,80,45470,1,2
256,80,45563,1,2
292,80,45657,1,2
332,84,45751,1,2
368,100,45845,1,2
400,120,45938,1,2
420,152,46032,2,0,B|432:176|432:192,6,42.5,2|2|2|2|2|2|4
216,332,48095,6,0,B|172:304|172:236|204:200|256:180|312:200|340:236|340:300|296:332,2,340,6|8|2
256,276,49782,1,0
220,128,50157,1,2
292,128,50345,1,8
316,56,50532,1,2
256,12,50720,1,0
196,56,50907,1,0
119,56,51095,6,0,B|108:92|60:124|16:100|48:52|88:76|80:128|72:156,1,170,2|0
140,192,51657,1,0
188,252,51845,2,0,B|199:303|155:323,1,85,8|2
80,336,52220,2,0,B|68:284|112:264,1,85,0|2
140,192,52595,1,0
196,132,52782,5,0
256,180,52970,1,2
316,132,53157,1,0
372,192,53345,1,2
324,252,53532,2,0,B|312:303|356:323,1,85,0|2
432,336,53907,1,0
400,265,54095,6,0,B|412:268|412:268|416:256|416:256|432:260|432:260|428:244|428:244|444:244|444:244|432:224|432:224|462:224|462:224|440:204|440:204|448:192|448:192|440:180|440:180|462:164|462:164|432:164|432:164|444:144|444:144|428:144|428:144|432:128|432:128|416:136|416:136|412:124|412:124|401:125,1,340,4|8
96,100,55595,1,2
156,148,55782,2,0,B|200:156|228:192|228:192|200:228|160:236,1,170,2|2
96,284,56345,1,8
28,244,56532,1,2
84,192,56720,1,0
28,140,56907,1,2
96,100,57095,6,0,B|104:48|156:40|156:40|216:88,1,170,2|0
256,24,57657,1,0
294,89,57845,2,0,B|356:40|356:40|408:48|416:100,1,170,8|2
352,140,58407,2,0,B|352:224,1,85,0|2
352,301,58782,2,0,B|328:337|288:353,1,85,0|2
256,284,59157,1,0
225,353,59345,2,0,B|184:336|160:300,1,85,10|0
160,225,59720,2,0,B|160:140,2,85,2|0|2
460,164,60845,6,0,B|424:184|408:228,1,85,4|0
484,232,61220,2,0,B|476:280|440:308|392:308|352:280,1,170,0|2
256,72,62157,1,2
256,148,62345,1,8
256,224,62532,1,2
188,188,62720,1,0
328,108,62907,1,2
188,108,63095,6,0,B|160:72|104:80|72:132|112:176,1,170,2|0
40,196,63657,1,0
68,268,63845,2,0,B|104:244|148:248,1,85,8|2
256,356,64407,1,2
256,356,64595,1,2
296,292,64782,5,0
332,224,64970,1,2
344,300,65157,1,0
288,248,65345,1,2
364,260,65532,5,0
256,176,65720,1,2
148,260,65907,1,0
120,188,66095,6,0,B|112:104|112:104|160:104|184:64,1,170,4|0
252,32,66657,1,0
328,64,66845,2,0,B|352:104|400:104|400:104|392:188,2,170,8|0|2
396,28,67782,1,2
316,156,68157,5,2
296,232,68345,1,0
216,232,68532,1,2
196,156,68720,1,0
256,112,68907,1,2
256,180,69095,5,4
104,92,72095,6,0,B|152:72|192:100|208:152|180:192,1,170,4|0
212,260,72657,1,0
256,196,72845,1,8
300,260,73032,1,0
331,191,73220,2,0,B|304:152|320:100|360:72|408:92,2,170,0|2|0
380,252,74157,5,2
308,332,74345,1,8
256,252,74532,1,0
204,332,74720,1,0
132,252,74907,1,2
156,180,75095,6,0,B|192:148|176:104,1,85,2|0
256,48,75470,2,0,B|256:20,8,21.25,0|0|0|0|0|0|0|0|8
328,72,76032,2,0,B|412:72,1,85
412,148,76407,2,0,B|400:192|400:192|412:228,1,85,0|2
413,312,76782,6,0,B|328:312,1,85,0|0
212,244,77157,2,0,B|168:172,1,85,2|8
344,171,77532,2,0,B|300:244,1,85
184,312,77907,2,0,B|100:312,1,85,0|4
99,158,78470,5,0
136,64,78657,1,0
72,92,78845,1,8
164,132,79032,1,0
212,192,79220,6,0,B|212:248|256:276|304:252|304:192,1,170,0|2
376,64,79970,1,0
413,158,80157,1,2
348,132,80345,1,8
440,92,80532,1,2
480,192,80720,1,0
440,292,80907,1,0
368,264,81095,6,0,B|332:240|332:240|256:276|256:276|220:252,1,170,2|0
192,180,81657,1,0
268,192,81845,2,0,B|301:218|301:218|291:302|291:302|325:329,1,170,8|0
256,360,82407,1,2
248,356,82501,1,2
240,352,82595,1,2
232,348,82688,1,2
224,344,82782,1,2
156,308,82970,5,2
148,304,83063,1,2
138,298,83251,2,0,B|122:287,3,21.25,2|0|2|0
48,316,83532,1,0
52,240,83720,1,2
120,204,83907,1,0
192,236,84095,1,0
428,72,84845,5,4
256,116,85032,1,0
344,92,85220,2,0,B|320:152|364:168|408:184|392:244,1,170,0|2
324,276,85782,2,0,B|300:236|256:224|208:236|184:280,1,170,0|2
119,242,86345,2,0,B|108:192|148:168,1,85,8|2
168,92,86720,2,0,B|184:140|148:168,1,85
92,112,87095,6,0,B|56:136|48:184,1,85
40,260,87470,2,0,B|28:276,8,21.25,0|0|0|0|0|0|0|0|8
96,312,88032,1,0
176,332,88220,1,0
256,296,88407,1,0
336,332,88595,5,2
416,312,88782,1,0
256,296,88970,1,2
176,332,89157,1,0
296,228,89345,5,2
376,208,89532,1,0
252,160,89720,1,2
172,180,89907,1,0
192,108,90095,6,0,B|144:88|100:120|80:168|96:204,1,170,4|0
152,256,90657,2,0,B|196:264|231:234,1,85,0|8
252,160,91032,1,0
172,180,91220,6,0,B|220:344,1,170,0|2
292,343,91782,2,0,B|340:180,1,170,2|0
340,103,92345,2,0,B|304:28,1,85,8|0
208,26,92720,2,0,B|172:104,1,85,0|0
256,192,93095,12,4,96095
256,96,96470,6,0,B|304:92|336:120,2,85,0|0|8
256,288,97220,2,0,B|208:292|176:264,2,85,0|0|2
320,248,97782,1,8
398,127,97970,1,0
277,48,98157,1,2
199,169,98345,2,0,B|148:177|109:196|94:236|91:287,1,170,8|0
244,280,99095,6,0,B|294:271|333:252|348:212|351:161,1,170,2|0
304,108,99657,1,0
256,168,99845,1,8
208,108,100032,1,0
161,167,100220,2,0,B|152:212|112:232,1,85
61,297,100595,2,0,B|70:252|110:232,1,85,2|0
162,168,100970,2,0,B|171:212|211:232,1,85,2|2
262,297,101345,2,0,B|252:252|212:232,1,85,8|0
256,168,101720,1,0
256,92,101907,1,2
322,130,102095,6,0,B|367:127|399:158|399:158|420:198|405:241,1,170,4|0
256,280,102845,1,8
132,192,103220,1,0
153,118,103407,1,0
212,70,103595,1,2
380,192,103970,1,0
359,266,104157,1,2
300,314,104345,2,0,B|263:340|220:332,2,85,8|0|2
188,208,105095,6,0,B|143:200|118:164,1,85,2|0
324,176,105470,2,0,B|368:183|393:219,1,85,2|0
118,163,105845,2,0,B|100:124|116:80,1,85,8|0
393,220,106220,2,0,B|402:240|394:262,4,42.5,2|2|2|2|2
320,240,106782,1,2
256,284,106970,1,2
192,240,107157,2,0,B|144:236|144:236|108:220,1,85,0|8
64,160,107532,1,0
116,104,107720,2,0,B|171:120|187:70|205:18|255:33,2,170,0|4|2
64,160,108657,5,0
96,228,108845,2,0,B|124:264|172:260,1,85,2|0
416,156,109220,2,0,B|388:120|340:124,1,85,2|0
96,156,109595,2,0,B|124:120|172:124,1,85,2|0
416,228,109970,2,0,B|388:264|340:260,1,85,2|0
324,336,110345,1,2
256,300,110532,1,0
188,336,110720,1,2
140,192,111095,5,2
188,48,111470,1,2
256,84,111658,1,0
324,48,111845,2,0,B|321:105|374:108|428:113|426:165,2,170,2|2|2
188,336,112970,2,0,B|190:278|137:275|83:270|85:218,2,170,2|2|2
256,196,114095,5,2
256,120,114282,1,0
324,88,114470,2,0,B|364:72,4,42.5,2|0|0|0|2
256,120,115032,1,0
188,88,115220,2,0,B|148:72,4,42.5,2|0|0|0|2
256,120,115782,1,0
324,152,115970,2,0,B|364:168,4,42.5,2|0|0|0|2
256,120,116532,1,0
188,152,116720,2,0,B|148:168,4,42.5,2|0|0|0|2
256,192,117188,12,0,118595
256,144,118782,5,2
200,92,118970,1,0
124,76,119157,1,2
84,80,119251,1,2
56,108,119345,1,2
52,144,119438,1,2
72,176,119532,1,0
112,240,119720,1,2
184,264,119907,1,2
256,208,120095,6,0,B|286:205|316:187|339:167|349:141|347:110|338:77|318:54,1,204.000004863739,4|8
256,120,120657,1,0
192,55,120845,2,0,B|173:77|164:110|162:141|172:167|195:187|225:205|256:208,1,204.000004863739,0|8
80,260,121595,1,2
256,316,121970,1,8
363,254,122157,1,0
363,130,122345,1,0
256,68,122532,1,2
148,130,122720,1,8
148,254,122907,1,0
216,192,123095,6,0,B|265:238|245:310|245:310|317:338,1,204.000004863739,2|8
308,192,123657,1,0
216,192,123845,2,0,B|265:146|245:74|245:74|317:46,1,204.000004863739,0|8
408,32,124407,2,0,B|432:76|432:76|420:128,1,102.00000243187,0|2
404,216,124782,1,0
338,329,124970,1,0
208,350,125157,1,0
111,262,125345,1,0
118,131,125532,1,2
224,54,125720,1,2
343,80,125907,1,0
344,80,126095,6,0,B|398:100|422:147|432:199|402:249,1,204.000004863739,4|8
344,320,126657,1,0
256,352,126845,1,0
164,344,127032,2,0,B|112:352|112:352|67:333,1,102.00000243187,2|8
24,252,127407,1,0
44,164,127595,2,0,B|41:106|75:66|119:36|176:44,1,204.000004863739,2|8
256,92,128157,1,0
320,156,128345,1,0
256,224,128532,1,2
192,156,128720,1,8
256,92,128907,1,2
335,44,129095,6,0,B|392:36|436:66|470:106|468:164,1,204.000004863739,0|8
444,252,129657,1,0
396,332,129845,1,2
304,332,130032,1,0
256,252,130220,1,0
208,172,130407,2,0,B|236:120,2,51.0000012159348,2|2|0
116,172,130782,1,0
68,252,130970,1,8
116,332,131157,1,0
208,332,131344,1,2
256,252,131532,1,0
304,172,131720,2,0,B|339:128|395:128,1,102.00000243187
404,52,132095,5,0
256,96,132470,1,8
108,52,132845,1,4
52,124,133032,1,0
108,200,133220,2,0,B|92:249|104:309|155:342|206:346,1,204.000004863739,0|2
256,268,133782,5,0
305,346,133970,2,0,B|356:342|407:309|419:249|404:200,1,204.000004863739,8|0
460,124,134532,1,2
396,56,134720,2,0,B|352:24|352:24|300:24,1,102.00000243187,2|0
164,112,135095,2,0,B|208:144|208:144|256:144,1,102.00000243187,2|0
348,272,135470,2,0,B|304:240|304:240|256:240,1,102.00000243187,8|0
116,328,135845,2,0,B|160:360|160:360|207:360,1,102.00000243187,0|2
300,348,136220,1,0
348,272,136407,1,2
428,228,136595,5,2
440,136,136782,2,0,B|348:92,1,102.00000243187,0|8
256,112,137157,1,0
72,248,137345,2,0,B|164:292,1,102.00000243187,0|2
256,272,137720,1,8
256,112,137907,1,2
256,272,138095,6,0,B|282:298|331:308|379:291|410:253|415:216,1,204.000004863739,2|8
256,272,138845,2,0,B|229:245|180:235|132:252|101:290|96:327,1,204.000004863739,0|8
44,152,139595,1,2
180,28,139970,1,0
256,80,140157,1,0
332,28,140345,1,0
332,120,140532,1,2
256,172,140719,1,0
180,120,140907,1,2
256,192,141095,12,0,142220
164,68,142595,6,0,B|108:80,2,56.6666666666667,8|2|2
180,116,142970,2,0,B|132:148,2,56.6666666666667,2|2|2
212,156,143345,2,0,B|176:204,2,56.6666666666667,2|2|2
256,184,143720,2,0,B|236:236,2,56.6666666666667,2|2|2
304,196,144095,6,0,B|392:196|456:260,1,170,2|0
368,356,144657,1,0
256,288,144845,1,2
144,356,145032,1,0
55,260,145220,2,0,B|120:196|208:196,1,170,8|2
96,92,145970,2,0,B|128:68|176:68,1,85
196,100,146251,1,0
228,120,146345,2,0,B|268:120|304:88,1,85,8|0
284,264,146720,2,0,B|244:264|208:296,1,85,8|0
180,224,147095,6,0,B|204:196|252:192|252:192|260:192|260:192|308:188|332:160,1,170,2|0
388,108,147657,1,0
464,100,147845,1,2
496,168,148032,2,0,B|488:208,1,42.5,8|0
472,244,148220,2,0,B|448:284|404:288,1,85,0|0
326,289,148595,5,2
248,291,148782,1,0
191,239,148970,1,0
159,168,149157,1,0
185,94,149345,1,2
263,92,149532,1,0
320,144,149720,1,0
352,215,149907,1,0
326,289,150095,6,0,B|324:348|252:384|200:348,1,170,2|0
172,320,150563,1,0
160,284,150657,2,0,B|148:238|103:227,1,85,0|2
36,192,151032,1,0
104,156,151220,2,0,B|188:140|132:60|216:44,1,170,0|2
348,124,151970,1,0
424,140,152157,2,0,B|452:108,2,42.5
480,192,152532,1,0
424,244,152720,1,0
348,260,152907,1,0
296,316,153095,2,0,B|266:356|220:337|220:337|210:288|256:268,1,170
256,192,153657,1,0
216,68,153845,2,0,B|245:27|291:46|291:46|301:95|256:116,1,170
184,136,154407,5,0
148,124,154501,1,0
108,128,154595,1,2
72,144,154688,1,0
40,164,154782,1,0
12,192,154876,1,0
40,220,154970,1,2
72,240,155064,1,0
108,256,155157,1,0
148,260,155251,1,0
184,248,155345,1,2
236,192,155532,2,0,B|320:192,2,85
256,192,156095,12,2,156845
256,192,157032,5,0
304,252,157220,2,0,B|257:285|289:349|361:345|366:288,1,170,0|2
396,140,157970,2,0,B|412:100,2,42.5
368,212,158345,1,2
216,264,158532,1,0
296,120,158720,1,0
144,172,158907,1,0
208,132,159095,6,0,B|254:98|222:34|150:38|145:96,1,170,2|0
84,52,159657,1,0
40,116,159845,1,2
24,192,160032,1,0
40,268,160220,1,0
84,332,160408,1,0
112,261,160595,6,0,B|160:332,1,85,2|0
399,261,160970,2,0,B|352:332,1,85,0|0
136,192,161345,2,0,B|205:143,1,85
376,192,161720,2,0,B|308:144,1,85
256,84,162095,2,0,B|324:28|416:60,1,170,2|0
460,120,162657,1,0
392,152,162845,1,2
320,132,163032,1,0
256,84,163220,6,0,B|188:28|96:60,1,170,0|2
52,120,163782,1,0
120,152,163970,1,0
192,132,164157,1,0
216,204,164345,2,0,B|196:240,2,42.5,8|0|0
296,204,164720,2,0,B|316:240,2,42.5,8|0|0
256,192,165095,12,2,168095
400,240,174095,6,0,B|430:291|368:364|312:344,1,170,2|0
256,292,174657,1,0
199,344,174845,2,0,B|143:364|81:291|111:239,1,170,8|0
172,192,175407,1,0
180,116,175595,2,0,B|256:56|256:176|332:116,2,170,2|0|8
340,192,176720,1,0
392,336,177095,6,0,B|292:336|256:252|256:252|220:336|120:336,1,340,2|0
124,184,178220,1,0
192,76,178407,1,0
320,76,178595,1,2
256,188,178782,1,0
192,76,178970,1,0
320,76,179157,1,0
388,184,179345,1,2
404,182,179532,1,2
420,180,179720,1,2
436,178,179907,1,2
460,252,180095,6,0,B|396:252|348:300|348:356,1,170
424,356,180657,1,0
424,356,180845,2,0,B|424:300|376:252|312:252,1,170,8|0
244,284,181407,1,0
168,296,181595,2,0,B|140:260|99:251,1,85,0|2
52,192,181970,1,2
99,132,182157,2,0,B|140:124|168:88,1,85,0|8
256,212,182720,1,0
376,120,183095,6,0,B|368:200|408:240|452:228|456:192|456:192|452:156|408:144|368:184|376:264,1,340,2|8
288,136,184220,1,2
232,84,184407,1,0
160,64,184595,1,2
84,64,184782,1,0
124,160,184970,1,2
44,224,185157,1,0
84,320,185345,1,8
160,320,185532,1,2
232,300,185720,1,2
288,248,185907,1,2
224,204,186095,6,0,B|241:138|292:114|354:143,1,170,2|0
356,220,186657,1,0
356,220,186845,2,0,B|418:248|469:225|487:159,1,170,8|0
412,148,187407,1,0
412,148,187595,2,0,B|383:210|406:261|472:279,1,170,2|0
480,204,188157,1,0
480,204,188345,2,0,B|414:221|390:272|419:334,1,170,8|0
276,284,189095,6,0,B|336:272|340:216|304:168|256:192|256:192|208:216|172:168|176:112|240:100,1,340
388,68,190220,1,0
332,120,190407,1,0
236,294,190595,1,2
222,369,190782,1,0
414,279,190970,1,0
347,242,191157,1,0
211,97,191345,1,2
178,28,191532,1,2
76,214,191720,1,2
152,205,191907,1,2
256,192,192095,5,4
