osu file format v13

[General]
AudioFilename: Krewella - Come & Get It.mp3
AudioLeadIn: 0
PreviewTime: 47493
Countdown: 0
SampleSet: Normal
StackLeniency: 0.7
Mode: 0
LetterboxInBreaks: 0
WidescreenStoryboard: 0

[Editor]
Bookmarks: 38700
DistanceSpacing: 1
BeatDivisor: 4
GridSize: 4
TimelineZoom: 0.7999997

[Metadata]
Title:Come & Get It
TitleUnicode:Come & Get It
Artist:Krewella
ArtistUnicode:Krewella
Creator:wuzzat
Version:Insane
Source:
Tags:dubstep electronic drum and bass fort
BeatmapID:410949
BeatmapSetID:169689

[Difficulty]
HPDrainRate:6
CircleSize:4
OverallDifficulty:7
ApproachRate:9
SliderMultiplier:1.8
SliderTickRate:2

[Events]
//Background and Video events
0,0,"BG.jpg",0,0
//Break Periods
2,104045,124134
//Storyboard Layer 0 (Background)
//Storyboard Layer 1 (Fail)
//Storyboard Layer 2 (Pass)
//Storyboard Layer 3 (Foreground)
//Storyboard Sound Samples
//Background Colour Transformations
3,100,163,162,255

[TimingPoints]
14390,344.827586206897,4,1,1,70,1,0
24045,-100,4,1,1,40,0,0
24390,-100,4,1,1,45,0,0
24734,-100,4,1,1,50,0,0
24907,-100,4,1,1,55,0,0
25079,-100,4,1,1,60,0,0
25424,-100,4,1,1,70,0,0
35079,-200,4,1,1,70,0,0
35769,-100,4,1,1,70,0,0
36458,-100,4,1,1,70,0,1
42665,-100,4,1,1,70,0,1
46803,-100,4,1,1,70,0,0
47493,-83.3333333333333,4,1,1,70,0,1
47579,-83.3333333333333,4,1,1,70,0,0
51631,-83.3333333333333,4,1,1,70,0,0
51803,-83.3333333333333,4,1,1,70,0,0
51976,-83.3333333333333,4,1,1,70,0,0
52148,-83.3333333333333,4,1,1,70,0,0
53355,-83.3333333333333,4,1,1,70,0,0
55769,-83.3333333333333,4,1,1,70,0,0
56458,-100,4,1,1,70,0,0
57148,-83.3333333333333,4,1,1,70,0,0
58527,-83.3333333333333,4,1,1,70,0,1
58614,-83.3333333333333,4,1,1,70,0,1
61458,-76.9230769230769,4,1,1,70,0,1
62665,-83.3333333333333,4,1,1,70,0,1
67497,-83.3333333333333,4,1,1,70,0,1
68183,-83.3333333333333,4,1,1,70,0,1
68872,-83.3333333333333,4,1,1,70,0,0
69562,-100,4,1,1,70,0,0
77839,-100,4,1,1,70,0,0
79217,-100,4,1,1,70,0,0
80597,-100,4,1,1,70,0,1
90252,-100,4,1,1,70,0,1
90941,-100,4,1,1,70,0,0
91631,-100,4,1,1,70,0,1
91717,-100,4,1,1,70,0,0
91976,-100,4,1,1,70,0,0
99907,-100,4,1,1,70,0,0
124734,-153.846153846153,4,2,0,70,0,0
128183,-100,4,2,0,70,0,0
130596,-100,4,2,0,70,0,0
134907,-100,4,2,0,70,0,0
135079,-100,4,2,0,70,0,0
135252,-100,4,2,0,70,0,0
135424,-100,4,2,0,70,0,0
135596,-100,4,2,0,70,0,0
135769,-100,4,1,1,70,0,0
136114,-100,4,2,0,70,0,0
146803,-100,4,1,1,70,0,0
152321,-100,4,1,1,70,0,0
157148,-100,4,1,1,70,0,0
157838,-83.3333333333333,4,1,1,70,0,1
157924,-83.3333333333333,4,1,1,70,0,0
159217,-83.3333333333333,4,1,1,70,0,0
161458,-83.3333333333333,4,1,1,70,0,0
164734,-83.3333333333333,4,1,1,70,0,0
166803,-100,4,2,1,70,0,0
167148,-83.3333333333333,4,1,1,70,0,0
167838,-83.3333333333333,4,1,1,70,0,0
168872,-83.3333333333333,4,1,1,70,0,1
171631,-83.3333333333333,4,1,1,70,0,1
177838,-83.3333333333333,4,1,1,70,0,0
182665,-200,4,2,0,70,0,0
188183,-200,4,2,0,40,0,0
193700,-200,4,2,0,40,0,0
201976,-200,4,2,0,40,0,0
205079,-100,4,2,0,40,0,0
206114,-100,4,2,0,5,0,0

[Colours]
Combo1 : 205,121,37
Combo2 : 220,31,31
Combo3 : 91,31,152
Combo4 : 75,119,233

[HitObjects]
116,146,14389,6,0,P|133:106|172:84,1,90
264,92,14734,1,8,0:0:0:0:
204,160,14907,1,0,0:0:0:0:
140,224,15079,2,0,P|132:296|28:328,1,180,0|8,0:0|0:0,0:0:0:0:
220,304,15596,5,2,0:0:0:0:
56,244,15769,1,2,0:0:0:0:
140,224,15941,1,0,0:0:0:0:
136,316,16114,2,0,P|224:304|256:220,1,180,8|0,0:0|0:0,0:0:0:0:
336,268,16631,1,0,0:0:0:0:
336,268,16803,2,0,P|320:312|288:352,1,90,8|0,0:0|0:0,0:0:0:0:
244,272,17148,5,0,0:0:0:0:
188,200,17321,1,0,0:0:0:0:
120,140,17493,2,0,B|124:92|124:92|184:44,2,90,8|0|0,0:0|0:0|0:0,0:0:0:0:
212,136,18010,1,0,0:0:0:0:
212,136,18183,2,0,P|204:184|168:220,1,90,8|0,0:0|0:0,0:0:0:0:
53,306,18527,2,0,P|59:262|88:228,1,90,8|0,0:0|0:0,0:0:0:0:
272,234,18872,2,0,P|225:307|140:304,1,180,8|0,0:0|0:0,0:0:0:0:
180,224,19390,1,0,0:0:0:0:
108,172,19562,1,8,0:0:0:0:
60,96,19734,1,2,0:0:0:0:
60,96,19821,1,2,0:0:0:0:
60,96,19907,6,0,P|28:140|24:192,1,90
238,97,20252,2,0,P|194:88|160:60,1,90,8|0,0:0|0:0,0:0:0:0:
238,316,20596,2,0,P|266:281|275:237,2,90,0|0|8,0:0|0:0|0:0,0:0:0:0:
140,300,21114,1,0,0:0:0:0:
68,236,21286,6,0,L|68:140,1,90
68,236,21631,2,0,P|152:208|228:264,1,180,8|0,0:0|0:0,0:0:0:0:
304,216,22148,1,0,0:0:0:0:
224,256,22321,2,0,P|200:296|220:340,1,90,8|0,0:0|0:0,0:0:0:0:
392,336,22665,6,0,P|405:294|382:258,1,90
368,168,23010,2,0,P|392:116|432:104,1,90,8|0,0:0|0:0,0:0:0:0:
444,192,23355,2,0,L|424:280,1,90
340,340,23700,1,8,0:0:0:0:
172,341,23872,1,2,0:0:0:0:
52,280,24045,5,0,0:0:0:0:
56,268,24131,1,0,0:0:0:0:
60,256,24217,1,0,0:0:0:0:
64,244,24303,1,0,0:0:0:0:
68,232,24389,1,0,0:0:0:0:
72,220,24476,1,0,0:0:0:0:
76,208,24562,1,0,0:0:0:0:
80,196,24648,1,0,0:0:0:0:
84,184,24734,5,8,0:0:0:0:
124,152,24821,1,8,0:0:0:0:
164,124,24907,1,8,0:0:0:0:
168,116,24993,1,0,0:0:0:0:
172,108,25079,1,8,0:0:0:0:
176,100,25165,1,8,0:0:0:0:
180,96,25252,1,8,0:0:0:0:
184,88,25338,1,0,0:0:0:0:
188,80,25424,6,0,L|256:144,1,90,4|0,0:0|0:0,0:0:0:0:
236,228,25769,1,8,0:0:0:0:
172,292,25941,2,0,P|240:224|332:280,1,180,2|0,0:0|0:0,0:0:0:0:
364,172,26458,2,0,P|400:224|400:252,1,90,8|0,0:0|0:0,0:0:0:0:
356,328,26803,5,2,0:0:0:0:
268,312,26976,1,2,0:0:0:0:
236,228,27148,2,0,P|268:312|208:376,1,180,8|0,0:0|0:0,0:0:0:0:
172,292,27665,1,2,0:0:0:0:
116,220,27838,1,8,0:0:0:0:
144,140,28010,1,0,0:0:0:0:
106,72,28183,6,0,P|70:104|78:172,1,90,2|0,0:0|0:0,0:0:0:0:
144,140,28527,1,8,0:0:0:0:
196,80,28700,2,0,P|224:136|164:224,1,180,2|0,0:0|0:0,0:0:0:0:
296,208,29217,1,8,0:0:0:0:
376,172,29390,1,2,0:0:0:0:
384,156,29476,1,2,0:0:0:0:
392,140,29562,6,0,P|440:176|448:232,1,90,2|0,0:0|0:0,0:0:0:0:
400,276,29907,1,8,0:0:0:0:
296,208,30079,2,0,P|224:244|236:336,1,180,2|2,0:0|0:0,0:0:0:0:
292,284,30596,1,8,0:0:0:0:
292,284,30769,1,0,0:0:0:0:
84,196,30942,6,0,P|60:256|84:296,1,90,6|0,0:0|0:0,0:0:0:0:
296,208,31286,2,0,P|238:271|154:255,1,180,8|0,0:0|0:0,0:0:0:0:
56,104,31803,1,2,0:0:0:0:
84,196,31976,6,0,P|60:252|84:308,2,90,0|2|2,0:0|0:0|0:0,0:0:0:0:
176,192,32493,1,0,0:0:0:0:
240,256,32665,2,0,B|320:288|320:288|416:288,1,180,8|0,0:0|0:0,0:0:0:0:
496,240,33183,2,0,P|440:192|416:192,1,90,0|8,0:0|0:0,0:0:0:0:
414,288,33527,1,0,0:0:0:0:
328,304,33700,6,0,L|344:200,1,90,8|0,0:0|0:0,0:0:0:0:
288,40,34045,2,0,L|272:144,1,90,8|0,0:0|0:0,0:0:0:0:
168,280,34390,2,0,L|184:176,1,90,8|0,0:0|0:0,0:0:0:0:
192,104,34734,1,8,0:0:0:0:
104,92,34907,1,2,0:0:0:0:
104,176,35079,5,8,0:0:0:0:
118,193,35165,1,8,0:0:0:0:
134,208,35251,1,8,0:0:0:0:
152,222,35337,1,8,0:0:0:0:
172,233,35423,1,8,0:0:0:0:
193,241,35510,1,8,0:0:0:0:
214,247,35596,1,8,0:0:0:0:
237,250,35682,1,8,0:0:0:0:
264,248,35769,6,0,P|304:276|316:320,1,90,8|0,0:0|0:0,0:0:0:0:
408,244,36114,2,0,P|360:220|332:176,1,90,8|0,0:0|0:0,0:0:0:0:
424,152,36458,6,0,L|424:60,1,90,4|0,0:0|0:0,0:0:0:0:
344,104,36803,1,8,0:0:0:0:
264,64,36976,2,0,P|272:160|352:192,1,180,2|0,0:0|0:0,0:0:0:0:
392,264,37493,1,0,0:0:0:0:
328,328,37665,1,0,0:0:0:0:
236,328,37839,6,0,L|140:328,1,90,2|0,0:0|0:0,0:0:0:0:
72,280,38183,1,8,0:0:0:0:
72,280,38355,2,0,P|80:192|164:160,1,180,2|2,0:0|0:0,0:0:0:0:
120,76,38872,2,0,P|75:94|31:126,1,90,8|0,0:0|0:0,0:0:0:0:
208,56,39217,5,2,0:0:0:0:
208,56,39390,2,0,L|296:104,1,90,0|8,0:0|0:0,0:0:0:0:
307,187,39734,2,0,P|285:106|354:59,1,180
296,304,40252,1,8,0:0:0:0:
208,272,40425,1,2,0:0:0:0:
128,308,40596,6,0,P|124:256|164:200,1,90,2|2,0:0|0:0,0:0:0:0:
216,176,40941,1,8,0:0:0:0:
224,90,41114,2,0,P|180:94|144:120,1,90
128,208,41458,1,2,0:0:0:0:
48,164,41631,1,8,0:0:0:0:
304,156,41803,1,2,0:0:0:0:
304,156,41890,1,2,0:0:0:0:
304,156,41976,6,0,L|304:256,1,90,4|2,0:0|0:0,0:0:0:0:
300,336,42321,1,8,0:0:0:0:
216,300,42493,2,0,P|140:332|64:276,1,180,2|2,0:0|0:0,0:0:0:0:
48,164,43010,1,8,0:0:0:0:
116,80,43183,1,0,0:0:0:0:
224,84,43355,6,0,P|196:160|264:248,1,180,2|8,0:0|0:0,0:0:0:0:
439,213,43872,2,0,P|351:209|280:156,1,180,2|2,0:0|0:0,0:0:0:0:
224,84,44390,1,8,0:0:0:0:
292,24,44562,1,0,0:0:0:0:
380,40,44734,5,8,0:0:0:0:
424,116,44907,1,0,0:0:0:0:
360,176,45079,1,8,0:0:0:0:
272,164,45252,2,0,L|276:220,2,45,0|0|8,0:0|0:0|0:0,0:0:0:0:
224,84,45596,1,0,0:0:0:0:
188,208,45769,1,8,0:0:0:0:
144,128,45941,1,0,0:0:0:0:
356,236,46114,5,8,0:0:0:0:
360,224,46200,1,8,0:0:0:0:
364,212,46286,1,8,0:0:0:0:
460,164,46458,1,8,0:0:0:0:
464,152,46544,1,8,0:0:0:0:
468,140,46630,1,8,0:0:0:0:
380,124,46803,2,0,P|320:136|276:252,1,180,8|0,0:0|0:0,0:0:0:0:
200,152,47321,1,8,0:0:0:0:
160,80,47493,6,0,P|116:112|100:180,1,107.999996704102,4|0,0:0|0:0,0:0:0:0:
132,264,47838,1,8,0:0:0:0:
272,352,48010,1,2,0:0:0:0:
404,256,48183,1,0,0:0:0:0:
352,84,48355,2,0,P|412:80|456:136,2,107.999996704102,2|8|2,0:0|0:0|0:0,0:0:0:0:
272,244,48872,5,2,0:0:0:0:
100,204,49045,1,0,0:0:0:0:
256,132,49217,1,8,0:0:0:0:
172,284,49390,1,2,0:0:0:0:
152,108,49562,1,0,0:0:0:0:
272,244,49734,1,2,0:0:0:0:
100,204,49907,1,8,0:0:0:0:
256,132,50079,1,0,0:0:0:0:
100,204,50252,6,0,B|48:164|48:164|36:116|44:52,1,161.999995056153,4|0,0:0|0:0,0:0:0:0:
42,68,50596,2,0,P|100:68|136:16,1,107.999996704102,8|2,0:0|0:0,0:0:0:0:
240,48,50941,1,0,0:0:0:0:
352,128,51114,1,2,0:0:0:0:
400,224,51286,2,0,P|344:244|312:300,1,107.999996704102,8|2,0:0|0:0,0:0:0:0:
316,282,51545,1,2,0:0:0:0:
316,282,51631,6,0,P|232:336|124:280,1,215.999993408203,4|0,0:0|0:0,0:0:0:0:
133,90,52148,2,0,P|228:47|316:101,1,215.999993408203,4|0,0:0|0:0,0:0:0:0:
412,152,52665,2,0,B|384:200|384:200|328:224,1,107.999996704102,8|2,0:0|0:0,0:0:0:0:
176,316,53010,6,0,P|280:308|336:220,1,215.999993408203,6|8,0:0|0:0,0:0:0:0:
236,172,53527,1,2,0:0:0:0:
236,172,53700,2,0,L|124:172,2,107.999996704102,0|2|8,0:0|0:0|0:0,0:0:0:0:
332,224,54217,1,8,0:0:0:0:
332,224,54390,6,0,P|344:172|332:120,2,107.999996704102,2|0|8,0:0|0:0|0:0,0:0:0:0:
328,332,54907,1,2,0:0:0:0:
423,281,55079,1,0,0:0:0:0:
423,281,55252,2,0,P|375:249|327:221,1,107.999996704102,2|8,0:0|0:0,0:0:0:0:
248,292,55596,1,2,0:0:0:0:
168,248,55769,5,8,0:0:0:0:
143,236,55855,1,8,0:0:0:0:
119,225,55941,1,8,0:0:0:0:
88,120,56114,1,8,0:0:0:0:
112,131,56200,1,8,0:0:0:0:
136,142,56286,1,8,0:0:0:0:
224,172,56458,2,0,L|276:196,1,45,8|0,0:0|0:0,0:0:0:0:
376,72,56803,1,2,0:0:0:0:
376,72,56976,1,2,0:0:0:0:
332,172,57148,6,8,L|368:228,2,53.9999983520508,8|8|8,0:0|0:0|0:0,0:0:0:0:
272,80,57493,1,2,0:0:0:0:
264,240,57665,1,2,0:0:0:0:
272,80,57838,1,8,0:0:0:0:
180,212,58010,1,0,0:0:0:0:
172,104,58183,1,2,0:0:0:0:
172,104,58355,1,8,0:0:0:0:
172,104,58527,6,0,P|120:124|80:176,2,107.999996704102,0|0|8,0:0|0:0|0:0,0:0:0:0:
180,212,59045,1,2,0:0:0:0:
156,360,59217,1,0,0:0:0:0:
92,272,59390,1,2,0:0:0:0:
248,304,59562,1,8,0:0:0:0:
248,304,59734,1,0,0:0:0:0:
248,304,59907,5,2,0:0:0:0:
316,220,60079,1,0,0:0:0:0:
316,220,60252,2,0,L|388:304,1,107.999996704102,8|2,0:0|0:0,0:0:0:0:
440,188,60596,1,0,0:0:0:0:
360,116,60769,1,2,0:0:0:0:
360,116,60941,1,8,0:0:0:0:
360,116,61114,1,2,0:0:0:0:
252,132,61286,6,0,B|204:156|204:156|144:148,2,107.999996704102,2|0|8,0:0|0:0|0:0,0:0:0:0:
296,296,61803,1,2,0:0:0:0:
296,296,61976,1,0,0:0:0:0:
296,296,62148,1,2,0:0:0:0:
296,296,62321,1,8,0:0:0:0:
296,296,62493,1,2,0:0:0:0:
248,264,62579,1,2,0:0:0:0:
208,232,62665,6,0,B|160:192|160:192|160:144|144:128,1,107.999996704102,4|0,0:0|0:0,0:0:0:0:
80,176,63010,1,8,0:0:0:0:
29,241,63183,2,0,P|137:237|141:125,1,215.999993408203,6|0,0:0|0:0,0:0:0:0:
155,147,63614,1,0,0:0:0:0:
154,146,63700,2,0,P|196:104|256:104,1,107.999996704102
397,230,64045,6,0,P|297:252|228:176,1,215.999993408203,6|8,0:0|0:0,0:0:0:0:
260,72,64562,1,2,0:0:0:0:
304,172,64734,1,0,0:0:0:0:
356,76,64907,1,2,0:0:0:0:
208,224,65079,1,8,0:0:0:0:
208,224,65252,1,2,0:0:0:0:
208,224,65424,1,2,0:0:0:0:
120,164,65596,5,0,0:0:0:0:
120,164,65769,2,0,L|132:276,1,107.999996704102,8|2,0:0|0:0,0:0:0:0:
48,204,66114,2,0,P|48:128|168:96,1,215.999993408203,2|8,0:0|0:0,0:0:0:0:
208,224,66631,1,2,0:0:0:0:
315,282,66803,6,0,P|327:231|304:184,1,107.999996704102,2|0,0:0|0:0,0:0:0:0:
408,224,67148,1,8,0:0:0:0:
209,157,67321,2,0,P|283:85|380:120,1,215.999993408203,2|2,0:0|0:0,0:0:0:0:
484,152,67838,1,8,0:0:0:0:
408,224,68010,1,2,0:0:0:0:
328,300,68183,5,8,0:0:0:0:
320,316,68269,1,8,0:0:0:0:
312,332,68355,1,8,0:0:0:0:
252,244,68527,1,8,0:0:0:0:
244,260,68613,1,8,0:0:0:0:
236,276,68699,1,8,0:0:0:0:
228,292,68786,1,8,0:0:0:0:
220,308,68872,1,8,0:0:0:0:
380,68,69562,6,0,P|368:112|392:156,1,90,4|0,0:0|0:0,0:0:0:0:
329,306,69907,2,0,P|348:266|336:224,1,90,8|0,0:0|0:0,0:0:0:0:
113,118,70252,2,0,P|165:188|252:192,1,180,0|8,0:0|0:0,0:0:0:0:
308,120,70769,2,0,P|380:68|464:104,2,180,2|2|2,0:0|0:0|0:0,0:0:0:0:
323,266,71631,2,0,L|368:188,1,90,8|0,0:0|0:0,0:0:0:0:
225,83,71976,2,0,L|308:120,1,90,8|0,0:0|0:0,0:0:0:0:
172,156,72321,5,0,0:0:0:0:
172,284,72493,1,0,0:0:0:0:
108,220,72665,1,8,0:0:0:0:
240,224,72838,1,2,0:0:0:0:
402,276,73010,2,0,P|346:341|264:320,1,180,2|0,0:0|0:0,0:0:0:0:
324,252,73527,5,2,0:0:0:0:
324,252,73614,1,2,0:0:0:0:
324,252,73700,2,0,P|352:212|396:196,2,90,8|0|0,0:0|0:0|0:0,0:0:0:0:
256,308,74217,1,2,0:0:0:0:
256,308,74390,2,0,P|208:296|152:316,1,90,8|0,0:0|0:0,0:0:0:0:
169,78,74734,2,0,P|213:87|255:76,1,90,8|0,0:0|0:0,0:0:0:0:
252,168,75079,6,0,B|176:168|176:168|76:240,1,180,4|8,0:0|0:0,0:0:0:0:
80,320,75596,1,2,0:0:0:0:
168,340,75769,1,0,0:0:0:0:
316,280,76114,1,8,0:0:0:0:
380,220,76286,2,0,P|352:136|416:56,2,180,2|2|0,0:0|0:0|0:0,0:0:0:0:
288,204,77148,2,0,P|277:161|282:117,2,90,8|0|8,0:0|0:0|0:0,0:0:0:0:
300,292,77665,1,2,0:0:0:0:
300,292,77838,5,8,0:0:0:0:
300,292,78010,1,0,0:0:0:0:
208,172,78183,1,8,0:0:0:0:
208,172,78355,1,0,0:0:0:0:
72,180,78527,1,8,0:0:0:0:
72,180,78700,1,0,0:0:0:0:
132,60,78872,1,8,0:0:0:0:
132,60,79045,1,0,0:0:0:0:
280,52,79217,5,8,0:0:0:0:
301,58,79303,1,8,0:0:0:0:
321,68,79389,1,8,0:0:0:0:
340,80,79475,1,8,0:0:0:0:
356,96,79561,1,8,0:0:0:0:
369,114,79648,1,8,0:0:0:0:
378,135,79734,1,8,0:0:0:0:
384,157,79820,1,8,0:0:0:0:
387,179,79906,1,8,0:0:0:0:
56,36,80596,6,0,P|44:120|128:168,1,180,4|8,0:0|0:0,0:0:0:0:
296,68,81114,2,0,B|240:68|240:68|192:88|192:88|120:88,1,180,2|2,0:0|0:0,0:0:0:0:
192,168,81631,2,0,P|232:192|244:244,1,90,8|2,0:0|0:0,0:0:0:0:
294,303,81976,2,0,P|208:312|156:244,1,180,2|8,0:0|0:0,0:0:0:0:
244,232,82493,1,0,0:0:0:0:
244,232,82579,1,0,0:0:0:0:
244,232,82665,2,0,B|280:192|280:192|336:168,1,90,8|0,0:0|0:0,0:0:0:0:
445,294,83010,2,0,B|409:254|409:254|376:240,1,90,8|0,0:0|0:0,0:0:0:0:
262,99,83355,6,0,P|348:89|404:156,1,180,2|8,0:0|0:0,0:0:0:0:
280,321,83872,2,0,P|337:255|316:172,1,180,2|2,0:0|0:0,0:0:0:0:
228,192,84390,1,8,0:0:0:0:
180,268,84562,1,2,0:0:0:0:
156,136,84734,2,0,B|112:136|112:136|84:160|60:208|92:272,1,180,2|8,0:0|0:0,0:0:0:0:
352,256,85252,2,0,P|267:284|180:268,1,180,2|2,0:0|0:0,0:0:0:0:
320,172,85769,1,8,0:0:0:0:
376,104,85941,5,2,0:0:0:0:
376,104,86027,1,2,0:0:0:0:
376,104,86114,1,2,0:0:0:0:
288,88,86286,1,0,0:0:0:0:
288,88,86631,2,0,P|224:148|124:128,1,180,2|2,0:0|0:0,0:0:0:0:
80,208,87148,2,0,P|108:252|96:312,1,90,8|2,0:0|0:0,0:0:0:0:
197,300,87493,6,0,P|185:204|137:136,1,180,2|8,0:0|0:0,0:0:0:0:
196,67,88010,2,0,P|292:72|340:144,1,180,2|2,0:0|0:0,0:0:0:0:
248,148,88527,1,8,0:0:0:0:
304,220,88700,1,2,0:0:0:0:
292,308,88872,5,8,0:0:0:0:
380,336,89045,1,0,0:0:0:0:
428,260,89217,1,8,0:0:0:0:
384,180,89390,1,0,0:0:0:0:
376,168,89476,1,0,0:0:0:0:
368,156,89562,1,8,0:0:0:0:
360,144,89648,1,0,0:0:0:0:
352,132,89734,1,0,0:0:0:0:
288,68,89907,1,8,0:0:0:0:
200,48,90079,1,0,0:0:0:0:
116,76,90252,6,0,L|80:116,1,45,8|0,0:0|0:0,0:0:0:0:
148,168,90424,2,0,L|148:228,1,45,8|0,0:0|0:0,0:0:0:0:
232,204,90596,2,0,L|284:204,1,45,8|0,0:0|0:0,0:0:0:0:
300,288,90769,2,0,L|336:328,1,45,8|0,0:0|0:0,0:0:0:0:
388,260,90941,2,0,P|466:227|462:131,1,180,8|0,0:0|0:0,0:0:0:0:
380,152,91458,1,0,0:0:0:0:
280,112,91631,5,4,0:0:0:0:
160,248,91976,1,0,0:0:0:0:
204,168,92148,1,0,0:0:0:0:
264,336,92321,1,8,0:0:0:0:
246,246,92493,1,0,0:0:0:0:
120,328,92665,1,2,0:0:0:0:
120,328,92838,1,2,0:0:0:0:
322,195,93010,6,0,L|340:284,1,90,2|0,0:0|0:0,0:0:0:0:
312,108,93355,2,0,L|412:88,1,90
220,116,93700,2,0,L|200:16,1,90,8|0,0:0|0:0,0:0:0:0:
224,208,94045,2,0,L|124:228,1,90
120,328,94390,6,0,P|208:336|288:284,1,180,2|0,0:0|0:0,0:0:0:0:
340,220,94907,1,0,0:0:0:0:
312,136,95079,1,8,0:0:0:0:
396,108,95252,1,0,0:0:0:0:
424,192,95424,1,0,0:0:0:0:
340,220,95596,1,0,0:0:0:0:
252,200,95769,6,0,P|204:204|160:248,1,90,4|0,0:0|0:0,0:0:0:0:
236,292,96114,1,2,0:0:0:0:
156,320,96286,2,0,B|112:280|112:280|40:280|12:200,1,180,2|0,0:0|0:0,0:0:0:0:
104,192,96803,1,0,0:0:0:0:
104,192,96976,1,0,0:0:0:0:
252,199,97148,6,0,P|166:187|131:109,1,180,4|0,0:0|0:0,0:0:0:0:
220,108,97665,1,0,0:0:0:0:
308,132,97838,1,8,0:0:0:0:
384,88,98010,1,0,0:0:0:0:
164,40,98183,1,2,0:0:0:0:
164,40,98355,1,2,0:0:0:0:
128,124,98527,6,0,L|140:220,1,90,2|0,0:0|0:0,0:0:0:0:
72,276,98872,2,0,L|60:180,2,90,0|0|8,0:0|0:0|0:0,0:0:0:0:
144,332,99390,1,0,0:0:0:0:
232,312,99562,2,0,P|280:288|328:300,1,90,8|0,0:0|0:0,0:0:0:0:
404,284,99907,6,0,P|384:196|440:136,1,180,2|0,0:0|0:0,0:0:0:0:
360,92,100424,1,0,0:0:0:0:
344,84,100510,1,0,0:0:0:0:
328,76,100596,1,8,0:0:0:0:
256,128,100769,1,2,0:0:0:0:
256,128,101114,1,2,0:0:0:0:
168,120,101286,6,0,L|116:96,2,45,8|0|0,0:0|0:0|0:0,0:0:0:0:
256,276,101631,2,0,L|272:328,2,45,8|0|0,0:0|0:0|0:0,0:0:0:0:
192,212,101976,2,0,P|276:192|344:280,1,180,8|0,0:0|0:0,0:0:0:0:
360,340,102493,1,2,0:0:0:0:
360,340,102665,1,4,0:0:0:0:
334,126,124734,6,0,P|255:251|174:128,1,350.999983932496,2|0,0:0|0:0,0:0:0:0:
256,168,125941,1,2,0:0:0:0:
256,84,126114,1,0,0:0:0:0:
184,44,126286,1,2,0:0:0:0:
328,44,126631,1,0,0:0:0:0:
328,44,126803,1,2,0:0:0:0:
408,160,127148,1,2,0:0:0:0:
364,228,127321,1,2,0:0:0:0:
364,228,127407,1,2,0:0:0:0:
364,228,127493,6,0,B|304:196|252:240|252:240|208:208,1,175.499991966248,2|8,0:0|0:0,0:0:0:0:
311,291,128183,2,0,P|397:299|444:227,1,180,0|2,0:0|0:0,0:0:0:0:
408,160,128700,1,8,0:0:0:0:
320,144,128872,1,2,0:0:0:0:
268,220,129045,1,2,0:0:0:0:
232,140,129217,1,0,0:0:0:0:
116,280,129562,1,8,0:0:0:0:
116,280,129907,1,8,0:0:0:0:
204,288,130079,1,2,0:0:0:0:
204,288,130165,1,2,0:0:0:0:
204,288,130252,6,0,P|244:308|300:308,1,90,8|0,0:0|0:0,0:0:0:0:
268,220,130596,2,0,P|310:205|350:166,1,90,8|0,0:0|0:0,0:0:0:0:
268,128,130941,2,0,P|288:87|288:31,2,90,8|0|8,0:0|0:0|0:0,0:0:0:0:
184,160,131458,1,0,0:0:0:0:
184,68,131631,6,0,P|124:96|112:212,1,180,8|8,0:0|0:0,0:0:0:0:
184,248,132148,2,0,P|240:252|280:296,2,90,0|0|2,0:0|0:0|0:0,0:0:0:0:
104,288,132665,1,2,0:0:0:0:
104,288,132838,1,2,0:0:0:0:
256,192,133010,12,0,134389,0:0:0:0:
256,196,134907,5,0,0:0:0:0:
256,196,135079,2,0,L|196:272,1,90,2|0,0:0|0:0,0:0:0:0:
372,216,135424,2,0,L|432:140,1,90,2|0,0:0|0:0,0:0:0:0:
456,232,135769,6,0,P|372:216|312:288,1,180,4|0,0:0|0:0,0:0:0:0:
236,328,136286,1,2,0:0:0:0:
180,260,136458,2,0,B|152:212|152:212|64:204|60:112,1,180,8|0,0:0|0:0,0:0:0:0:
148,124,136976,2,0,P|235:137|315:99,1,180,2|2,0:0|0:0,0:0:0:0:
404,116,137493,2,0,L|460:196,1,90,2|0,0:0|0:0,0:0:0:0:
376,232,137838,1,10,0:0:0:0:
376,232,138010,2,0,L|376:344,2,90,2|0|2,0:0|0:0|0:0,0:0:0:0:
308,172,138527,6,0,P|224:152|160:220,1,180,4|2,0:0|0:0,0:0:0:0:
252,236,139045,2,0,L|296:328,2,90,0|8|0,0:0|0:0|0:0,0:0:0:0:
180,288,139562,2,0,B|136:232|188:168|188:168|108:156|104:68,1,270,2|0,0:0|0:0,0:0:0:0:
196,80,140252,2,0,P|244:100|268:128,2,90,2|0|2,0:0|0:0|0:0,0:0:0:0:
80,216,140769,1,0,0:0:0:0:
80,216,140941,2,0,L|148:156,1,90,2|0,0:0|0:0,0:0:0:0:
321,304,141286,6,0,B|204:304|204:304|160:260,1,180,6|0,0:0|0:0,0:0:0:0:
240,220,141803,1,2,0:0:0:0:
160,176,141976,2,0,B|204:132|204:132|321:132,1,180,8|0,0:0|0:0,0:0:0:0:
360,212,142493,2,0,P|448:224|456:328,2,180,2|2|2,0:0|0:0|0:0,0:0:0:0:
235,105,143355,2,0,P|210:186|276:240,1,180,8|2,0:0|0:0,0:0:0:0:
320,320,143872,1,2,0:0:0:0:
388,260,144045,6,0,L|340:168,2,90,4|0|2,0:0|0:0|0:0,0:0:0:0:
320,320,144562,1,2,0:0:0:0:
236,292,144734,2,0,P|152:312|104:240,1,180,2|0,0:0|0:0,0:0:0:0:
256,192,145252,12,0,146803,0:0:0:0:
196,80,147148,6,0,P|148:96|104:96,1,90,8|0,0:0|0:0,0:0:0:0:
112,188,147493,2,0,P|156:189|199:204,1,90,8|0,0:0|0:0,0:0:0:0:
240,284,147838,1,8,0:0:0:0:
240,284,148010,2,0,P|180:296|156:344,2,90,2|2|0,0:0|0:0|0:0,0:0:0:0:
296,212,148527,2,0,L|324:120,1,90,8|0,0:0|0:0,0:0:0:0:
379,195,148872,2,0,P|298:213|294:296,1,180,8|2,0:0|0:0,0:0:0:0:
364,356,149390,1,2,0:0:0:0:
380,196,149562,6,0,L|344:104,1,90,2|0,0:0|0:0,0:0:0:0:
232,44,149907,2,0,L|268:136,1,90,8|0,0:0|0:0,0:0:0:0:
228,256,150252,2,0,L|192:164,1,90,8|0,0:0|0:0,0:0:0:0:
68,124,150596,1,0,0:0:0:0:
76,212,150769,1,2,0:0:0:0:
76,212,150855,1,2,0:0:0:0:
76,212,150941,5,2,0:0:0:0:
80,304,151114,2,0,P|152:264|152:172,1,180,2|0,0:0|0:0,0:0:0:0:
220,116,151631,2,0,P|276:84|348:104,2,135,8|8|8,0:0|0:0|0:0,0:0:0:0:
292,168,152321,6,0,P|392:172|424:96,1,180,2|8,0:0|0:0,0:0:0:0:
204,260,153010,2,0,P|120:256|64:332,1,180,2|8,0:0|0:0,0:0:0:0:
160,348,153527,1,8,0:0:0:0:
252,348,153700,1,2,0:0:0:0:
304,260,153872,1,2,0:0:0:0:
340,348,154045,1,8,0:0:0:0:
256,184,154217,1,2,0:0:0:0:
204,260,154390,1,2,0:0:0:0:
172,176,154562,2,0,P|136:208|124:264,2,90,8|0|8,0:0|0:0|0:0,0:0:0:0:
256,332,155079,5,8,0:0:0:0:
233,330,155165,1,0,0:0:0:0:
211,324,155251,1,0,0:0:0:0:
191,314,155337,1,0,0:0:0:0:
174,301,155423,1,0,0:0:0:0:
159,284,155510,1,0,0:0:0:0:
148,264,155596,1,8,0:0:0:0:
141,243,155682,1,0,0:0:0:0:
139,220,155768,5,0,0:0:0:0:
140,198,155854,1,0,0:0:0:0:
147,176,155941,1,0,0:0:0:0:
157,157,156027,1,0,0:0:0:0:
172,139,156113,1,8,0:0:0:0:
189,125,156199,1,0,0:0:0:0:
209,115,156285,1,8,0:0:0:0:
231,108,156372,1,0,0:0:0:0:
252,104,156458,5,8,0:0:0:0:
273,96,156544,1,8,0:0:0:0:
295,93,156630,1,8,0:0:0:0:
317,97,156716,1,0,0:0:0:0:
337,107,156802,1,8,0:0:0:0:
354,122,156889,1,8,0:0:0:0:
375,129,156975,1,8,0:0:0:0:
397,134,157061,1,8,0:0:0:0:
419,140,157147,1,8,0:0:0:0:
80,332,157838,6,0,B|100:264|100:264|92:188|92:188|112:104,1,215.999993408203,6|8,0:0|0:0,0:0:0:0:
184,200,158355,2,0,L|264:284,1,107.999996704102,2|0,0:0|0:0,0:0:0:0:
476,280,158700,2,0,L|396:196,1,107.999996704102,2|8,0:0|0:0,0:0:0:0:
276,164,159045,1,2,0:0:0:0:
276,164,159132,1,2,0:0:0:0:
276,164,159217,5,2,0:0:0:0:
172,300,159390,1,0,0:0:0:0:
332,328,159562,1,8,0:0:0:0:
276,164,159734,1,2,0:0:0:0:
172,300,159907,1,0,0:0:0:0:
332,328,160079,1,2,0:0:0:0:
276,164,160252,1,8,0:0:0:0:
172,300,160424,1,2,0:0:0:0:
172,192,160596,6,0,P|132:100|24:112,1,215.999993408203,2|0,0:0|0:0,0:0:0:0:
76,204,161114,2,0,L|32:328,1,107.999996704102,2|0,0:0|0:0,0:0:0:0:
172,300,161458,2,0,P|268:260|380:328,1,215.999993408203,2|2,0:0|0:0,0:0:0:0:
363,304,161890,1,2,0:0:0:0:
363,304,161976,6,0,L|388:188,1,107.999996704102,4|0,0:0|0:0,0:0:0:0:
324,112,162321,1,8,0:0:0:0:
232,172,162493,2,0,P|136:140|120:20,1,215.999993408203,2|0,0:0|0:0,0:0:0:0:
216,72,163010,2,0,P|256:28|324:16,1,107.999996704102,8|2,0:0|0:0,0:0:0:0:
324,112,163355,6,0,P|216:72|136:120,1,215.999993408203,6|8,0:0|0:0,0:0:0:0:
152,228,163872,1,2,0:0:0:0:
152,228,164217,1,2,0:0:0:0:
372,320,164562,1,0,0:0:0:0:
372,320,164648,1,2,0:0:0:0:
372,320,164734,5,2,0:0:0:0:
428,168,164907,1,2,0:0:0:0:
280,108,165079,1,8,0:0:0:0:
216,256,165252,1,2,0:0:0:0:
372,320,165424,1,0,0:0:0:0:
428,168,165596,1,2,0:0:0:0:
280,108,165769,1,8,0:0:0:0:
216,256,165941,1,0,0:0:0:0:
112,280,166114,5,8,0:0:0:0:
100,264,166200,1,8,0:0:0:0:
88,248,166286,1,8,0:0:0:0:
144,180,166459,1,8,0:0:0:0:
146,160,166545,1,8,0:0:0:0:
149,140,166631,1,8,0:0:0:0:
200,68,166803,2,0,L|248:24,1,45
348,152,167148,5,2,0:0:0:0:
348,152,167321,1,2,0:0:0:0:
316,256,167493,2,0,L|332:312,2,53.9999983520508,8|8|8,0:0|0:0|0:0,0:0:0:0:
248,172,167838,1,2,0:0:0:0:
248,172,168010,1,2,0:0:0:0:
108,232,168183,1,8,0:0:0:0:
208,272,168355,1,2,0:0:0:0:
148,132,168527,1,2,0:0:0:0:
208,272,168700,1,8,0:0:0:0:
108,232,168872,6,0,P|52:160|100:40,1,215.999993408203,4|8,0:0|0:0,0:0:0:0:
196,36,169390,1,0,0:0:0:0:
252,128,169562,1,0,0:0:0:0:
320,44,169734,1,2,0:0:0:0:
416,236,169907,5,8,0:0:0:0:
416,236,170079,1,2,0:0:0:0:
416,236,170252,1,2,0:0:0:0:
308,220,170424,1,0,0:0:0:0:
308,220,170596,2,0,L|200:256,2,107.999996704102,8|2|0,0:0|0:0|0:0,0:0:0:0:
380,140,171114,2,0,P|412:84|460:64,2,107.999996704102,2|8|0,0:0|0:0|0:0,0:0:0:0:
220,156,171631,6,0,L|308:220,2,107.999996704102,2|0|8,0:0|0:0|0:0,0:0:0:0:
192,260,172148,1,2,0:0:0:0:
120,180,172321,1,0,0:0:0:0:
80,280,172493,1,2,0:0:0:0:
20,188,172665,1,8,0:0:0:0:
68,92,172838,1,2,0:0:0:0:
68,92,172924,1,2,0:0:0:0:
68,92,173010,6,0,L|180:64,1,107.999996704102,4|0,0:0|0:0,0:0:0:0:
252,140,173355,1,8,0:0:0:0:
336,72,173527,2,0,P|280:136|336:240,1,215.999993408203,6|2,0:0|0:0,0:0:0:0:
334,239,173958,1,8,0:0:0:0:
334,239,174045,2,0,P|392:264|416:320,1,107.999996704102,2|2,0:0|0:0,0:0:0:0:
316,344,174390,6,0,P|220:296|112:340,1,215.999993408203,6|8,0:0|0:0,0:0:0:0:
116,220,174907,1,2,0:0:0:0:
116,220,175079,2,0,L|116:108,1,107.999996704102,0|2,0:0|0:0,0:0:0:0:
212,164,175424,2,0,B|272:152|272:152|320:96,2,107.999996704102,8|2|0,0:0|0:0|0:0,0:0:0:0:
220,272,175941,1,0,0:0:0:0:
320,228,176114,2,0,P|376:212|432:244,1,107.999996704102,8|2,0:0|0:0,0:0:0:0:
352,316,176458,2,0,P|320:232|196:224,1,215.999993408203,0|8,0:0|0:0,0:0:0:0:
132,296,176976,1,2,0:0:0:0:
132,296,177148,1,2,0:0:0:0:
256,192,177321,12,0,179907,0:0:0:0:
256,68,182665,6,0,P|176:88|164:192,1,180,2|0,0:0|0:0,0:0:0:0:
244,152,184045,2,0,P|324:172|336:276,1,180,2|0,0:0|0:0,0:0:0:0:
264,232,185424,2,0,P|184:212|172:108,1,180,2|0,0:0|0:0,0:0:0:0:
92,64,188183,6,0,B|96:120|172:100|172:100|204:136|192:180,1,180,2|0,0:0|0:0,0:0:0:0:
420,64,189562,2,0,B|416:120|340:100|340:100|308:136|320:180,1,180,2|0,0:0|0:0,0:0:0:0:
256,292,190941,2,0,L|256:100,1,180,2|0,0:0|0:0,0:0:0:0:
92,320,193700,6,0,B|96:264|172:284|172:284|204:248|192:204,1,180,2|0,0:0|0:0,0:0:0:0:
420,320,195079,2,0,B|416:264|340:284|340:284|308:248|320:204,1,180,2|0,0:0|0:0,0:0:0:0:
256,84,196459,2,0,L|256:276,1,180,2|0,0:0|0:0,0:0:0:0:
256,60,199217,5,2,0:0:0:0:
112,192,200596,1,2,0:0:0:0:
456,304,201976,1,2,0:0:0:0:
