osu file format v13

[General]
AudioFilename: Krewella - Come & Get It.mp3
AudioLeadIn: 0
PreviewTime: 47493
Countdown: 0
SampleSet: Normal
StackLeniency: 0.7
Mode: 0
LetterboxInBreaks: 0
WidescreenStoryboard: 0

[Editor]
Bookmarks: 29390
DistanceSpacing: 0.9
BeatDivisor: 4
GridSize: 4
TimelineZoom: 1.5

[Metadata]
Title:Come & Get It
TitleUnicode:Come & Get It
Artist:Krewella
ArtistUnicode:Krewella
Creator:wuzzat
Version:Hard
Source:
Tags:dubstep electronic drum and bass fort
BeatmapID:412743
BeatmapSetID:169689

[Difficulty]
HPDrainRate:5
CircleSize:4
OverallDifficulty:6
ApproachRate:7
SliderMultiplier:1.6
SliderTickRate:2

[Events]
//Background and Video events
0,0,"BG.jpg",0,0
//Break Periods
2,104045,123700
//Storyboard Layer 0 (Background)
//Storyboard Layer 1 (Fail)
//Storyboard Layer 2 (Pass)
//Storyboard Layer 3 (Foreground)
//Storyboard Sound Samples
//Background Colour Transformations
3,100,163,162,255

[TimingPoints]
14390,344.827586206897,4,1,1,70,1,0
24045,-100,4,1,1,40,0,0
24390,-100,4,1,1,45,0,0
24734,-100,4,1,1,50,0,0
24907,-100,4,1,1,55,0,0
25079,-100,4,1,1,60,0,0
25424,-100,4,1,1,70,0,0
36458,-100,4,1,1,70,0,1
46803,-100,4,1,1,70,0,0
47493,-100,4,1,1,70,0,1
47579,-100,4,1,1,70,0,0
50252,-100,4,1,1,70,0,0
53010,-100,4,1,1,70,0,0
58527,-100,4,1,1,70,0,1
58614,-100,4,1,1,70,0,1
64045,-100,4,1,1,70,0,1
68872,-100,4,1,1,70,0,0
69562,-100,4,1,1,70,0,0
79907,-100,4,1,1,70,0,0
80596,-100,4,1,1,70,0,1
89390,-100,4,1,1,70,0,1
90941,-100,4,1,1,70,0,0
91631,-100,4,1,1,70,0,1
91717,-100,4,1,1,70,0,0
94390,-100,4,1,1,70,0,0
94390,-100,4,1,1,70,0,0
97148,-100,4,1,1,70,0,0
99907,-100,4,1,1,70,0,0
100252,-100,4,1,1,70,0,0
100769,-100,4,1,1,70,0,0
100941,-100,4,1,1,70,0,0
101286,-100,4,1,1,70,0,0
101976,-133.333333333333,4,1,1,70,0,0
124734,-100,4,1,1,70,0,0
135769,-100,4,2,0,70,0,0
140596,-100,4,2,0,70,0,0
146803,-100,4,2,0,70,0,0
148010,-100,4,2,0,70,0,0
152321,-100,4,1,1,70,0,0
155079,-100,4,1,1,70,0,0
157838,-100,4,1,1,70,0,1
157924,-100,4,1,1,70,0,0
158183,-100,4,1,1,70,0,0
160596,-100,4,1,1,70,0,0
166114,-100,4,1,1,70,0,0
168872,-100,4,1,1,70,0,1
174390,-100,4,1,1,70,0,1
177838,-100,4,1,1,70,0,0
182665,-133.333333333333,4,2,0,40,0,0
206114,-133.333333333333,4,2,0,5,0,0

[Colours]
Combo1 : 205,121,37
Combo2 : 220,31,31
Combo3 : 91,31,152
Combo4 : 75,119,233

[HitObjects]
256,72,14390,6,0,L|148:72,1,80
96,72,14734,1,8,0:0:0:0:
88,312,15252,2,0,L|184:312,1,80,0|8,0:0|0:0,0:0:0:0:
328,312,15769,1,0,0:0:0:0:
408,312,15942,1,0,0:0:0:0:
488,312,16114,1,8,0:0:0:0:
192,192,16803,1,8,0:0:0:0:
112,192,16976,1,2,0:0:0:0:
112,192,17148,6,0,L|16:192,1,80,0|0,0:0|0:0,0:0:0:0:
160,96,17493,1,8,0:0:0:0:
464,192,18183,1,8,0:0:0:0:
160,96,18872,1,8,0:0:0:0:
312,48,19217,2,0,L|312:148,1,80,8|0,0:0|0:0,0:0:0:0:
224,208,19562,2,0,L|224:108,1,80,8|0,0:0|0:0,0:0:0:0:
80,120,19907,5,2,0:0:0:0:
84,280,20252,1,8,0:0:0:0:
224,208,20596,1,2,0:0:0:0:
64,196,20941,1,8,0:0:0:0:
228,260,21286,1,2,0:0:0:0:
108,132,21631,1,8,0:0:0:0:
160,300,21976,1,2,0:0:0:0:
204,128,22321,1,8,0:0:0:0:
292,132,22493,1,2,0:0:0:0:
292,132,22665,6,0,L|348:200,1,80,2|0,0:0|0:0,0:0:0:0:
288,252,23010,1,8,0:0:0:0:
416,164,23355,1,2,0:0:0:0:
456,324,23700,1,8,0:0:0:0:
392,264,23872,1,0,0:0:0:0:
328,320,24045,6,0,L|300:356,3,40,0|0|0|0,0:0|0:0|0:0|0:0,0:0:0:0:
264,352,24390,2,0,L|220:364,3,40,0|0|0|0,0:0|0:0|0:0|0:0,0:0:0:0:
184,352,24734,2,0,L|136:340,3,40,8|8|8|2,0:0|0:0|0:0|0:0,0:0:0:0:
120,312,25079,2,0,L|88:264,3,40,8|8|8|2,0:0|0:0|0:0|0:0,0:0:0:0:
80,240,25424,6,0,P|48:192|48:148,1,80,4|0,0:0|0:0,0:0:0:0:
128,184,25769,2,0,P|120:140|148:80,1,80,8|0,0:0|0:0,0:0:0:0:
200,144,26114,2,0,P|188:244|120:264,1,160,0|8,0:0|0:0,0:0:0:0:
128,184,26631,1,0,0:0:0:0:
88,116,26803,5,0,0:0:0:0:
156,72,26976,1,2,0:0:0:0:
290,209,27148,2,0,P|287:131|236:72,1,160,8|0,0:0|0:0,0:0:0:0:
200,144,27665,1,2,0:0:0:0:
160,212,27838,2,0,L|100:276,1,80,8|0,0:0|0:0,0:0:0:0:
240,296,28183,5,2,0:0:0:0:
400,296,28527,1,8,0:0:0:0:
321,332,28700,2,0,P|309:252|245:208,1,160,2|2,0:0|0:0,0:0:0:0:
80,296,29217,1,8,0:0:0:0:
32,168,29390,1,0,0:0:0:0:
32,168,29476,1,0,0:0:0:0:
32,168,29562,6,0,B|80:168|104:216|160:256|208:200,1,160
252,200,30079,2,0,P|178:218|160:292,1,160
240,284,30596,1,0,0:0:0:0:
320,296,30769,1,0,0:0:0:0:
332,216,30941,6,0,P|344:164|380:136,1,80
474,50,31286,2,0,P|477:128|431:190,1,160
396,264,31803,1,0,0:0:0:0:
332,216,31976,2,0,B|284:252|284:252|228:252,1,80
104,272,32493,1,0,0:0:0:0:
152,208,32665,6,0,P|156:120|244:88,1,160
220,164,33183,1,0,0:0:0:0:
346,186,33355,2,0,L|292:128,1,80
452,152,33700,6,0,L|506:210,1,80
412,284,34045,2,0,L|332:284,1,80
208,216,34390,2,0,L|288:216,1,80
192,288,34734,2,0,L|112:288,1,80
44,204,35079,6,0,L|44:160,3,40
72,132,35424,2,0,L|116:96,3,40
140,92,35769,2,0,P|208:84|256:152,1,160
208,216,36286,1,0,0:0:0:0:
132,244,36458,6,0,P|172:292|272:268,1,160,0|0,0:0|0:0,0:0:0:0:
416,240,36976,2,0,P|376:192|276:216,1,160
261,280,37493,1,0,0:0:0:0:
184,296,37665,1,0,0:0:0:0:
208,216,37838,1,0,0:0:0:0:
196,56,38183,6,0,L|100:56,1,80
68,120,38527,1,0,0:0:0:0:
148,132,38700,2,0,P|128:176|72:200,1,80
68,120,39045,1,0,0:0:0:0:
116,56,39217,6,0,P|176:48|240:136,1,160
244,196,39734,1,0,0:0:0:0:
244,196,39821,1,0,0:0:0:0:
244,196,39907,2,0,L|336:220,1,80
445,304,40252,2,0,L|368:284,1,80
196,287,40596,6,0,P|273:277|322:216,1,160
430,93,41114,2,0,P|354:78|304:136,1,160
244,196,41631,1,0,0:0:0:0:
52,168,41803,1,0,0:0:0:0:
52,168,41890,1,0,0:0:0:0:
52,168,41976,6,0,P|36:100|48:56,1,80
108,52,42321,1,0,0:0:0:0:
124,132,42493,2,0,B|136:184|136:184|116:224|116:224|132:292,1,160
244,292,43010,1,0,0:0:0:0:
244,292,43183,1,0,0:0:0:0:
304,228,43355,6,0,P|275:299|328:352,1,160
404,212,43872,2,0,P|432:141|379:87,1,160
312,136,44390,1,0,0:0:0:0:
252,88,44562,1,0,0:0:0:0:
176,108,44734,6,0,L|200:188,1,80
148,292,45079,2,0,L|124:212,1,80
96,140,45424,2,0,B|56:160|56:160|44:216,2,80
176,108,45941,1,0,0:0:0:0:
292,136,46114,6,0,L|280:80,2,40
364,100,46458,2,0,L|396:60,2,40
428,148,46803,2,0,B|456:252|348:284,1,160
256,184,47321,1,0,0:0:0:0:
256,184,47493,6,0,L|256:272,1,80
196,116,47838,2,0,L|132:48,1,80
316,116,48183,2,0,L|380:48,1,80
256,185,48527,1,0,0:0:0:0:
256,185,48700,1,0,0:0:0:0:
164,192,48872,6,0,P|116:216|76:248,1,80
212,260,49217,2,0,P|188:296|160:336,1,80
304,260,49562,2,0,P|328:296|360:340,1,80
348,192,49907,2,0,P|396:216|436:248,1,80
256,136,50252,6,0,B|256:168|256:168|264:172|264:172|256:184|256:184|256:216,1,80
212,68,50596,2,0,L|124:68,1,80
300,68,50941,2,0,L|392:68,1,80
256,136,51286,1,0,0:0:0:0:
192,184,51458,1,0,0:0:0:0:
192,184,51545,1,0,0:0:0:0:
192,184,51631,6,0,P|164:224|112:248,1,80
136,320,51976,1,0,0:0:0:0:
208,351,52148,2,0,P|252:287|336:279,1,160
396,324,52665,2,0,P|416:272|388:224,1,80
404,159,53010,6,0,P|338:200|329:277,1,160
248,284,53527,1,0,0:0:0:0:
168,284,53700,2,0,L|84:284,1,80
116,208,54045,2,0,L|196:208,1,80
276,204,54390,6,0,P|316:236|328:288,1,80
404,348,54734,2,0,L|404:268,1,80
468,140,55079,2,0,L|468:220,2,80
396,100,55596,1,0,0:0:0:0:
320,72,55769,6,0,L|280:32,2,40
284,144,56114,2,0,L|276:184,2,40
204,140,56458,1,0,0:0:0:0:
80,308,56803,5,0,0:0:0:0:
164,348,56976,1,0,0:0:0:0:
248,316,57148,5,0,0:0:0:0:
248,316,57234,1,0,0:0:0:0:
248,316,57321,1,0,0:0:0:0:
328,352,57493,1,0,0:0:0:0:
404,316,57665,1,0,0:0:0:0:
328,260,57838,2,0,L|328:168,2,80
328,352,58355,1,0,0:0:0:0:
248,316,58527,6,0,P|212:244|112:236,1,160
80,172,59045,1,0,0:0:0:0:
148,132,59217,2,0,P|192:120|216:80,1,80
363,132,59562,2,0,P|325:123|299:93,2,80
416,196,60079,5,0,0:0:0:0:
380,268,60252,1,0,0:0:0:0:
380,268,60424,1,0,0:0:0:0:
380,268,60596,2,0,L|288:268,1,80
140,268,60941,2,0,L|220:268,1,80
240,192,61286,6,0,P|220:272|288:340,1,160
344,344,61803,1,0,0:0:0:0:
380,268,61976,1,0,0:0:0:0:
308,232,62148,1,0,0:0:0:0:
240,192,62321,1,0,0:0:0:0:
168,160,62493,1,0,0:0:0:0:
168,160,62579,1,0,0:0:0:0:
168,160,62665,6,0,P|172:240|248:272,1,160
308,232,63183,2,0,P|310:151|238:113,1,160
249,113,63614,1,0,0:0:0:0:
249,113,63700,2,0,P|200:80|144:80,1,80
104,60,64045,6,0,P|56:120|76:216,1,160
144,200,64562,1,0,0:0:0:0:
144,200,64734,2,0,L|232:200,1,80
304,196,65079,2,0,B|336:168|336:168|336:112,2,80
268,268,65596,5,0,0:0:0:0:
268,268,65769,2,0,P|288:312|332:344,1,80
364,272,66114,2,0,P|408:216|408:120,1,160
344,84,66631,1,0,0:0:0:0:
268,56,66803,6,0,P|230:41|191:40,1,80
176,120,67148,2,0,P|215:120|252:135,1,80
364,272,67665,1,0,0:0:0:0:
364,272,67838,2,0,P|344:224|312:200,1,80
252,244,68183,6,0,L|228:288,2,40
244,164,68527,2,0,L|280:96,2,40
184,216,68872,2,0,P|184:276|272:316,1,160
324,264,69390,1,0,0:0:0:0:
320,184,69562,5,0,0:0:0:0:
304,104,69734,1,0,0:0:0:0:
244,164,69907,2,0,L|176:120,1,80
148,44,70252,2,0,P|176:116|96:164,1,160
148,240,70769,2,0,P|120:164|48:160,2,160
192,304,71631,1,0,0:0:0:0:
264,268,71803,1,0,0:0:0:0:
264,268,71976,2,0,P|308:248|352:248,1,80
483,182,72321,6,0,P|443:186|408:203,1,80
336,168,72665,2,0,P|256:144|184:176,2,160
264,224,73527,1,0,0:0:0:0:
264,224,73614,1,0,0:0:0:0:
264,224,73700,6,0,P|268:272|236:320,1,80
188,172,74045,2,0,P|184:124|216:76,1,80
272,140,74390,2,0,B|316:116|316:116|332:76,2,80
188,172,74907,1,0,0:0:0:0:
100,156,75079,6,0,P|104:204|140:244,1,80
272,140,75424,2,0,P|268:92|232:52,1,80
188,172,75769,2,0,P|224:240|176:320,1,160
148,244,76286,2,0,P|84:284|72:368,2,160
148,332,77148,1,0,0:0:0:0:
148,332,77321,2,0,L|232:332,1,80
272,267,77665,1,0,0:0:0:0:
400,332,77838,6,0,L|320:332,1,80
205,231,78183,2,0,P|244:239|272:268,1,80
418,215,78527,2,0,P|379:223|351:251,1,80
254,368,78872,2,0,P|292:359|320:331,1,80
400,332,79217,6,0,L|420:276,2,40
488,252,79562,2,0,L|508:196,2,40
418,215,79907,2,0,P|490:251|486:331,1,160
400,332,80424,1,0,0:0:0:0:
328,300,80596,6,0,P|264:260|172:296,1,160
132,224,81114,2,0,P|188:280|152:368,1,160
112,300,81631,2,0,L|32:300,1,80
132,224,81976,2,0,B|56:224|56:224|24:144,1,160
76,36,82493,2,0,B|152:36|152:36|184:116,1,160
204,192,83010,1,0,0:0:0:0:
264,136,83183,1,0,0:0:0:0:
284,212,83355,6,0,L|284:308,2,80
340,156,83872,2,0,P|416:168|436:252,1,160
360,236,84390,1,0,0:0:0:0:
300,288,84562,1,0,0:0:0:0:
310,367,84734,6,0,P|238:343|223:268,1,160
284,212,85252,2,0,P|356:236|370:311,1,160
300,288,85769,1,0,0:0:0:0:
220,304,85941,6,0,L|160:328,2,40
200,228,86286,1,0,0:0:0:0:
200,228,86631,2,0,P|180:176|60:180,1,160
44,228,87148,1,0,0:0:0:0:
84,300,87321,1,0,0:0:0:0:
156,296,87493,6,0,P|208:312|276:232,1,160
448,144,88010,2,0,P|403:206|328:196,1,160
252,168,88527,1,0,0:0:0:0:
172,152,88700,1,0,0:0:0:0:
284,96,88872,5,0,0:0:0:0:
360,124,89045,1,0,0:0:0:0:
328,196,89217,1,0,0:0:0:0:
284,264,89390,2,0,B|324:276|324:276|396:264,2,80
212,304,89907,2,0,P|172:336|108:340,1,80
144,264,90252,6,0,L|104:224,2,40
184,192,90596,2,0,L|164:124,2,40
252,236,90941,2,0,P|280:268|244:376,1,160
212,304,91458,1,0,0:0:0:0:
252,236,91631,6,0,P|300:228|344:248,1,80
428,317,91976,2,0,P|390:326|352:316,2,80
408,240,92493,1,0,0:0:0:0:
380,164,92665,2,0,P|432:156|472:184,1,80
408,240,93010,6,0,L|328:288,1,80
253,300,93355,2,0,P|254:261|276:228,1,80
412,304,93700,2,0,P|372:302|339:281,1,80
204,205,94045,2,0,P|243:206|276:227,1,80
252,300,94390,6,0,P|276:228|356:196,1,160
336,284,94907,1,0,0:0:0:0:
412,268,95079,1,0,0:0:0:0:
440,192,95252,2,0,B|480:216|480:216|496:256,2,80
360,184,95769,6,0,P|396:120|480:120,1,160
412,268,96286,2,0,P|376:332|292:332,1,160
216,324,96803,2,0,P|168:308|140:264,1,80
220,248,97148,6,0,P|240:188|184:116,1,160
164,192,97665,1,0,0:0:0:0:
112,252,97838,1,0,0:0:0:0:
84,176,98010,2,0,P|44:208|32:240,2,80
164,192,98527,6,0,L|208:120,1,80
316,80,98872,2,0,L|272:152,1,80
244,224,99217,2,0,B|284:240|284:240|316:280,2,80
236,304,99734,1,0,0:0:0:0:
160,324,99907,6,0,L|100:332,2,40
164,244,100252,2,0,L|136:208,2,40
244,224,100596,2,0,L|256:184,2,40
236,304,100941,1,0,0:0:0:0:
308,272,101114,1,0,0:0:0:0:
352,204,101286,6,0,L|332:160,2,40
428,232,101631,2,0,L|444:276,2,40
424,152,101976,2,0,P|340:120|260:232,1,240
132,104,124734,5,0,0:0:0:0:
287,105,125079,2,0,P|249:115|212:104,1,80
252,36,125424,2,0,P|212:104|244:172,1,160
324,176,125941,1,0,0:0:0:0:
360,248,126114,6,0,P|392:216|400:172,2,80
280,248,126631,1,0,0:0:0:0:
248,320,126803,1,0,0:0:0:0:
248,320,127148,1,0,0:0:0:0:
200,256,127321,2,0,L|168:284,2,40
372,88,128010,5,0,0:0:0:0:
292,88,128183,2,0,P|264:160|176:172,1,160
212,100,128700,1,0,0:0:0:0:
212,100,128872,2,0,L|188:184,1,80
136,236,129217,2,0,B|112:312|112:312|32:336,2,160
72,188,130079,6,0,L|36:144,2,40
212,268,130596,1,0,0:0:0:0:
220,108,130941,1,0,0:0:0:0:
340,188,131286,1,0,0:0:0:0:
292,252,131458,1,0,0:0:0:0:
212,268,131631,5,0,0:0:0:0:
72,188,131976,1,0,0:0:0:0:
68,348,132321,1,0,0:0:0:0:
148,212,132665,1,0,0:0:0:0:
136,132,132838,1,0,0:0:0:0:
256,192,133010,12,0,134390,0:0:0:0:
208,188,134907,5,0,0:0:0:0:
288,268,135079,1,0,0:0:0:0:
288,188,135252,1,0,0:0:0:0:
208,268,135424,1,0,0:0:0:0:
136,232,135596,1,0,0:0:0:0:
136,232,135769,6,0,P|128:180|200:104,1,160
360,232,136458,2,0,P|368:180|296:104,1,160
288,188,136976,2,0,P|276:244|204:316,2,160
208,172,137838,2,0,L|116:148,1,80
100,228,138183,2,0,L|192:252,1,80
256,268,138527,6,0,P|324:276|360:356,1,160
280,344,139045,1,0,0:0:0:0:
256,268,139217,2,0,P|256:200|328:132,1,160
372,76,139734,1,0,0:0:0:0:
416,144,139907,6,0,L|456:216,1,80
384,248,140252,2,0,P|356:296|316:300,2,80
308,228,140769,1,0,0:0:0:0:
232,204,140941,1,0,0:0:0:0:
184,140,141114,1,0,0:0:0:0:
120,188,141286,6,0,P|80:256|104:344,1,160
168,368,141803,1,0,0:0:0:0:
240,328,141976,2,0,P|320:344|392:308,1,160
332,256,142493,2,0,P|396:228|468:292,2,160
252,248,143355,6,0,L|172:180,1,80
119,228,143700,2,0,P|112:189|124:152,1,80
192,108,144045,2,0,B|260:80|260:80|348:112,1,160
372,208,144562,1,0,0:0:0:0:
332,276,144734,1,0,0:0:0:0:
256,300,144907,1,0,0:0:0:0:
176,284,145079,1,0,0:0:0:0:
256,192,145252,12,0,146803,0:0:0:0:
256,88,147148,5,0,0:0:0:0:
256,88,147493,1,0,0:0:0:0:
256,88,147838,1,0,0:0:0:0:
204,148,148010,1,0,0:0:0:0:
284,164,148183,5,0,0:0:0:0:
284,164,148527,1,0,0:0:0:0:
284,164,148872,1,0,0:0:0:0:
228,224,149045,1,0,0:0:0:0:
288,280,149217,1,0,0:0:0:0:
340,220,149390,1,0,0:0:0:0:
360,144,149562,6,0,P|336:104|288:88,1,80
205,176,149907,2,0,P|206:137|228:104,1,80
360,144,150252,2,0,P|404:168|408:224,1,80
396,272,150596,1,0,0:0:0:0:
340,220,150769,6,0,L|304:240,2,40
280,164,151114,2,0,P|248:112|144:128,1,160
124,188,151631,2,0,P|100:248|56:280,2,120
204,176,152321,5,0,0:0:0:0:
248,244,152493,1,0,0:0:0:0:
248,244,152579,1,0,0:0:0:0:
248,244,152665,2,0,P|292:256|312:312,1,80
240,320,153010,2,0,B|192:312|172:272|172:272|136:288|92:268,1,160
136,200,153527,1,0,0:0:0:0:
120,120,153700,6,0,P|80:144|56:184,1,80
136,200,154045,1,0,0:0:0:0:
200,152,154217,1,0,0:0:0:0:
216,232,154390,2,0,B|248:212|248:212|304:216,2,80
268,292,154907,1,0,0:0:0:0:
348,308,155079,6,0,L|400:296,3,40
404,264,155424,2,0,L|420:220,3,40
404,188,155769,2,0,L|380:152,3,40
344,140,156114,2,0,L|300:152,3,40
256,192,156458,12,0,157838,0:0:0:0:
256,92,158183,5,0,0:0:0:0:
196,144,158355,1,0,0:0:0:0:
196,144,158700,1,0,0:0:0:0:
84,256,159045,1,0,0:0:0:0:
84,256,159131,1,0,0:0:0:0:
84,256,159217,6,0,L|156:328,1,80
176,240,159562,2,0,L|256:240,1,80
348,256,159907,2,0,L|276:328,2,80
312,184,160424,1,0,0:0:0:0:
392,184,160596,6,0,P|368:124|260:124,1,160
228,168,161114,2,0,P|200:196|144:200,1,80
188,280,161458,2,0,P|111:273|77:205,1,160
77,205,161890,1,0,0:0:0:0:
77,205,161976,6,0,L|78:111,1,80
116,56,162321,1,0,0:0:0:0:
192,80,162493,2,0,P|268:100|352:48,1,160
380,136,163010,2,0,P|412:180|460:192,1,80
456,112,163355,6,0,P|376:136|360:228,1,160
404,268,163872,1,0,0:0:0:0:
404,268,164217,1,0,0:0:0:0:
256,328,164562,1,0,0:0:0:0:
256,328,164648,1,0,0:0:0:0:
256,328,164734,6,0,P|224:296|172:288,1,80
216,212,165079,2,0,P|170:212|128:243,1,80
104,156,165424,2,0,P|72:187|64:240,2,80
141,228,165941,1,0,0:0:0:0:
88,288,166114,6,0,L|76:332,2,40
168,300,166458,2,0,L|176:340,2,40
220,240,166803,1,0,0:0:0:0:
316,112,167148,1,0,0:0:0:0:
356,184,167321,1,0,0:0:0:0:
300,240,167493,6,0,L|316:284,2,40
220,240,167838,1,0,0:0:0:0:
172,176,168010,1,0,0:0:0:0:
96,200,168183,2,0,P|72:240|76:292,2,80
108,120,168700,1,0,0:0:0:0:
241,149,168872,6,0,P|219:116|184:99,1,80
108,120,169217,2,0,L|96:208,1,80
156,252,169562,2,0,L|192:332,1,80
264,292,169907,2,0,P|308:308|372:288,2,80
316,232,170424,5,0,0:0:0:0:
268,168,170596,1,0,0:0:0:0:
308,100,170769,1,0,0:0:0:0:
308,100,170941,2,0,P|352:88|376:40,2,80
228,96,171458,1,0,0:0:0:0:
228,96,171631,6,0,P|196:132|216:236,1,160
256,304,172148,1,0,0:0:0:0:
324,264,172321,2,0,P|352:240|400:228,2,80
256,304,172838,1,0,0:0:0:0:
256,304,172924,1,0,0:0:0:0:
256,304,173010,6,0,P|184:296|140:212,1,160
92,110,173527,2,0,P|168:121|208:188,1,160
208,188,173958,1,0,0:0:0:0:
208,188,174045,2,0,P|168:212|136:256,1,80
220,272,174390,6,0,P|260:312|360:288,1,160
296,240,174907,1,0,0:0:0:0:
328,168,175079,1,0,0:0:0:0:
288,100,175252,1,0,0:0:0:0:
208,100,175424,2,0,P|164:112|140:144,2,80
248,172,175941,5,0,0:0:0:0:
204,240,176114,1,0,0:0:0:0:
296,240,176286,1,0,0:0:0:0:
296,240,176458,2,0,P|344:248|404:164,1,160
328,168,176976,1,0,0:0:0:0:
256,192,177148,12,0,179907,0:0:0:0:
128,56,182665,6,0,B|112:120|112:120|228:128|228:224,1,240.000009155274
328,56,184045,2,0,B|344:120|344:120|228:128|228:224,1,240.000009155274
228,222,185424,2,0,P|180:270|296:334,1,240.000009155274
388,140,188183,6,0,P|432:200|364:340,1,240.000009155274
252,140,189562,2,0,P|200:232|280:348,2,240.000009155274
256,88,193700,5,0,0:0:0:0:
256,192,195079,1,0,0:0:0:0:
256,296,196458,1,0,0:0:0:0:
48,192,199217,5,0,0:0:0:0:
256,196,200596,1,0,0:0:0:0:
256,192,201976,12,0,206114,0:0:0:0:
