osu file format v13

[General]
AudioFilename: Krewella - Come & Get It.mp3
AudioLeadIn: 0
PreviewTime: 47493
Countdown: 0
SampleSet: Normal
StackLeniency: 0.7
Mode: 0
LetterboxInBreaks: 0
WidescreenStoryboard: 0

[Editor]
Bookmarks: 26458,79907,90938,156435
DistanceSpacing: 0.6
BeatDivisor: 4
GridSize: 4
TimelineZoom: 2.899999

[Metadata]
Title:Come & Get It
TitleUnicode:Come & Get It
Artist:Krewella
ArtistUnicode:Krewella
Creator:wuzzat
Version:Fxtra
Source:
Tags:dubstep electronic drum and bass fort
BeatmapID:455524
BeatmapSetID:169689

[Difficulty]
HPDrainRate:7
CircleSize:4
OverallDifficulty:8
ApproachRate:9
SliderMultiplier:1.8
SliderTickRate:2

[Events]
//Background and Video events
0,0,"BG.jpg",0,0
//Break Periods
2,102665,112410
//Storyboard Layer 0 (Background)
//Storyboard Layer 1 (Fail)
//Storyboard Layer 2 (Pass)
//Storyboard Layer 3 (Foreground)
//Storyboard Sound Samples
//Background Colour Transformations
3,100,163,162,255

[TimingPoints]
14390,344.827586206897,4,1,0,70,1,0
14390,-133.333333333333,4,2,0,70,0,0
36458,-100,4,2,0,70,0,1
42665,-83.3333333333333,4,2,0,70,0,1
46803,-100,4,1,0,70,0,0
47493,-66.6666666666667,4,1,0,70,0,1
47579,-66.6666666666667,4,1,0,70,0,0
51631,-100,4,1,0,70,0,0
51803,-83.3333333333333,4,1,0,70,0,0
51976,-76.9230769230769,4,1,0,70,0,0
52148,-71.4285714285714,4,1,0,70,0,0
53364,-66.6666666666667,4,1,0,70,0,0
58527,-66.6666666666667,4,1,0,70,0,1
58614,-66.6666666666667,4,1,0,70,0,0
61458,-76.9230769230769,4,1,0,70,0,0
67497,-76.9230769230769,4,1,0,70,0,0
69562,-76.9230769230769,4,2,0,70,0,1
77838,-100,4,1,0,70,0,0
80597,-100,4,2,0,70,0,1
90941,-200,4,1,0,70,0,0
91631,-133.333333333333,4,1,0,70,0,1
91717,-100,4,1,0,70,0,0
91972,-66.6666666666667,4,1,0,70,0,0
92665,-50,4,1,0,70,0,0
93010,-66.6666666666667,4,1,0,70,0,0
94390,-133.333333333333,4,1,0,70,0,0
94734,-66.6666666666667,4,1,0,70,0,0
95769,-100,4,1,0,70,0,0
97148,-133.333333333333,4,1,0,70,0,0
97493,-66.6666666666667,4,1,0,70,0,0
98183,-50,4,1,0,70,0,0
98527,-66.6666666666667,4,1,0,70,0,0
99217,-100,4,1,0,70,0,0
99901,-133.333333333333,4,1,0,70,0,0
102665,-133.333333333333,4,2,0,70,0,0
114045,-133.333333333333,4,2,0,70,0,0
128183,-133.333333333333,4,2,0,70,0,0
130596,-133.333333333333,4,2,0,70,0,0
134907,-166.666666666667,4,1,0,70,0,0
135079,-142.857142857143,4,1,0,70,0,0
135252,-125,4,1,0,70,0,0
135424,-111.111111111111,4,1,0,70,0,0
135596,-100,4,1,0,70,0,0
135769,-133.333333333333,4,2,0,70,0,1
146803,-133.333333333333,4,1,0,70,0,0
152321,-100,4,1,0,70,0,0
152665,-66.6666666666667,4,1,0,70,0,0
153010,-100,4,1,0,70,0,0
153355,-66.6666666666667,4,1,0,70,0,0
153355,-66.6666666666667,4,1,0,70,0,0
153700,-100,4,1,0,70,0,0
154045,-90.9090909090909,4,1,0,70,0,0
156458,-200,4,1,0,70,0,0
157148,-100,4,1,0,70,0,0
157838,-57.1428571428571,4,1,0,70,0,1
157924,-57.1428571428571,4,1,0,70,0,0
159217,-66.6666666666667,4,1,0,70,0,0
160596,-57.1428571428571,4,1,0,70,0,0
161458,-76.9230769230769,4,1,0,70,0,0
163355,-57.1428571428571,4,1,0,70,0,0
164734,-66.6666666666667,4,1,0,70,0,0
167838,-100,4,1,0,70,0,0
168872,-66.6666666666667,4,1,0,70,0,1
171976,-76.9230769230769,4,1,0,70,0,1
177148,-200,4,1,0,70,0,1
177838,-100,4,1,0,20,0,0
179907,-200,4,2,0,5,0,0
182665,-200,4,2,0,5,0,0

[Colours]
Combo1 : 205,121,37
Combo2 : 220,31,31
Combo3 : 91,31,152
Combo4 : 75,119,233

[HitObjects]
416,120,14390,6,0,P|352:132|288:80,1,135.000005149842,2|8,0:0|0:0,0:0:0:0:
296,95,15252,1,2,0:0:0:0:
80,208,15424,2,0,L|96:352,2,135.000005149842,8|0|8,0:0|0:0|0:0,0:0:0:0:
236,164,16458,5,2,0:0:0:0:
88,96,16631,1,0,0:0:0:0:
172,236,16803,1,8,0:0:0:0:
184,76,16976,1,2,0:0:0:0:
324,156,17148,6,0,P|320:208|244:248,1,135.000005149842,2|8,0:0|0:0,0:0:0:0:
254,248,18010,1,2,0:0:0:0:
400,56,18183,2,0,P|408:120|472:156,2,135.000005149842,8|0|8,0:0|0:0|0:0,0:0:0:0:
480,76,19217,5,2,0:0:0:0:
160,124,19562,1,8,0:0:0:0:
300,204,19734,1,2,0:0:0:0:
120,44,19907,2,0,P|76:96|88:172,2,135.000005149842,2|8|0,0:0|0:0|0:0,0:0:0:0:
160,124,20769,1,2,0:0:0:0:
232,88,20941,2,0,B|256:152|216:152|240:232,2,135.000005149842,8|0|8,0:0|0:0|0:0,0:0:0:0:
232,88,21976,1,0,0:0:0:0:
232,88,22148,1,2,0:0:0:0:
472,60,22321,2,0,L|432:124,1,67.5000025749208,8|2,0:0|0:0,0:0:0:0:
164,36,22665,6,0,P|144:96|188:160,1,135.000005149842,2|2,0:0|0:0,0:0:0:0:
348,348,23183,2,0,P|368:288|324:224,1,135.000005149842,2|2,0:0|0:0,0:0:0:0:
172,248,23700,2,0,L|100:272,1,67.5000025749208,8|0,0:0|0:0,0:0:0:0:
52,116,24045,5,2,0:0:0:0:
80,144,24131,1,0,0:0:0:0:
120,144,24218,1,0,0:0:0:0:
136,108,24304,1,0,0:0:0:0:
144,68,24390,1,10,0:0:0:0:
176,92,24476,1,0,0:0:0:0:
216,96,24562,1,0,0:0:0:0:
244,68,24649,1,0,0:0:0:0:
284,56,24735,5,2,0:0:0:0:
320,72,24821,1,0,0:0:0:0:
348,100,24907,1,0,0:0:0:0:
356,148,24993,1,0,0:0:0:0:
336,192,25080,1,10,0:0:0:0:
300,212,25166,1,0,0:0:0:0:
260,208,25252,1,0,0:0:0:0:
228,232,25338,1,0,0:0:0:0:
224,272,25424,5,4,0:0:0:0:
380,316,25769,1,8,0:0:0:0:
144,252,26286,1,2,0:0:0:0:
468,244,26458,2,0,P|488:300|488:332,1,67.5000025749208,8|0,0:0|0:0,0:0:0:0:
356,216,26976,1,2,0:0:0:0:
356,216,27148,2,0,L|372:72,1,135.000005149842,8|2,0:0|0:0,0:0:0:0:
444,120,27665,5,2,0:0:0:0:
204,156,27838,1,8,0:0:0:0:
304,28,28010,1,2,0:0:0:0:
212,340,28183,1,2,0:0:0:0:
280,192,28527,1,8,0:0:0:0:
144,280,28700,2,0,P|80:288|20:232,1,135.000005149842,2|2,0:0|0:0,0:0:0:0:
100,136,29217,2,0,L|104:236,1,67.5000025749208,8|2,0:0|0:0,0:0:0:0:
102,203,29476,1,0,0:0:0:0:
102,203,29562,1,2,0:0:0:0:
44,52,29907,5,8,0:0:0:0:
256,172,30079,1,2,0:0:0:0:
160,40,30424,1,2,0:0:0:0:
200,280,30596,1,8,0:0:0:0:
260,44,30769,1,2,0:0:0:0:
168,176,30941,6,0,P|200:236|284:252,2,135.000005149842,2|8|0,0:0|0:0|0:0,0:0:0:0:
168,176,31803,1,2,0:0:0:0:
408,212,31976,2,0,L|372:296,1,67.5000025749208,8|0,0:0|0:0,0:0:0:0:
381,274,32493,1,2,0:0:0:0:
256,172,32665,1,8,0:0:0:0:
476,280,33010,5,0,0:0:0:0:
328,216,33183,1,2,0:0:0:0:
468,136,33355,2,0,P|496:168|504:196,1,67.5000025749208,8|0,0:0|0:0,0:0:0:0:
280,292,33700,5,2,0:0:0:0:
420,208,33872,1,0,0:0:0:0:
300,100,34045,1,2,0:0:0:0:
368,332,34217,1,0,0:0:0:0:
144,236,34390,1,2,0:0:0:0:
420,208,34562,1,0,0:0:0:0:
100,160,34734,2,0,P|64:200|56:232,1,67.5000025749208,2|0,0:0|0:0,0:0:0:0:
188,312,35079,5,2,0:0:0:0:
216,284,35165,1,0,0:0:0:0:
228,244,35251,1,2,0:0:0:0:
220,204,35337,1,0,0:0:0:0:
200,168,35423,1,2,0:0:0:0:
240,164,35510,1,0,0:0:0:0:
272,140,35596,1,2,0:0:0:0:
304,164,35682,1,0,0:0:0:0:
344,156,35768,5,4,0:0:0:0:
344,156,36458,2,0,B|368:116|368:116|416:96,1,90,2|0,0:0|0:0,0:0:0:0:
444,200,36803,1,8,0:0:0:0:
344,244,36976,2,0,P|268:200|260:112,1,180,2|0,0:0|0:0,0:0:0:0:
444,200,37493,1,8,0:0:0:0:
344,156,37665,1,2,0:0:0:0:
444,120,37838,2,0,P|516:164|496:264,1,180,2|8,0:0|0:0,0:0:0:0:
300,308,38355,1,2,0:0:0:0:
196,284,38527,5,0,0:0:0:0:
352,236,38700,1,2,0:0:0:0:
100,332,38872,2,0,P|88:276|100:236,1,90,8|2,0:0|0:0,0:0:0:0:
196,52,39217,2,0,B|168:140|224:140|180:236,1,180,2|8,0:0|0:0,0:0:0:0:
116,144,39734,2,0,P|204:132|280:184,1,180,2|2,0:0|0:0,0:0:0:0:
316,280,40252,1,8,0:0:0:0:
368,72,40424,2,0,L|380:144,1,45,2|0,0:0|0:0,0:0:0:0:
400,68,40596,2,0,P|396:136|412:216,1,135,2|0,0:0|0:0,0:0:0:0:
456,180,40941,2,0,L|432:284,1,90,8|2,0:0|0:0,0:0:0:0:
228,212,41286,5,0,0:0:0:0:
400,340,41458,1,2,0:0:0:0:
152,236,41631,2,0,P|148:184|180:144,1,90,8|2,0:0|0:0,0:0:0:0:
167,153,41890,1,0,0:0:0:0:
167,153,41976,1,2,0:0:0:0:
352,264,42321,1,8,0:0:0:0:
256,312,42493,2,0,B|220:304|220:304|140:348|68:292,1,180,2|2,0:0|0:0,0:0:0:0:
44,180,43010,1,8,0:0:0:0:
92,60,43183,2,0,L|172:84,1,53.9999983520508,2|0,0:0|0:0,0:0:0:0:
324,116,43355,2,0,L|160:156,1,161.999995056153,2|0,0:0|0:0,0:0:0:0:
166,154,43700,1,8,0:0:0:0:
244,52,43872,1,2,0:0:0:0:
288,308,44045,5,0,0:0:0:0:
176,248,44217,1,2,0:0:0:0:
368,268,44390,2,0,P|372:336|336:376,1,107.999996704102,8|2,0:0|0:0,0:0:0:0:
264,192,44734,6,0,L|400:168,1,107.999996704102,2|0,0:0|0:0,0:0:0:0:
168,336,45079,2,0,P|116:312|96:268,1,107.999996704102,2|0,0:0|0:0,0:0:0:0:
28,156,45338,1,0,0:0:0:0:
28,156,45424,2,0,P|60:176|96:176,1,53.9999983520508,2|0,0:0|0:0,0:0:0:0:
196,24,45596,2,0,P|152:40|132:60,1,53.9999983520508,2|0,0:0|0:0,0:0:0:0:
256,112,45769,2,0,P|296:68|300:12,1,107.999996704102,2|0,0:0|0:0,0:0:0:0:
192,184,46114,6,0,P|240:208|276:208,3,53.9999983520508,2|0|0|0,0:0|0:0|0:0|0:0,0:0:0:0:
404,312,46458,2,0,P|332:304|308:312,3,53.9999983520508,2|0|0|0,0:0|0:0|0:0|0:0,0:0:0:0:
196,344,46803,1,4,0:0:0:0:
196,344,47493,6,0,P|100:352|52:244,1,202.500007724762,2|0,0:0|2:0,0:0:0:0:
48,270,47838,1,8,0:0:0:0:
96,116,48010,1,0,0:0:0:0:
144,272,48183,1,0,2:0:0:0:
244,144,48355,1,0,0:0:0:0:
28,32,48527,6,0,P|-8:96|16:176,1,135.000005149842,8|0,0:0|0:0,0:0:0:0:
320,212,48872,1,2,0:2:0:0:
256,64,49045,1,2,2:0:0:0:
292,304,49217,2,0,P|368:296|408:248,1,135.000005149842,8|0,0:0|0:0,0:0:0:0:
84,204,49562,1,0,2:0:0:0:
240,240,49734,1,0,0:0:0:0:
88,300,49907,1,8,0:0:0:0:
348,104,50079,1,2,0:2:0:0:
444,236,50252,6,0,L|456:28,1,202.500007724762,2|0,0:2|2:0,0:0:0:0:
455,33,50596,1,8,0:0:0:0:
332,332,50769,1,0,0:0:0:0:
300,172,50941,1,0,2:0:0:0:
448,240,51114,1,0,0:0:0:0:
128,192,51286,1,8,0:0:0:0:
272,264,51458,2,0,L|184:280,1,67.5000025749208,2|0,0:2|0:0,0:0:0:0:
16,224,51631,6,0,P|16:152|48:120,1,90,8|0,0:3|0:0,0:0:0:0:
156,88,51890,1,0,0:0:0:0:
156,88,51976,2,0,L|136:172,1,58.4999973220826,4|0,0:3|0:0,0:0:0:0:
92,288,52148,1,2,0:2:0:0:
372,172,52493,5,0,0:0:0:0:
92,288,52665,1,8,0:0:0:0:
304,72,52838,1,2,0:2:0:0:
444,128,53010,6,0,P|448:208|340:252,1,188.999994232178,2|0,0:2|2:0,0:0:0:0:
361,257,53355,1,8,0:0:0:0:
244,148,53527,1,0,0:0:0:0:
372,172,53700,1,0,2:0:0:0:
144,88,53872,1,0,0:0:0:0:
192,244,54045,6,0,P|264:244|304:228,1,67.5000025749208,8|0,0:0|2:0,0:0:0:0:
108,184,54217,2,0,P|36:184|-4:200,1,67.5000025749208
244,148,54390,5,0,0:0:0:0:
60,308,54562,1,2,2:0:0:0:
144,88,54734,1,8,0:0:0:0:
424,252,54907,1,2,0:2:0:0:
392,92,55079,6,0,P|320:108|292:160,1,135.000005149842,0|2,0:0|2:0,0:0:0:0:
308,320,55424,1,8,0:0:0:0:
380,176,55596,1,0,0:0:0:0:
380,176,55683,1,0,0:0:0:0:
380,176,55769,2,0,L|412:244,1,67.5000025749208
248,256,55941,1,0,0:0:0:0:
248,256,56028,1,0,0:0:0:0:
248,256,56114,2,0,L|280:324,1,67.5000025749208
136,236,56286,2,0,L|104:168,1,67.5000025749208
68,104,56458,5,4,0:3:0:0:
68,104,56717,1,4,0:3:0:0:
68,104,56976,1,4,0:3:0:0:
44,344,57148,6,0,L|120:324,1,67.5000025749208,2|0,0:2|0:0,0:0:0:0:
196,100,57321,2,0,L|212:188,1,67.5000025749208,2|0,0:2|0:0,0:0:0:0:
388,332,57493,2,0,L|412:232,1,67.5000025749208,2|0,0:2|0:0,0:0:0:0:
456,28,57665,1,2,0:2:0:0:
256,284,57838,1,2,0:2:0:0:
256,284,58527,6,0,P|172:300|80:208,1,202.500007724762,2|0,0:2|2:0,0:0:0:0:
86,230,58872,1,8,0:0:0:0:
240,172,59045,1,0,0:0:0:0:
16,76,59217,1,2,2:0:0:0:
336,116,59390,1,0,0:0:0:0:
176,104,59562,6,0,P|152:176|180:240,1,135.000005149842,8|2,0:0|0:2,0:0:0:0:
256,92,59907,1,2,0:2:0:0:
332,324,60079,2,0,P|268:360|220:360,1,67.5000025749208,0|0,0:0|2:0,0:0:0:0:
116,324,60252,1,8,0:0:0:0:
336,228,60424,1,0,0:0:0:0:
116,324,60596,1,0,0:0:0:0:
232,212,60769,6,0,B|228:248|228:248|240:300,1,67.5000025749208,2|0,0:2|2:0,0:0:0:0:
116,172,60941,2,0,B|96:200|96:200|44:232,1,67.5000025749208,2|0,0:2|2:0,0:0:0:0:
92,56,61114,2,0,B|56:48|56:48|-4:24,1,67.5000025749208,2|0,0:2|2:0,0:0:0:0:
308,28,61286,2,0,P|340:96|316:148,1,135.000005149842,2|0,0:2|0:0,0:0:0:0:
444,240,61631,5,8,0:0:0:0:
336,328,61803,1,0,0:0:0:0:
200,288,61976,1,2,2:0:0:0:
60,300,62148,1,0,0:0:0:0:
116,172,62321,1,8,0:0:0:0:
32,60,62493,2,0,L|108:52,1,58.4999973220826,2|0,0:2|2:0,0:0:0:0:
116,172,62665,6,0,P|196:160|296:216,1,175.499991966248,8|0,0:3|2:0,0:0:0:0:
279,198,63010,1,8,0:0:0:0:
304,60,63183,2,0,P|356:100|476:56,1,175.499991966248,4|0,0:3|2:0,0:0:0:0:
457,78,63527,2,0,P|404:44|376:52,1,58.4999973220826
168,276,63700,1,2,0:2:0:0:
440,212,63872,1,0,0:0:0:0:
264,328,64045,6,0,B|248:308|248:308|216:392|92:352,1,175.499991966248,8|0,0:3|2:0,0:0:0:0:
123,360,64390,1,8,0:0:0:0:
400,316,64562,1,0,0:0:0:0:
148,192,64734,2,0,P|92:236|84:288,1,116.999994644165
40,144,65079,6,0,B|60:88|60:88|40:20,1,116.999994644165,8|0,0:0|0:0,0:0:0:0:
172,92,65424,1,0,0:0:0:0:
172,92,65596,6,0,P|205:114|232:144,1,58.4999973220826,0|0,0:0|2:0,0:0:0:0:
356,68,65769,2,0,P|340:100|332:156,1,58.4999973220826,8|0,0:0|2:0,0:0:0:0:
444,220,65941,2,0,P|408:220|360:248,1,58.4999973220826,0|0,0:0|2:0,0:0:0:0:
316,360,66114,2,0,P|300:328|264:296,1,58.4999973220826,0|0,0:0|2:0,0:0:0:0:
144,324,66286,2,0,P|88:296|20:296,2,116.999994644165,0|8|0,0:0|0:0|0:0,0:0:0:0:
144,324,66803,5,0,0:0:0:0:
244,228,66976,1,0,0:0:0:0:
104,212,67148,1,8,0:0:0:0:
220,132,67321,1,0,0:0:0:0:
220,132,67407,1,0,0:0:0:0:
220,132,67493,1,0,0:0:0:0:
244,340,67665,1,0,0:0:0:0:
284,64,67838,2,0,P|232:44|160:64,1,116.999994644165,8|0,0:0|0:0,0:0:0:0:
76,156,68183,5,4,0:0:0:0:
60,224,68269,1,0,0:0:0:0:
96,284,68355,1,0,0:0:0:0:
156,248,68441,1,0,0:0:0:0:
220,276,68527,1,4,0:0:0:0:
244,252,68614,1,0,0:0:0:0:
280,244,68700,1,0,0:0:0:0:
308,264,68786,1,0,0:0:0:0:
320,296,68872,5,0,0:0:0:0:
380,228,69562,2,0,P|440:240|504:224,1,116.999994644165,2|0,0:0|0:0,0:0:0:0:
388,136,69907,1,8,0:0:0:0:
408,344,70079,1,2,0:0:0:0:
320,76,70252,2,0,P|380:48|480:120,1,175.499991966248,2|0,0:0|0:0,0:0:0:0:
470,95,70596,1,8,0:0:0:0:
268,160,70769,1,2,0:0:0:0:
268,160,71114,1,2,0:0:0:0:
388,232,71286,1,8,0:0:0:0:
176,248,71458,1,2,0:0:0:0:
176,248,71544,1,0,0:0:0:0:
176,248,71630,1,2,0:0:0:0:
312,284,71803,1,2,0:0:0:0:
320,72,71976,5,8,0:0:0:0:
224,336,72148,1,0,0:0:0:0:
80,96,72321,2,0,L|96:232,1,116.999994644165,2|0,0:0|0:0,0:0:0:0:
228,252,72665,1,8,0:0:0:0:
104,316,72838,1,2,0:0:0:0:
240,156,73010,2,0,P|308:192|300:296,1,175.499991966248,2|0,0:0|0:0,0:0:0:0:
312,284,73355,1,8,0:0:0:0:
91,209,73527,2,0,L|36:228,1,58.4999973220826,2|0,0:0|0:0,0:0:0:0:
68,72,73700,2,0,P|136:96|200:72,1,116.999994644165,2|0,0:0|0:0,0:0:0:0:
308,32,74045,6,0,B|300:96|300:96|336:144|304:220,1,175.499991966248,8|0,0:0|0:0,0:0:0:0:
310,201,74390,2,0,P|240:240|176:212,1,116.999994644165,2|0,0:0|0:0,0:0:0:0:
88,160,74734,1,8,0:0:0:0:
508,128,74907,1,2,0:0:0:0:
372,100,75079,6,0,L|412:236,1,116.999994644165,2|0,0:0|0:0,0:0:0:0:
304,312,75424,1,8,0:0:0:0:
436,356,75596,1,2,0:0:0:0:
260,240,75769,2,0,P|216:296|252:384,1,175.499991966248,2|0,0:0|0:0,0:0:0:0:
252,384,76114,1,8,0:0:0:0:
416,252,76286,2,0,B|344:232|344:232|324:136|208:160,1,233.999989288331,2|0,0:0|0:0,0:0:0:0:
100,92,76803,2,0,L|116:220,1,116.999994644165,8|2,0:0|0:0,0:0:0:0:
204,100,77148,5,2,0:0:0:0:
92,356,77321,1,0,0:0:0:0:
228,324,77493,1,8,0:0:0:0:
20,280,77665,1,2,0:0:0:0:
344,260,77838,6,0,P|356:320|352:352,1,90,4|0,0:0|0:0,0:0:0:0:
324,104,78183,2,0,P|384:92|416:96,1,90,4|0,0:0|0:0,0:0:0:0:
168,124,78527,2,0,P|156:64|160:32,1,90,4|0,0:0|0:0,0:0:0:0:
188,280,78872,2,0,P|128:292|96:288,1,90,4|0,0:0|0:0,0:0:0:0:
64,188,79217,5,2,0:0:0:0:
60,136,79303,1,0,0:0:0:0:
84,184,79390,1,0,0:0:0:0:
128,216,79476,1,0,0:0:0:0:
180,216,79562,1,2,0:0:0:0:
228,188,79648,1,0,0:0:0:0:
256,140,79734,1,0,0:0:0:0:
260,84,79821,1,0,0:0:0:0:
244,32,79907,5,2,0:0:0:0:
244,32,80596,2,0,L|140:44,1,90,2|0,0:0|0:0,0:0:0:0:
148,132,80941,1,8,0:0:0:0:
348,44,81114,2,0,L|372:244,1,180,2|2,0:0|0:0,0:0:0:0:
272,268,81631,1,8,0:0:0:0:
452,148,81803,1,2,0:0:0:0:
240,184,81976,2,0,P|188:256|236:348,1,180,2|8,0:0|0:0,0:0:0:0:
324,336,82493,1,2,0:0:0:0:
356,232,82665,6,0,B|336:184|336:184|344:128,1,90,0|2,0:0|0:0,0:0:0:0:
400,56,83010,1,8,0:0:0:0:
452,148,83183,1,2,0:0:0:0:
252,68,83355,2,0,B|192:96|192:96|144:68|88:72,1,135,2|0,0:0|0:0,0:0:0:0:
127,73,83700,1,8,0:0:0:0:
28,116,83872,2,0,P|72:160|124:156,2,90,2|0|2,0:0|0:0|0:0,0:0:0:0:
228,200,84390,2,0,L|188:296,1,90,8|2,0:0|0:0,0:0:0:0:
88,268,84734,2,0,P|112:352|216:372,1,180,2|8,0:0|0:0,0:0:0:0:
252,288,85252,2,2,P|228:204|124:184,1,180
40,196,85769,5,8,0:0:0:0:
88,100,85941,1,2,0:0:0:0:
88,100,86027,1,0,0:0:0:0:
88,100,86114,2,0,P|72:56|32:24,1,90,2|0,0:0|0:0,0:0:0:0:
60,296,86458,1,8,0:0:0:0:
128,212,86631,2,2,P|164:248|176:152,1,180
240,60,87148,2,0,P|288:116|340:112,1,90,8|2,0:0|0:0,0:0:0:0:
408,100,87493,1,2,0:0:0:0:
320,296,87838,5,8,0:0:0:0:
408,100,88010,1,2,0:0:0:0:
412,316,88355,1,2,0:0:0:0:
208,244,88527,1,8,0:0:0:0:
420,208,88700,1,2,0:0:0:0:
120,188,88872,6,0,P|104:244|112:288,1,90,2|0,0:0|0:0,0:0:0:0:
288,156,89217,2,0,L|176:128,1,90,2|0,0:0|0:0,0:0:0:0:
120,60,89476,1,0,0:0:0:0:
120,60,89562,2,0,L|132:136,1,45,2|0,0:0|0:0,0:0:0:0:
196,308,89734,2,0,L|240:244,1,45
392,72,89907,2,0,L|412:168,1,90,2|0,0:0|0:0,0:0:0:0:
384,264,90165,1,0,0:0:0:0:
384,264,90252,6,0,L|320:256,1,45,2|0,0:0|0:0,0:0:0:0:
120,188,90424,2,0,L|184:196,1,45,0|0,0:0|0:0,0:0:0:0:
249,338,90596,2,0,L|228:278,1,45,2|0,0:0|0:0,0:0:0:0:
197,69,90768,2,0,L|219:129,1,45,0|0,0:0|0:0,0:0:0:0:
256,192,90941,1,4,0:0:0:0:
256,192,91631,6,0,B|288:200|288:200|328:184|328:184|372:200,1,101.250003862381,0|0,0:0|2:0,0:0:0:0:
351,192,91976,5,0,0:0:0:0:
216,280,92148,1,0,0:0:0:0:
352,76,92321,1,0,0:0:0:0:
448,204,92493,1,0,0:0:0:0:
260,100,92665,6,0,P|172:144|168:232,1,180
264,344,93010,5,0,0:0:0:0:
104,308,93183,1,0,0:0:0:0:
348,296,93355,1,0,0:0:0:0:
64,140,93527,1,0,0:0:0:0:
188,244,93699,1,0,0:0:0:0:
24,248,93872,1,0,0:0:0:0:
164,164,94045,1,0,0:0:0:0:
320,208,94217,1,0,0:0:0:0:
464,132,94390,6,0,L|424:28,1,101.250003862381,0|0,0:0|2:0,0:0:0:0:
427,37,94734,5,0,0:0:0:0:
404,200,94907,1,0,0:0:0:0:
276,100,95079,1,0,0:0:0:0:
356,328,95252,1,0,0:0:0:0:
360,84,95424,1,0,0:0:0:0:
228,288,95596,1,0,0:0:0:0:
444,284,95769,6,0,P|448:340|432:376,1,90
116,324,96114,1,0,0:0:0:0:
220,200,96286,2,0,P|276:216|300:332,1,180
108,232,96803,2,0,L|96:136,1,90
76,64,97148,6,0,P|128:88|188:72,1,101.250003862381,0|0,0:0|2:0,0:0:0:0:
170,81,97493,5,0,0:0:0:0:
308,164,97665,1,0,0:0:0:0:
452,92,97838,1,0,0:0:0:0:
292,68,98010,1,0,0:0:0:0:
240,280,98183,6,0,P|280:320|380:272,1,180
100,248,98527,5,0,0:0:0:0:
228,148,98700,1,0,0:0:0:0:
84,344,98872,1,0,0:0:0:0:
68,100,99045,1,0,0:0:0:0:
236,236,99217,6,0,P|292:212|320:136,1,135,0|0,0:0|2:0,0:0:0:0:
316,92,99562,2,0,L|408:152,1,90
456,92,99907,2,0,P|472:160|416:220,1,135.000005149842
440,292,100424,2,0,P|392:300|380:304,1,33.7500012874604
252,344,100596,5,0,0:0:0:0:
252,344,100855,1,0,0:0:0:0:
252,344,101114,1,0,0:0:0:0:
176,320,101286,6,0,L|196:272,1,33.7500012874604
180,88,101458,2,0,L|200:136,1,33.7500012874604
308,232,101631,2,0,L|264:220,1,33.7500012874604
36,192,101803,2,0,L|88:176,1,33.7500012874604
332,72,101976,1,0,0:0:0:0:
440,120,113010,6,0,P|396:132|304:68,1,135.000005149842
260,152,113527,2,0,P|212:132|112:164,1,135.000005149842
132,147,114045,1,0,0:0:0:0:
52,288,114390,1,0,0:0:0:0:
200,348,114734,1,0,0:0:0:0:
148,288,114907,2,0,P|192:268|276:328,1,135.000005149842
332,256,115424,1,0,0:0:0:0:
332,256,115769,6,0,P|368:292|460:292,1,135.000005149842
408,228,116286,2,0,L|360:356,1,135.000005149842
360,354,116803,1,0,0:0:0:0:
340,112,117148,1,0,0:0:0:0:
492,172,117493,1,0,0:0:0:0:
248,188,117665,1,0,0:0:0:0:
248,188,117838,6,0,P|220:128|240:56,1,135.000005149842
396,40,118355,1,0,0:0:0:0:
396,40,118527,6,0,P|424:100|404:172,1,135.000005149842
444,240,119045,2,0,P|400:248|328:184,1,135.000005149842
280,260,119562,2,0,P|236:248|184:256,1,67.5000025749208
224,328,119907,2,0,P|168:332|136:344,1,67.5000025749208
80,356,120252,1,0,0:0:0:0:
100,196,120424,1,0,0:0:0:0:
48,260,120596,5,0,0:0:0:0:
176,160,120941,1,0,0:0:0:0:
112,112,121114,1,0,0:0:0:0:
268,152,121286,2,0,P|252:212|176:248,1,135.000005149842
220,88,121803,2,0,L|372:112,1,135.000005149842
416,56,122321,2,0,P|436:100|428:136,1,67.5000025749208
392,188,122665,1,0,0:0:0:0:
76,120,123010,1,0,0:0:0:0:
124,184,123183,1,0,0:0:0:0:
56,228,123355,6,0,P|92:264|172:248,1,135.000005149842
220,312,123872,1,0,0:0:0:0:
124,184,124045,1,0,0:0:0:0:
280,236,124217,1,0,0:0:0:0:
284,156,124390,2,0,P|236:164|212:188,1,67.5000025749208
372,312,124734,6,0,P|396:276|384:176,1,135.000005149842
472,168,125252,1,0,0:0:0:0:
464,88,125424,2,0,P|400:104|328:56,1,135.000005149842
276,124,125941,2,0,P|228:104|196:104,1,67.5000025749208
160,40,126286,2,0,P|136:72|172:176,1,135.000005149842
80,200,126803,6,0,P|100:244|104:276,1,67.5000025749208
184,264,127148,2,0,P|172:312|172:344,1,67.5000025749208
171,329,127407,1,0,0:0:0:0:
171,329,127493,1,0,0:0:0:0:
328,292,127838,1,0,0:0:0:0:
248,308,128010,1,0,0:0:0:0:
340,176,128183,1,0,0:0:0:0:
444,300,128527,5,0,0:0:0:0:
220,204,128872,1,0,0:0:0:0:
340,176,129045,1,0,0:0:0:0:
340,176,129562,5,0,0:0:0:0:
96,156,129907,1,0,0:0:0:0:
220,204,130079,1,0,0:0:0:0:
220,204,130165,1,0,0:0:0:0:
220,204,130252,6,0,L|208:128,1,67.5000025749208
284,108,130596,2,0,L|272:32,1,67.5000025749208,0|0,0:0|0:0,0:0:0:0:
273,41,130941,1,0,0:0:0:0:
238,342,131286,1,0,0:0:0:0:
316,316,131458,1,0,0:0:0:0:
156,308,131631,5,0,0:0:0:0:
476,348,131976,1,0,0:0:0:0:
84,240,132321,1,0,0:0:0:0:
244,212,132665,5,0,0:0:0:0:
84,220,132838,1,0,0:0:0:0:
256,192,133010,12,0,134907,0:0:0:0:
220,112,135079,6,0,P|164:124|156:124,1,62.9999980773926
72,172,135424,2,0,P|64:108|80:64,1,80.9999975280763
308,48,135769,2,0,P|320:112|296:172,1,101.250003862381
352,140,136114,2,0,P|340:184|352:256,1,101.250003862381
380,260,136458,2,0,L|284:280,1,67.5000025749208
232,264,136803,1,0,0:0:0:0:
424,332,136976,2,0,P|464:284|448:208,1,135.000005149842
132,236,137493,2,0,P|128:292|144:320,1,67.5000025749208
131,301,137838,5,0,0:0:0:0:
180,148,138010,1,0,0:0:0:0:
224,344,138183,1,0,0:0:0:0:
36,268,138355,1,0,0:0:0:0:
232,224,138527,2,0,P|260:188|260:124,1,101.250003862381
263,133,138872,2,0,L|356:152,1,67.5000025749208
344,68,139217,6,0,L|480:96,1,135.000005149842
476,95,139734,1,0,0:0:0:0:
324,284,140252,1,0,0:0:0:0:
480,248,140596,5,0,0:0:0:0:
328,196,140769,1,0,0:0:0:0:
184,268,140941,1,0,0:0:0:0:
32,208,141114,1,0,0:0:0:0:
112,68,141286,6,0,P|132:124|132:152,1,67.5000025749208
148,212,141631,2,0,P|192:240|268:232,1,101.250003862381
239,242,141976,1,0,0:0:0:0:
268,84,142321,1,0,0:0:0:0:
324,236,142493,2,0,P|312:296|288:316,2,67.5000025749208,0|0|0,0:0|0:0|0:0,0:0:0:0:
280,168,143010,2,0,P|328:152|372:168,1,67.5000025749208
400,212,143355,5,0,0:0:0:0:
240,244,143527,1,0,0:0:0:0:
360,352,143700,1,0,0:0:0:0:
268,84,143872,1,0,0:0:0:0:
420,144,144045,6,0,L|444:292,2,135.000005149842,0|0|0,0:0|0:0|0:0,0:0:0:0:
420,144,144907,5,0,0:0:0:0:
176,164,145424,1,0,0:0:0:0:
400,256,145941,1,0,0:0:0:0:
236,76,146114,5,0,0:0:0:0:
280,144,146286,1,0,0:0:0:0:
316,72,146458,1,0,0:0:0:0:
316,72,146631,1,0,0:0:0:0:
176,272,146803,5,0,0:0:0:0:
328,212,147148,1,0,0:0:0:0:
84,224,147493,1,0,0:0:0:0:
404,284,147838,5,0,0:0:0:0:
248,248,148010,1,0,0:0:0:0:
432,164,148182,1,0,0:0:0:0:
312,328,148527,5,0,0:0:0:0:
208,108,148872,5,0,0:0:0:0:
160,304,149045,1,0,0:0:0:0:
328,192,149218,1,0,0:0:0:0:
16,280,149390,1,0,0:0:0:0:
212,228,149562,6,0,P|240:268|248:296,1,67.5000025749208
96,224,149907,2,0,P|100:184|124:152,1,67.5000025749208
20,28,150252,2,0,P|64:48|112:48,1,67.5000025749208
236,104,150596,5,0,0:0:0:0:
388,52,150769,2,0,L|372:108,1,33.7500012874604
316,276,150941,5,0,0:0:0:0:
148,100,151200,1,0,0:0:0:0:
336,176,151458,1,0,0:0:0:0:
92,172,151631,6,0,P|64:128|64:72,2,101.250003862381,0|0|0,0:0|0:0|0:0,0:0:0:0:
44,268,152321,6,0,P|108:256|184:268,1,135,0|0,0:0|2:0,0:0:0:0:
208,340,152665,6,0,P|260:276|248:228,1,135.000005149842
188,144,153010,6,0,B|208:96|208:96|188:56|188:56|200:8,1,135,0|0,0:0|2:0,0:0:0:0:
124,56,153355,6,0,P|188:96|272:64,1,135.000005149842
324,160,153700,6,0,P|376:132|424:144,1,90
388,252,154045,2,0,P|316:272|264:248,1,99.0000030212403
200,340,154390,1,0,0:0:0:0:
100,276,154562,6,0,L|80:316,2,24.7500007553101,0|0|0,0:0|0:0|0:0,0:0:0:0:
96,156,154734,2,0,L|88:92,1,49.5000015106202
220,228,154907,2,0,L|288:224,1,49.5000015106202
256,192,155079,12,0,156372,0:0:0:0:
256,192,156458,12,0,157148,0:0:0:0:
456,316,157838,6,0,B|416:320|396:304|396:304|376:320|376:320|340:300|304:316,1,157.500001502037
120,304,158183,1,0,0:0:0:0:
48,128,158355,2,0,P|100:88|276:136,1,236.250002253056,0|0,0:0|2:0,0:0:0:0:
312,36,158700,2,0,P|360:76|476:72,1,157.500001502037
332,232,159045,2,0,L|420:208,1,78.7500007510185
484,180,159217,5,0,0:0:0:0:
324,156,159390,1,0,0:0:0:0:
484,336,159562,1,0,0:0:0:0:
176,232,159734,1,0,0:0:0:0:
468,92,159907,1,0,0:0:0:0:
44,332,160079,1,0,0:0:0:0:
208,336,160252,1,0,0:0:0:0:
76,244,160424,1,0,0:0:0:0:
264,260,160596,6,0,P|268:208|188:140,1,157.500001502037
8,152,160941,1,0,0:0:0:0:
8,152,161114,2,0,P|64:156|208:44,1,236.250002253056,0|0,0:0|2:0,0:0:0:0:
300,96,161458,2,0,P|340:80|412:104,2,116.999994644165,0|0|0,0:0|0:0|0:0,0:0:0:0:
300,96,161890,1,0,0:0:0:0:
300,96,161976,6,0,L|332:232,1,116.999994644165
288,344,162321,1,0,0:0:0:0:
156,300,162493,1,0,0:0:0:0:
436,320,162838,1,0,0:0:0:0:
156,300,163010,1,0,0:0:0:0:
288,256,163183,1,0,0:0:0:0:
76,356,163355,6,0,P|60:308|108:216,1,157.500001502037
28,44,163700,1,0,0:0:0:0:
28,44,163872,2,0,P|88:76|268:40,1,236.250002253056,0|0,0:0|2:0,0:0:0:0:
272,148,164217,2,0,P|336:132|432:184,1,157.500001502037,0|0,0:0|0:0,0:0:0:0:
440,356,164562,2,0,L|456:264,1,78.7500007510185
464,36,164734,5,0,0:0:0:0:
336,244,164907,1,0,0:0:0:0:
256,60,165079,1,0,0:0:0:0:
424,172,165252,1,0,0:0:0:0:
188,220,165424,6,0,P|160:172|172:96,1,135.000005149842
336,100,165769,1,0,0:0:0:0:
24,188,165941,1,0,0:0:0:0:
336,100,166114,6,0,L|320:172,1,67.5000025749208
176,284,166286,2,0,L|192:212,1,67.5000025749208
348,272,166458,2,0,L|276:256,1,67.5000025749208
164,112,166630,2,0,L|235:127,1,67.5000025749208
424,172,166803,5,0,0:0:0:0:
424,172,167062,1,0,0:0:0:0:
424,172,167321,1,0,0:0:0:0:
420,332,167493,6,0,P|440:288|436:248,1,67.5000025749208
368,64,167665,2,0,L|316:128,1,67.5
216,236,167838,2,0,L|124:220,1,90,0|0,0:0|0:0,0:0:0:0:
64,132,168183,5,0,0:0:0:0:
64,132,168872,6,0,P|145:146|284:120,1,202.500007724762,0|0,0:0|2:0,0:0:0:0:
262,128,169217,1,0,0:0:0:0:
124,40,169390,1,0,0:0:0:0:
212,264,169562,1,0,0:0:0:0:
352,68,169734,1,0,0:0:0:0:
296,220,169907,6,0,B|344:224|344:224|380:212|380:212|436:216,1,135.000005149842
428,215,170252,1,0,0:0:0:0:
316,332,170424,6,0,L|248:312,1,67.5000025749208,0|0,0:0|2:0,0:0:0:0:
76,144,170596,2,0,L|88:236,1,67.5000025749208,0|0,0:0|2:0,0:0:0:0:
20,360,170769,2,0,L|100:312,1,67.5000025749208,0|0,0:0|2:0,0:0:0:0:
272,180,170941,1,0,0:0:0:0:
271,179,171114,6,0,L|215:142,1,67.5000025749208,0|0,0:0|2:0,0:0:0:0:
372,108,171286,2,0,L|368:40,1,67.5000025749208,0|0,0:0|2:0,0:0:0:0:
456,176,171458,2,0,L|508:133,1,67.5000025749208,0|0,0:0|2:0,0:0:0:0:
168,324,171631,2,0,P|108:324|60:272,1,135.000005149842
80,132,171976,6,4,L|40:92,2,29.2499986610413,2|2|2,0:2|0:2|0:2,0:2:0:0:
244,264,172148,1,0,0:0:0:0:
280,56,172320,1,0,0:0:0:0:
136,212,172493,1,0,0:0:0:0:
412,164,172665,1,0,0:0:0:0:
156,44,172838,2,0,L|184:112,1,58.4999973220826
244,264,173010,5,0,0:0:0:0:
320,144,173183,1,0,0:0:0:0:
180,140,173355,1,0,0:0:0:0:
372,232,173527,2,0,P|416:132|332:44,1,233.999989288331
342,46,173958,1,0,0:0:0:0:
342,46,174045,1,0,0:0:0:0:
244,264,174217,1,0,0:0:0:0:
116,204,174390,6,0,P|88:148|160:52,1,175.499991966248,0|0,0:0|2:0,0:0:0:0:
140,58,174734,1,0,0:0:0:0:
116,304,174907,1,0,0:0:0:0:
176,140,175079,1,0,0:0:0:0:
40,252,175252,1,0,0:0:0:0:
260,60,175424,5,0,0:0:0:0:
240,260,175596,1,0,0:0:0:0:
260,60,175769,1,0,0:0:0:0:
320,288,175941,2,0,P|276:336|220:336,2,116.999994644165,0|0|0,0:0|0:0|0:0,0:0:0:0:
436,312,176458,6,0,P|412:244|432:192,1,116.999994644165
416,88,176803,1,0,0:0:0:0:
492,248,176976,1,0,0:0:0:0:
416,88,177148,6,0,P|356:104|272:80,1,135
248,168,177838,1,0,0:0:0:0:
80,100,178183,1,0,0:0:0:0:
168,80,178355,1,0,0:0:0:0:
104,248,178872,1,0,0:0:0:0:
148,168,179217,5,0,0:0:0:0:
204,240,179390,1,0,0:0:0:0:
292,244,179562,1,0,0:0:0:0:
360,184,179734,1,0,0:0:0:0:
348,96,179907,5,0,0:0:0:0:
428,136,180252,1,0,0:0:0:0:
436,224,180596,1,0,0:0:0:0:
368,280,180941,5,0,0:0:0:0:
244,148,181114,1,0,0:0:0:0:
244,148,181976,5,0,0:0:0:0:
268,236,182148,1,0,0:0:0:0:
328,168,182321,1,0,0:0:0:0:
300,80,182493,1,0,0:0:0:0:
212,68,182665,5,0,0:0:0:0:
160,144,183010,1,0,0:0:0:0:
184,232,183355,1,0,0:0:0:0:
28,324,184045,5,0,0:0:0:0:
28,324,184390,1,0,0:0:0:0:
108,280,184734,6,0,P|140:308|200:320,1,90
228,308,185252,1,0,0:0:0:0:
308,268,185424,5,0,0:0:0:0:
384,316,185769,1,0,0:0:0:0:
444,248,186114,1,0,0:0:0:0:
416,164,186458,5,0,0:0:0:0:
416,164,186631,2,0,B|352:144|352:192|284:160,1,135,0|0,0:0|0:0,0:0:0:0:
208,208,187493,5,0,0:0:0:0:
120,200,187665,1,0,0:0:0:0:
60,268,187838,1,0,0:0:0:0:
96,348,188010,1,0,0:0:0:0:
160,284,188183,6,0,P|208:296|296:200,1,180
456,296,189562,2,0,P|436:248|444:160,1,135
484,88,190252,5,0,0:0:0:0:
404,48,190424,1,0,0:0:0:0:
332,100,190597,1,0,0:0:0:0:
260,48,190769,1,0,0:0:0:0:
200,112,190941,6,0,P|160:96|188:304,1,450
160,224,193700,2,0,B|292:264|292:168|436:236,1,270
480,300,195079,1,0,0:0:0:0:
120,320,196458,1,0,0:0:0:0:
352,136,199217,5,0,0:0:0:0:
320,216,200596,1,0,0:0:0:0:
256,192,201976,12,0,206114,0:0:0:0:
