osu file format v13

[General]
AudioFilename: Krewella - Come & Get It [ FREE DOWNLOAD ].mp3
AudioLeadIn: 0
PreviewTime: 155589
Countdown: 0
SampleSet: Normal
StackLeniency: 0.7
Mode: 0
LetterboxInBreaks: 1
WidescreenStoryboard: 1

[Editor]
Bookmarks: 27698
DistanceSpacing: 1
BeatDivisor: 4
GridSize: 8
TimelineZoom: 1.9

[Metadata]
Title:Come & Get It
TitleUnicode:Come & Get It
Artist:Krewella
ArtistUnicode:Krewella
Creator:Olivarus
Version:Come Normal
Source:
Tags:krewella, come & get it, come, get, it, &, and, come and get it, olivarus
BeatmapID:414031
BeatmapSetID:171130

[Difficulty]
HPDrainRate:4
CircleSize:3
OverallDifficulty:3
ApproachRate:6
SliderMultiplier:1.4
SliderTickRate:1

[Events]
//Background and Video events
0,0,"krewella___come_and_get_it_by_nadi_chan-d5u8qx1.jpg",0,0
//Break Periods
2,56971,66925
//Storyboard Layer 0 (Background)
//Storyboard Layer 1 (Fail)
//Storyboard Layer 2 (Pass)
//Storyboard Layer 3 (Foreground)
//Storyboard Sound Samples
//Background Colour Transformations
3,100,255,255,255

[TimingPoints]
0,-100,4,1,0,100,0,0
0,-100,4,1,0,100,0,0
12811,344.827586206897,4,1,0,100,1,0
34474,-200,4,1,0,100,0,0
40163,-100,4,1,0,100,0,0
40507,-133.333333333333,4,1,0,100,0,0
78602,-200,4,1,0,100,0,0
89893,-133.333333333333,4,1,0,100,0,0
99459,-100,4,1,0,100,0,0
103683,-200,4,1,0,100,0,0
111353,-200,4,1,0,100,0,0
133072,-100,4,1,0,100,0,0
134279,-133.333333333333,4,1,0,100,0,0
149212,-100,4,1,0,100,0,0
149448,-133.333333333333,4,1,0,100,0,0
150207,-100,4,1,0,100,0,0
151689,-133.333333333333,4,1,0,100,0,0

[Colours]
Combo1 : 64,0,128
Combo2 : 128,0,0
Combo3 : 128,64,0
Combo4 : 0,64,0
Combo5 : 0,64,64
Combo6 : 0,0,128
Combo7 : 0,0,72
Combo8 : 64,0,64

[HitObjects]
256,192,9686,12,2,11754,2:0:0:0:
144,80,12405,6,0,P|120:128|152:208,1,140,0|0,0:0|0:0,0:0:0:0:
232,208,13677,2,0,P|272:256|288:272,1,70
408,280,14539,1,0,0:0:0:0:
400,136,15228,2,0,L|448:80,2,70
328,160,15918,5,0,0:0:0:0:
216,160,16435,2,0,P|176:152|136:176,1,70
72,40,17297,1,0,0:0:0:0:
88,184,17986,2,0,P|128:176|160:184,2,70
88,256,18676,1,0,0:0:0:0:
192,280,19193,6,0,P|216:264|240:224,1,70
304,240,19710,1,0,0:0:0:0:
344,176,20055,1,0,0:0:0:0:
288,96,20572,2,0,P|232:88|208:80,3,70
136,144,21434,6,0,P|120:176|120:224,1,70
160,256,21951,2,0,P|208:264|232:256,1,70
256,192,22296,12,0,23847,0:0:0:0:
256,192,24192,5,0,0:0:0:0:
176,120,24709,2,0,P|144:112|104:136,1,70
104,216,25399,2,0,P|104:248|136:280,1,70
224,280,26088,2,0,P|272:272|288:240,3,70
336,232,26950,1,0,0:0:0:0:
368,208,27122,1,0,0:0:0:0:
360,120,27467,6,0,L|272:136,1,70
240,176,27812,2,0,L|216:224,2,35
184,128,28329,1,0,0:0:0:0:
152,144,28501,1,0,0:0:0:0:
192,208,28846,6,0,P|232:224|248:248,1,70
176,264,29363,1,0,0:0:0:0:
104,240,29708,1,0,0:0:0:0:
80,136,30225,2,0,L|152:152,1,70
232,96,30914,1,0,0:0:0:0:
272,104,31087,1,0,0:0:0:0:
304,208,31604,6,0,P|320:240|320:280,1,70
232,296,31949,1,0,0:0:0:0:
232,296,32121,2,0,L|160:296,7,70
256,192,33500,12,4,34190,0:0:0:0:
432,64,34879,6,0,P|392:72|360:96,1,70
240,136,35741,1,0,0:0:0:0:
240,136,35913,1,0,0:0:0:0:
168,64,36258,2,0,P|136:80|112:112,1,70
64,224,36775,1,0,0:0:0:0:
88,296,37120,6,0,P|120:304|136:304,1,35
168,296,37465,2,0,L|160:256,1,35
200,176,37982,1,0,0:0:0:0:
432,192,38499,5,0,0:0:0:0:
432,192,38671,1,0,0:0:0:0:
432,192,38844,2,0,L|424:232|424:232,1,35
352,280,39361,1,0,0:0:0:0:
320,296,39533,6,0,P|264:280|232:240,1,105.000004005432
200,232,40136,1,0,0:0:0:0:
184,200,40223,2,0,L|216:168,2,26.2500010013581
248,168,40740,1,0,0:0:0:0:
392,200,40912,2,0,P|384:256|336:296,1,105.000004005432
240,312,41429,6,0,P|216:288|184:296,2,52.5000020027161
248,240,42119,1,0,0:0:0:0:
248,224,42291,1,0,0:0:0:0:
248,152,42636,2,0,P|208:160|184:184,1,52.5000020027161
160,160,42981,1,0,0:0:0:0:
152,192,43153,5,0,0:0:0:0:
184,256,43498,1,0,0:0:0:0:
216,272,43670,2,0,L|248:248,6,26.2500010013581,0|0|0|0|0|0|0,0:0|0:0|0:0|0:0|0:0|0:0|0:0,0:0:0:0:
256,192,44532,12,0,45222,0:0:0:0:
72,192,45911,5,0,0:0:0:0:
136,152,46256,2,0,L|152:88,4,52.5000020027161,0|0|0|0|0,0:0|2:0|2:0|2:0|0:0,0:0:0:0:
296,168,47290,2,0,L|360:152,8,52.5000020027161,0|0|0|0|0|0|0|0|0,0:0|2:0|2:0|2:0|2:0|2:0|2:0|2:0|0:0,0:0:0:0:
256,256,49014,6,0,P|216:272|208:288,5,52.5000020027161,0|0|0|0|0|0,0:0|2:0|2:0|2:0|2:0|0:0,0:0:0:0:
216,280,50048,2,0,P|160:272|136:216,1,105.000004005432
168,168,50565,2,0,P|216:160|264:208,1,105.000004005432
256,192,51082,1,0,0:0:0:0:
448,192,51427,5,0,0:0:0:0:
256,272,51772,2,0,L|256:336,3,52.5000020027161,0|0|0|0,0:0|2:0|2:0|0:0,0:0:0:0:
256,192,52461,2,0,P|232:144|184:144,1,105.000004005432
185,143,52978,1,0,2:0:0:0:
185,143,53151,1,0,2:0:0:0:
112,160,53323,6,0,L|72:208,4,52.5000020027161,0|0|0|0|0,0:0|2:0|2:0|2:0|0:0,0:0:0:0:
256,192,54185,12,0,56771,0:0:0:0:
80,104,67975,6,0,P|136:104|200:120,1,105.000004005432
208,184,68664,2,0,P|256:200|328:200,1,105.000004005432,0|0,2:0|0:0,0:0:0:0:
384,192,69354,1,0,2:0:0:0:
344,128,69699,1,0,0:0:0:0:
232,144,70388,6,0,P|200:200|264:256,1,157.500006008148,0|0,0:0|2:0,0:0:0:0:
328,280,71078,1,0,0:0:0:0:
376,224,71422,2,0,P|384:192|328:160,1,105.000004005432,0|0,2:0|0:0,0:0:0:0:
296,144,71940,2,0,L|248:144,2,26.2500010013581
368,120,72457,1,0,0:0:0:0:
296,208,72801,6,0,P|288:240|224:280,1,105.000004005432
200,280,73491,2,0,P|168:272|128:208,1,105.000004005432
112,72,74525,1,0,0:0:0:0:
216,96,75042,2,0,P|248:80|288:80,1,52.5000020027161
368,168,75732,5,0,0:0:0:0:
368,168,75904,1,0,0:0:0:0:
312,216,76249,6,0,L|304:280,4,52.5000020027161
280,192,77111,6,0,L|280:128,3,52.5000020027161
256,192,77800,12,0,78317,0:0:0:0:
240,320,79007,6,0,P|232:280|208:248,1,70
352,208,79869,2,0,P|376:192|384:184,3,35
392,80,80731,1,0,0:0:0:0:
320,104,80903,2,0,L|216:136,1,105.000004005432,0|0,2:0|0:0,0:0:0:0:
144,128,81765,2,0,B|104:152|80:200|80:256|112:328,1,210
256,312,83144,5,0,0:0:0:0:
328,288,83489,2,0,L|344:208,1,70
408,152,84178,1,0,0:0:0:0:
264,144,84868,2,0,P|168:136|120:168,1,140
136,280,85902,6,0,L|160:360,1,70
328,320,86936,1,0,0:0:0:0:
368,256,87281,6,0,P|360:216|344:176,1,70
256,192,87798,12,0,88315,0:0:0:0:
256,192,88660,12,0,89349,0:0:0:0:
80,296,90039,5,0,0:0:0:0:
144,240,90384,2,0,L|128:184,3,52.5000020027161,0|2|0|2,2:0|2:0|2:0|2:0,0:0:0:0:
184,248,91073,2,0,L|248:232,2,52.5000020027161,0|2|0,2:0|2:0|2:0,0:0:0:0:
144,240,91590,2,0,L|128:176,6,52.5000020027161,0|2|0|2|0|2|0,2:0|2:0|2:0|2:0|2:0|2:0|2:0,0:0:0:0:
64,320,92797,6,0,P|48:264|48:208,1,105.000004005432
32,128,93314,2,0,L|32:64,4,52.5000020027161,0|0|0|0|0,2:0|2:0|2:0|2:0|2:0,0:0:0:0:
120,96,94176,2,0,P|176:104|232:128,1,105
296,136,94865,2,0,P|300:183|256:232,1,105.000004005432
336,256,95555,1,0,0:0:0:0:
320,352,95900,6,0,L|376:352,3,52.5000020027161,0|2|0|2,2:0|2:0|2:0|2:0,2:0:0:0:
392,320,96589,2,0,L|456:296,2,52.5000020027161,0|8|0,2:0|2:0|2:0,0:0:0:0:
272,216,97106,2,0,L|224:168,6,52.5000020027161,0|2|0|0|2|0|2,2:0|2:0|2:0|2:0|2:0|2:0|2:0,0:0:0:0:
168,176,98313,6,0,P|160:256|184:272,1,105
336,296,99347,1,0,0:0:0:0:
384,192,99692,2,0,L|392:152,8,35,0|0|0|0|0|0|0|0|0,0:0|0:0|0:0|0:0|0:0|0:0|0:0|0:0|0:0,0:0:0:0:
256,192,101071,1,4,0:0:0:0:
256,192,101416,12,2,103484,2:0:0:0:
144,80,103829,6,0,P|120:128|152:208,1,140,0|0,2:0|2:0,0:0:0:0:
232,208,104863,2,0,P|272:256|288:272,1,70,0|0,2:0|2:0,0:0:0:0:
256,192,105552,12,0,106242,2:0:0:0:
304,312,106587,6,0,P|336:304|368:272,1,70,8|0,2:0|2:0,0:0:0:0:
216,160,107966,2,0,P|176:152|152:160,1,52.5000020027161,8|0,2:0|2:0,0:0:0:0:
72,40,108655,1,0,2:0:0:0:
88,256,109345,1,0,0:0:0:0:
280,232,110724,2,0,P|320:200|320:176,1,70,8|0,2:0|2:0,0:0:0:0:
248,120,111413,2,0,P|192:112|168:120,2,70,0|8|0,2:0|2:0|2:0,2:0:0:0:
112,104,112447,6,0,P|96:136|144:224,1,140,0|0,2:0|2:0,0:0:0:0:
256,192,113482,12,0,115205,2:0:0:0:
256,192,115550,5,0,2:0:0:0:
176,120,115895,2,0,P|144:112|96:128,1,70,0|0,2:0|2:0,0:0:0:0:
104,224,116584,2,0,P|104:256|136:288,1,70,0|0,2:0|2:0,0:0:0:0:
224,280,117274,2,0,P|272:272|280:256,1,52.5000020027161,0|0,2:0|2:0,0:0:0:0:
336,232,117963,1,0,0:0:0:0:
376,200,118308,1,0,0:0:0:0:
384,112,118653,6,0,L|304:128,1,70
232,136,119687,2,0,P|184:120|168:136,1,70
176,264,120377,1,0,0:0:0:0:
104,240,120721,1,0,0:0:0:0:
80,136,121066,2,0,L|160:144,1,70
232,96,121756,1,0,0:0:0:0:
304,112,122100,1,0,0:0:0:0:
248,304,123135,6,0,L|168:296,7,70,0|0|0|0|0|0|0|0,0:0|0:0|0:0|0:0|0:0|0:0|0:0|0:0,0:0:0:0:
432,64,125893,6,0,P|392:72|368:88,1,70
240,136,126755,1,0,0:0:0:0:
240,136,126927,1,0,0:0:0:0:
176,176,127272,2,0,P|144:192|120:224,1,70
64,224,127961,1,0,0:0:0:0:
88,296,128306,6,0,P|120:304|136:304,1,35
168,296,128651,2,0,L|168:216,1,70
432,192,129340,5,0,0:0:0:0:
432,192,129685,2,0,P|424:232|400:256,1,70
352,280,130374,1,0,0:0:0:0:
320,296,130719,6,0,P|264:280|248:272,1,70
200,232,131236,1,0,0:0:0:0:
320,288,133305,2,0,P|344:248|352:216,1,70
336,144,133649,2,0,P|296:152|272:192,1,70
184,256,134167,5,0,0:0:0:0:
64,248,134511,2,0,P|32:192|32:144,1,105.000004005432
256,192,135546,12,0,136235,0:0:0:0:
72,192,136925,5,0,0:0:0:0:
136,272,137269,2,0,P|176:312|232:304,1,105.000004005432
312,248,137959,1,0,0:0:0:0:
384,168,138304,2,0,P|368:128|304:104,1,105.000004005432
208,96,138993,1,0,0:0:0:0:
48,240,139683,2,0,P|128:280|248:272,1,210.000008010865
504,96,141406,5,0,0:0:0:0:
448,184,141751,1,0,0:0:0:0:
384,264,142096,2,0,P|328:304|280:296,1,105.000004005432
88,272,143130,1,0,0:0:0:0:
112,168,143475,2,0,P|136:120|192:112,1,105.000004005432
392,96,144509,1,0,0:0:0:0:
136,152,145199,6,0,L|152:88,4,52.5000020027161,0|0|0|0|0,0:0|2:0|2:0|2:0|0:0,0:0:0:0:
296,168,146233,2,0,L|360:152,8,52.5000020027161,0|0|0|0|0|0|0|0|0,0:0|2:0|2:0|2:0|2:0|2:0|2:0|2:0|0:0,0:0:0:0:
216,280,147957,2,0,P|160:272|136:216,1,105.000004005432
168,168,148646,2,0,P|216:160|264:208,1,105.000004005432
256,256,149163,6,0,L|216:272|216:272,2,26.2500010013581,0|0|0,0:0|2:0|2:0,0:0:0:0:
312,200,149680,2,0,L|400:128,1,105.000004005432,0|0,0:0|0:0,0:0:0:0:
264,72,150370,2,0,P|208:80|136:152,1,140
272,192,151059,2,0,P|320:216|408:200,1,140
256,272,151749,2,0,L|256:336,3,52.5000020027161,0|0|0|0,0:0|2:0|2:0|0:0,0:0:0:0:
256,192,152438,2,0,P|232:144|184:144,1,105.000004005432
185,143,153128,1,0,2:0:0:0:
185,143,153300,1,0,2:0:0:0:
112,160,153473,6,0,L|72:208,4,52.5000020027161,0|0|0|0|0,0:0|2:0|2:0|2:0|0:0,0:0:0:0:
256,192,154334,12,0,155541,0:0:0:0:
