osu file format v13

[General]
AudioFilename: Krewella - Come & Get It [ FREE DOWNLOAD ].mp3
AudioLeadIn: 0
PreviewTime: 155589
Countdown: 0
SampleSet: Normal
StackLeniency: 0.7
Mode: 0
LetterboxInBreaks: 1
WidescreenStoryboard: 1

[Editor]
Bookmarks: 12718,14528,15218,17977,30821,30994,31511,31683,31856,32028,32201,32373,32545,32718,32890,33063,33235,34787,35132,35649,35821,35994,36166,36511,36683,37028,37200,37373,37545,37890,38407,38580,38925,39269,39442,39787,39959,40131,40218,40304,40649,40821,41166,41338,41511,41683,42028,42200,42545,42718,43062,43235,43407,43580,43666,43752,43838,43925,44011,44097,44269,44442,44528,44614,44700,44787,44873,44959,45045,45131,45821,46166,46338,46511,46683,46856,47200,47373,47545,47718,47890,48062,48235,48407,48580,48924,49097,49269,49442,49614,49787,49959,50304,50476,50821,50993,51166,51855,52028,52200,52373,52718,52890,53062,53235,53407,53580,53752,53924,54786,55045,55304,55476,55562,55735,55821,55993,56166,56338,56511,56683,56942,57286,57315,57459,57545,57631,57717,57804,57890,58062,58235,58838,59183,59355,59442,59528,59614,60304,60476,60648,60821,60993,66252,66510,67976,76252,76424,76597,76769,76941,77200,77372,77545,86453,88637,89958,90361,90418,90533,90591,90706,90763,90878,91050,91223,91568,91683,91855,92085,92257,128751,129010,129355,129613,131855,133234,133492,134182,136604,145216,147630,147889,149699,156251,157458,157630,157802,157975,158147,158320,158492,158578,158751,158923,164440,165389,165733
DistanceSpacing: 1
BeatDivisor: 1
GridSize: 8
TimelineZoom: 1.5

[Metadata]
Title:Come & Get It
TitleUnicode:Come & Get It
Artist:Krewella
ArtistUnicode:Krewella
Creator:Olivarus
Version:Come Easy
Source:
Tags:krewella, come & get it, come, get, it, &, and, come and get it, olivarus
BeatmapID:414030
BeatmapSetID:171130

[Difficulty]
HPDrainRate:1
CircleSize:2
OverallDifficulty:1
ApproachRate:3
SliderMultiplier:1.4
SliderTickRate:1

[Events]
//Background and Video events
0,0,"krewella___come_and_get_it_by_nadi_chan-d5u8qx1.jpg",0,0
//Break Periods
2,67510,74833
//Storyboard Layer 0 (Background)
//Storyboard Layer 1 (Fail)
//Storyboard Layer 2 (Pass)
//Storyboard Layer 3 (Foreground)
//Storyboard Sound Samples
//Background Colour Transformations
3,100,255,255,255

[TimingPoints]
429.26,344.748333716387,4,1,0,100,1,0
12401,-133.333333333333,4,1,0,100,0,0

[Colours]
Combo1 : 64,0,128
Combo2 : 128,0,0
Combo3 : 128,64,0
Combo4 : 0,64,0
Combo5 : 0,64,64
Combo6 : 0,0,128
Combo7 : 0,0,72
Combo8 : 64,0,64

[HitObjects]
72,96,12840,6,0,P|128:96|264:304,1,315.000012016297
368,312,14563,1,0,0:0:0:0:
424,224,15253,2,0,B|392:192|304:120|264:88,1,210.000008010865
160,88,16632,1,0,0:0:0:0:
96,168,17321,6,0,P|80:200|208:296,1,210.000008010865
288,296,18700,1,0,0:0:0:0:
360,216,19390,2,0,P|352:168|208:120,1,210.000008010865
112,112,20769,2,0,P|56:160|40:224,1,105.000004005432
128,248,21458,1,0,0:0:0:0:
224,64,22148,5,0,0:0:0:0:
256,192,22493,12,0,23872,0:0:0:0:
128,120,24561,5,0,0:0:0:0:
280,96,24906,6,0,P|320:144|352:296,1,210.000008010865
440,224,25940,1,0,0:0:0:0:
248,296,26285,2,0,B|168:248|136:88|168:104|159:185|146:150|144:128|136:144,1,210.000008010865
56,80,27664,1,0,0:0:0:0:
160,96,28353,2,0,P|224:96|344:192,1,210.000008010865
472,296,29732,5,0,0:0:0:0:
264,280,30422,2,0,P|184:280|56:208,1,210.000008010865
248,112,31801,2,0,B|280:96|341:99|448:112,1,210.000008010865
256,192,33180,12,0,34214,0:0:0:0:
120,320,34904,6,0,P|200:312|336:320,1,210
432,320,35938,1,0,0:0:0:0:
448,216,36627,1,0,0:0:0:0:
360,168,37317,2,0,P|296:160|176:256,1,210.000008010865
72,184,38696,2,0,P|40:216|144:344,1,210.000008010865
200,320,40075,5,0,0:0:0:0:
152,224,40764,2,0,P|152:176|288:152,1,210.000008010865
376,176,42143,1,0,0:0:0:0:
368,280,42833,2,0,P|288:304|160:296,1,210.000008010865
256,192,43867,12,0,45246,0:0:0:0:
136,304,45936,6,0,B|144:264|152:248|160:224|176:120,1,105.000004005432
344,136,47659,1,0,0:0:0:0:
336,240,48349,2,0,P|288:288|240:296,1,105.000004005432
56,216,50073,2,0,P|96:208|144:80,1,105.000004005432
200,88,51107,1,0,0:0:0:0:
304,48,51452,1,0,0:0:0:0:
352,128,51796,6,0,P|424:168|504:280,1,210.000008010865
400,288,53175,2,0,P|304:288|240:200,1,210.000008010865
256,192,54210,12,0,55244,0:0:0:0:
256,120,56278,6,0,L|256:160|256:264,1,105.000004005432
112,344,56967,2,0,P|80:296|128:144,1,210.000008010865
184,80,58002,1,0,0:0:0:0:
288,112,58691,2,0,P|368:168|424:272,1,210.000008010865
320,280,60070,1,0,0:0:0:0:
216,296,60760,2,0,P|168:248|160:184,1,105.000004005432
144,56,62139,1,0,0:0:0:0:
240,104,62483,6,0,B|288:112|332:181|352:256|360:288,1,210.000008010865
272,320,64207,1,0,0:0:0:0:
168,280,64897,2,0,P|128:256|120:96,1,210.000008010865
216,80,66276,1,0,0:0:0:0:
256,192,66620,12,0,67310,0:0:0:0:
128,280,76273,6,0,P|160:232|200:208,3,105.000004005432
384,296,77652,2,0,B|392:192|344:112|256:96,1,210.000008010865
168,304,79031,6,0,P|144:256|112:200,1,105.000004005432
200,144,80066,2,0,P|264:144|336:272,1,210.000008010865
256,320,81445,2,0,P|184:312|64:240,1,210.000008010865
256,192,82824,1,0,0:0:0:0:
176,96,83513,2,0,B|232:96|288:104|337:92|376:96|384:144,1,210.000008010865
400,232,84892,5,0,0:0:0:0:
312,280,85582,2,0,P|216:280|104:216,1,210.000008010865
112,120,86961,1,0,0:0:0:0:
168,120,87305,6,0,P|200:104|272:88,2,105.000004005432
256,192,88340,12,0,89374,0:0:0:0:
72,296,90063,6,0,P|136:296|176:320,1,105.000004005432
408,328,90753,2,0,B|400:288|369:247|376:239|328:216,1,105.000004005432
280,192,91442,2,0,P|256:160|96:176,1,210.000008010865
168,248,92821,1,0,0:0:0:0:
296,320,93166,6,0,P|320:272|376:256,2,105.000004005432
456,248,94200,1,0,0:0:0:0:
296,184,94890,1,0,0:0:0:0:
216,256,95579,2,0,P|168:192|232:72,1,210.000008010865
304,64,96614,1,0,0:0:0:0:
368,136,96958,6,0,P|416:152|472:304,1,210.000008010865
288,288,98337,2,0,P|232:296|144:256,1,105.000004005432
256,192,99372,12,0,100406,0:0:0:0:
256,192,101095,5,0,0:0:0:0:
