osu file format v12

[General]
AudioFilename: Nightstep Come Get It (Krewella).mp3
AudioLeadIn: 0
PreviewTime: 41462
Countdown: 0
SampleSet: Normal
StackLeniency: 0.7
Mode: 0
LetterboxInBreaks: 0
WidescreenStoryboard: 1

[Editor]
DistanceSpacing: 1
BeatDivisor: 4
GridSize: 4

[Metadata]
Title:Come & Get It (Nightcore Mix)
TitleUnicode:Come & Get It (Nightcore Mix)
Artist:Krewella
ArtistUnicode:Krewella
Creator:Asphyxia
Version:Insane
Source:
Tags:rezoons Gero collab collaboration electronic and Kyshiro Ami
BeatmapID:348605
BeatmapSetID:125553

[Difficulty]
HPDrainRate:7
CircleSize:4
OverallDifficulty:8
ApproachRate:9
SliderMultiplier:2
SliderTickRate:1

[Events]
//Background and Video events
0,0,"sunset-anime-girl-1366x768.jpg",0,0
//Break Periods
2,93110,99273
2,169550,171210
2,174470,176129
//Storyboard Layer 0 (Background)
//Storyboard Layer 1 (Fail)
//Storyboard Layer 2 (Pass)
//Storyboard Layer 3 (Foreground)
//Storyboard Sound Samples
//Background Colour Transformations
3,100,163,162,255

[TimingPoints]
11950,307.424296766921,4,1,0,100,1,0
11950,-125,4,2,1,50,0,0
21787,-100,4,2,1,60,0,0
31317,-76.9230769230769,4,2,1,65,0,0
31625,-100,4,1,1,70,0,0
41462,-125,4,1,1,70,0,1
41770,-83.3333333333333,4,1,1,70,0,1
43922,-133.333333333333,4,1,1,70,0,1
44229,-83.3333333333333,4,1,1,70,0,1
46381,-152.905198776758,4,1,1,70,0,1
46688,-83.3333333333333,4,1,1,70,0,1
51300,-181.818181818182,4,1,1,70,0,1
51607,-83.3333333333333,4,1,1,70,0,1
56219,-200,4,1,1,70,0,1
56526,-83.3333333333333,4,1,1,70,0,1
61137,-100,4,1,1,70,0,0
80813,-200,4,1,1,70,0,0
81120,-100,4,1,1,70,0,0
83272,-166.666666666667,4,1,1,70,0,0
83579,-100,4,1,1,70,0,0
85731,-142.857142857143,4,1,1,70,0,0
86039,-100,4,1,1,70,0,0
90650,-100,4,2,1,30,0,0
99873,-133.333333333333,4,2,1,50,0,0
119548,-117.647058823529,4,2,1,70,0,0
120163,-100,4,1,1,75,0,0
139223,-111.111111111111,4,1,1,75,0,0
139838,-200,4,1,1,80,0,1
141068,-83.3333333333333,4,1,1,80,0,1
142297,-200,4,1,1,80,0,1
143527,-83.3333333333333,4,1,1,80,0,1
144757,-200,4,1,1,80,0,1
145986,-83.3333333333333,4,1,1,80,0,1
149676,-200,4,1,1,80,0,1
149983,-83.3333333333333,4,1,1,80,0,1
154594,-200,4,1,1,80,0,1
154902,-83.3333333333333,4,1,1,80,0,1
157054,-100,4,1,1,70,0,0
159513,-133.333333333333,4,2,1,30,0,0
161358,-133.333333333333,4,2,1,50,0,0

[Colours]
Combo1 : 0,96,191
Combo2 : 255,255,128
Combo3 : 255,128,64
Combo4 : 255,53,53
Combo5 : 48,3,107

[HitObjects]
52,112,11949,6,0,P|64:64|172:128,1,200,0|8,0:0|0:0,0:0:0:0:
252,324,12718,2,0,P|288:328|336:316,1,80,0|8,0:0|0:0,0:0:0:0:
384,168,13179,6,0,P|416:104|392:16,1,160,0|8,0:0|0:0,0:0:0:0:
316,4,13640,1,0,0:0:0:0:
256,60,13794,2,0,L|172:100,1,80
128,208,14101,2,0,L|212:168,1,80,8|0,0:0|0:0,0:0:0:0:
68,152,14409,6,0,P|50:236|105:287,1,160,0|8,0:0|0:0,0:0:0:0:
170,317,14870,2,0,P|248:298|338:326,1,160
403,320,15331,2,0,L|425:235,2,80,8|0|0,0:0|0:0|0:0,0:0:0:0:
330,355,15792,1,0,0:0:0:0:
257,320,15946,1,8,0:0:0:0:
239,241,16100,1,0,0:0:0:0:
203,169,16253,2,0,L|110:159,1,80
8,71,16561,2,0,L|101:61,1,80,8|0,0:0|0:0,0:0:0:0:
284,171,16868,6,0,P|258:226|166:240,1,160,0|8,0:0|0:0,0:0:0:0:
303,42,17637,2,0,P|344:34|383:44,1,80,0|8,0:0|0:0,0:0:0:0:
491,158,18098,22,0,L|503:345,1,160,0|8,0:0|0:0,0:0:0:0:
437,365,18559,1,0,0:0:0:0:
359,345,18713,2,0,P|319:339|285:312,1,80
148,278,19020,2,0,P|179:254|219:248,1,80,8|0,0:0|0:0,0:0:0:0:
139,371,19328,6,0,P|81:342|61:254,1,160,0|8,0:0|0:0,0:0:0:0:
49,78,19789,2,0,P|107:107|127:195,1,160
138,273,20250,1,8,0:0:0:0:
214,297,20404,1,0,0:0:0:0:
300,226,20557,5,0,0:0:0:0:
318,218,20634,1,0,0:0:0:0:
331,202,20711,1,0,0:0:0:0:
343,186,20788,1,0,0:0:0:0:
348,166,20865,1,8,0:0:0:0:
353,146,20942,1,0,0:0:0:0:
365,130,21019,1,0,0:0:0:0:
379,117,21095,1,0,0:0:0:0:
396,106,21172,5,0,0:0:0:0:
413,95,21249,1,0,0:0:0:0:
417,75,21326,1,0,0:0:0:0:
413,55,21403,1,0,0:0:0:0:
396,43,21480,1,8,0:0:0:0:
378,33,21557,1,0,0:0:0:0:
358,29,21633,1,0,0:0:0:0:
338,30,21710,1,0,0:0:0:0:
315,41,21787,22,0,P|266:108|153:94,1,200,4|8,0:0|0:0,0:0:0:0:
220,23,22248,2,0,L|230:229,1,200
216,322,22709,1,8,0:0:0:0:
313,346,22863,1,0,0:0:0:0:
422,252,23017,6,0,P|452:209|441:65,1,200,0|8,0:0|0:0,0:0:0:0:
351,26,23478,1,0,0:0:0:0:
272,88,23632,2,0,B|213:81|213:81|135:102|135:102|61:93,1,200,0|8,0:0|0:0,0:0:0:0:
17,13,24093,1,0,0:0:0:0:
17,13,24170,1,0,0:0:0:0:
17,13,24246,6,0,L|43:224,1,200,0|8,0:0|0:0,0:0:0:0:
135,162,24708,2,0,L|161:373,1,200
263,374,25169,1,8,0:0:0:0:
352,330,25322,1,0,0:0:0:0:
352,330,25399,1,0,0:0:0:0:
352,330,25476,6,0,P|406:334|462:210,1,200,0|8,0:0|0:0,0:0:0:0:
512,35,25937,2,0,P|458:31|402:155,1,200
382,243,26398,2,0,P|331:246|273:224,1,100,8|0,0:0|0:0,0:0:0:0:
287,130,26706,22,0,L|279:349,2,200,0|8|0,0:0|0:0|0:0,0:0:0:0:
220,58,27474,1,0,0:0:0:0:
128,99,27628,2,0,B|74:108|74:108|25:99,1,100,8|0,0:0|0:0,0:0:0:0:
247,196,27936,6,0,P|319:202|356:92,1,200,0|8,0:0|0:0,0:0:0:0:
290,30,28397,1,0,0:0:0:0:
233,112,28550,2,0,B|269:211|218:223|252:308,1,200,0|8,0:0|0:0,0:0:0:0:
338,360,29012,1,0,0:0:0:0:
370,190,29165,5,4,0:0:0:0:
370,190,29319,1,0,0:0:0:0:
134,188,29473,1,8,0:0:0:0:
134,188,29627,1,0,0:0:0:0:
346,51,29780,1,0,0:0:0:0:
166,51,29934,1,0,0:0:0:0:
256,200,30088,2,0,L|256:319,1,100,8|0,0:0|0:0,0:0:0:0:
423,256,30395,6,0,P|451:275|487:276,1,50
464,180,30549,2,0,P|497:182|529:165,1,50
462,92,30702,2,0,P|479:62|477:26,1,50,8|0,0:0|0:0,0:0:0:0:
384,63,30856,2,0,P|378:29|353:3,1,50
282,22,31010,2,0,L|254:130,1,100
204,260,31317,22,0,L|72:278,1,129.999994049073,0|0,0:0|0:0,0:0:0:0:
192,152,31625,6,0,P|201:250|264:331,1,200,4|8,0:0|0:0,0:0:0:0:
361,333,32086,2,0,B|403:302|465:334|465:334|522:309|524:255,1,200
495,171,32547,2,0,P|484:122|485:69,1,100
332,21,32854,6,0,P|235:22|166:90,1,200,4|8,0:0|0:0,0:0:0:0:
65,95,33315,2,0,P|162:91|231:161,1,200
242,259,33777,1,8,0:0:0:0:
190,344,33930,1,0,0:0:0:0:
311,180,34084,6,0,P|364:186|413:168,1,100,4|0,0:0|0:0,0:0:0:0:
261,92,34391,2,0,P|213:77|164:83,1,100,8|0,0:0|0:0,0:0:0:0:
273,202,34699,2,0,L|249:-3,1,200,0|8,0:0|0:0,0:0:0:0:
249,3,35160,1,0,0:0:0:0:
67,110,35314,22,0,P|20:171|53:284,1,200,4|8,0:0|0:0,0:0:0:0:
319,177,35775,2,0,L|110:203,1,200
296,44,36236,1,8,0:0:0:0:
418,79,36390,1,0,0:0:0:0:
418,79,36467,1,0,0:0:0:0:
418,79,36543,6,0,P|454:121|435:264,1,200,4|8,0:0|0:0,0:0:0:0:
334,266,37005,2,0,P|441:258|499:322,1,200
365,340,37466,2,0,P|309:344|273:323,1,100,8|0,0:0|0:0,0:0:0:0:
222,155,37773,6,0,P|167:125|19:172,1,200,4|8,0:0|0:0,0:0:0:0:
247,79,38234,2,0,P|302:109|450:62,1,200
509,143,38695,2,0,L|501:257,1,100,8|0,0:0|0:0,0:0:0:0:
356,324,39003,5,4,0:0:0:0:
356,324,39080,1,0,0:0:0:0:
356,324,39157,1,0,0:0:0:0:
256,218,39310,1,12,0:0:0:0:
256,218,39387,1,0,0:0:0:0:
256,218,39464,1,0,0:0:0:0:
173,98,39618,2,0,L|163:46,2,50,4|0|0,0:0|0:0|0:0,0:0:0:0:
72,196,39925,2,0,L|62:245,2,50,12|0|0,0:0|0:0|0:0,0:0:0:0:
292,66,40233,21,4,0:0:0:0:
292,66,40309,1,0,0:0:0:0:
292,66,40386,1,0,0:0:0:0:
386,145,40540,1,12,0:0:0:0:
386,145,40617,1,0,0:0:0:0:
386,145,40694,1,0,0:0:0:0:
460,258,40847,6,0,L|465:361,1,100,0|0,0:0|0:0,2:0:0:0:
295,215,41155,2,0,L|290:112,1,100,0|0,0:0|0:0,2:0:0:0:
218,268,41462,38,0,L|137:275,1,80,4|0,0:0|0:0,0:0:0:0:
42,200,41770,37,8,0:0:0:0:
69,83,41923,1,0,0:0:0:0:
174,141,42077,1,2,0:0:0:0:
227,33,42231,1,2,0:0:0:0:
329,96,42385,2,0,P|386:116|445:102,1,119.999996337891,8|0,0:0|0:0,0:0:0:0:
229,158,42692,6,0,P|172:138|113:152,1,119.999996337891
60,257,42999,1,8,0:0:0:0:
137,348,43153,1,0,0:0:0:0:
256,335,43307,1,0,0:0:0:0:
329,240,43460,1,0,0:0:0:0:
412,153,43614,2,0,P|473:156|515:195,1,119.999996337891,8|0,0:0|0:0,0:0:0:0:
321,147,43922,6,0,L|304:65,1,75.0000028610231,4|0,0:0|0:0,0:0:0:0:
200,28,44229,5,8,0:0:0:0:
104,40,44383,1,0,0:0:0:0:
36,92,44536,1,0,0:0:0:0:
16,160,44690,1,0,0:0:0:0:
16,220,44844,1,8,0:0:0:0:
28,268,44998,1,0,0:0:0:0:
194,326,45151,6,0,P|258:334|365:204,1,239.999992675781,2|8,0:0|0:0,0:0:0:0:
249,187,45612,2,0,L|487:243,1,239.999992675781,2|0,0:0|0:0,0:0:0:0:
512,100,46074,2,0,L|390:70,1,119.999996337891,10|0,0:0|0:0,0:0:0:0:
257,37,46381,38,0,L|173:46,1,65.4000006985474,4|0,0:0|0:0,0:0:0:0:
93,112,46688,38,0,L|84:245,1,119.999996337891,8|0,0:0|0:0,0:0:0:0:
205,243,46996,2,0,L|196:362,1,119.999996337891
36,123,47303,2,0,P|94:108|153:117,1,119.999996337891,8|0,0:0|0:0,0:0:0:0:
298,178,47611,5,0,0:0:0:0:
397,348,47764,1,0,0:0:0:0:
397,177,47918,1,8,0:0:0:0:
298,348,48072,1,0,0:0:0:0:
447,264,48226,1,0,0:0:0:0:
248,264,48379,1,0,0:0:0:0:
397,177,48533,2,0,L|528:156,1,119.999996337891,8|0,0:0|0:0,0:0:0:0:
248,264,48840,21,0,0:0:0:0:
248,264,48917,1,0,0:0:0:0:
248,264,48994,1,0,0:0:0:0:
129,284,49148,1,8,0:0:0:0:
129,284,49225,1,0,0:0:0:0:
129,284,49302,1,0,0:0:0:0:
25,224,49455,2,0,P|3:160|33:49,1,179.999994506836
69,37,49763,2,0,L|197:35,1,119.999996337891,8|0,0:0|0:0,0:0:0:0:
322,28,50070,1,0,0:0:0:0:
322,28,50147,1,0,0:0:0:0:
453,151,50301,1,0,0:0:0:0:
453,151,50378,2,0,L|443:279,1,119.999996337891,8|0,0:0|0:0,0:0:0:0:
255,342,50685,21,0,0:0:0:0:
88,272,50839,1,0,0:0:0:0:
191,125,50992,1,8,0:0:0:0:
357,193,51146,1,0,0:0:0:0:
88,272,51300,22,0,L|66:203,1,55.0000016784668,4|0,0:0|0:0,0:0:0:0:
188,303,51607,22,0,P|248:313|311:295,1,119.999996337891
387,210,51915,1,0,0:0:0:0:
462,117,52068,1,0,0:0:0:0:
372,36,52222,1,8,0:0:0:0:
372,36,52376,1,0,0:0:0:0:
372,36,52530,1,0,0:0:0:0:
220,121,52683,5,0,0:0:0:0:
138,209,52837,1,8,0:0:0:0:
26,162,52991,1,0,0:0:0:0:
110,78,53144,1,0,0:0:0:0:
220,122,53298,1,0,0:0:0:0:
220,122,53452,1,8,0:0:0:0:
220,122,53605,1,0,0:0:0:0:
348,264,53759,6,0,L|371:389,1,119.999996337891
491,174,54067,2,0,L|468:49,2,119.999996337891,8|0|0,0:0|0:0|0:0,0:0:0:0:
491,174,54528,1,0,0:0:0:0:
491,174,54681,1,8,0:0:0:0:
491,174,54835,1,0,0:0:0:0:
235,191,54989,22,0,P|169:183|54:308,1,239.999992675781,6|8,0:0|0:0,0:0:0:0:
263,303,55450,2,0,L|197:54,1,239.999992675781,6|0,0:0|0:0,0:0:0:0:
201,71,55834,1,0,0:0:0:0:
201,71,55911,1,10,0:0:0:0:
81,55,56065,1,2,0:0:0:0:
312,33,56219,54,0,L|372:26,1,50,4|0,0:0|0:0,0:0:0:0:
283,121,56526,38,0,P|244:169|192:196,1,119.999996337891,8|0,0:0|0:0,0:0:0:0:
73,192,56833,1,0,0:0:0:0:
2,94,56987,1,0,0:0:0:0:
41,300,57141,1,8,0:0:0:0:
41,300,57295,1,0,0:0:0:0:
41,300,57448,1,0,0:0:0:0:
205,283,57602,5,0,0:0:0:0:
323,305,57756,2,0,B|382:313|382:313|440:296,1,119.999996337891,8|0,0:0|0:0,0:0:0:0:
512,128,58063,2,0,B|453:120|453:120|395:137,1,119.999996337891
310,236,58371,2,0,L|330:361,1,119.999996337891,8|0,0:0|0:0,0:0:0:0:
226,214,58678,22,0,P|260:165|396:229,2,239.999992675781,0|8|0,0:0|0:0|0:0,0:0:0:0:
126,283,59447,1,0,0:0:0:0:
29,213,59600,2,0,P|23:150|29:89,1,119.999996337891,8|0,0:0|0:0,0:0:0:0:
129,28,59908,5,0,0:0:0:0:
129,28,59985,1,0,0:0:0:0:
129,28,60061,1,0,0:0:0:0:
217,109,60215,1,8,0:0:0:0:
217,109,60292,1,0,0:0:0:0:
217,109,60369,1,0,0:0:0:0:
335,91,60523,2,0,P|387:58|421:5,1,119.999996337891
246,226,60830,2,0,P|194:259|160:312,1,119.999996337891,0|0,0:0|0:0,0:0:0:0:
290,313,61137,6,0,P|254:233|157:181,2,200,4|8|0,0:0|0:0|0:0,0:0:0:0:
379,357,61906,1,0,0:0:0:0:
420,265,62060,2,0,P|432:213|481:175,1,100,8|0,0:0|0:0,0:0:0:0:
323,30,62521,1,0,0:0:0:0:
228,56,62675,2,0,P|192:88|140:96,1,100,8|0,0:0|0:0,0:0:0:0:
40,191,62982,2,0,P|27:247|53:298,1,100
160,356,63289,2,0,P|213:345|266:369,1,100,8|0,0:0|0:0,0:0:0:0:
437,329,63597,6,0,B|453:270|453:270|432:205|432:205|447:133,1,200,0|8,0:0|0:0,0:0:0:0:
401,46,64058,1,0,0:0:0:0:
305,75,64212,2,0,P|249:83|189:72,1,100
4,35,64519,2,0,P|60:27|120:38,1,100,8|0,0:0|0:0,0:0:0:0:
102,32,64750,1,0,0:0:0:0:
102,32,64826,1,4,0:0:0:0:
120,131,64980,21,0,0:0:0:0:
166,219,65134,1,8,0:0:0:0:
259,254,65288,1,0,0:0:0:0:
353,223,65441,2,0,L|363:113,1,100
166,218,65749,2,0,L|176:328,1,100,8|0,0:0|0:0,0:0:0:0:
69,231,66056,6,0,B|161:198|182:225|265:197,1,200,0|8,0:0|0:0,0:0:0:0:
336,128,66517,1,0,0:0:0:0:
288,40,66671,2,0,P|232:32|184:48,2,100,0|0|8,0:0|0:0|0:0,0:0:0:0:
336,128,67132,1,0,0:0:0:0:
360,328,67440,1,0,0:0:0:0:
260,340,67593,2,0,P|208:344|160:328,1,100,8|0,0:0|0:0,0:0:0:0:
96,256,67901,1,0,0:0:0:0:
59,165,68054,1,0,0:0:0:0:
108,72,68208,2,0,P|61:59|13:71,1,100,8|0,0:0|0:0,0:0:0:0:
156,192,68516,5,0,0:0:0:0:
306,104,68669,1,0,0:0:0:0:
306,278,68823,1,8,0:0:0:0:
199,108,68977,1,0,0:0:0:0:
356,192,69130,1,0,0:0:0:0:
206,278,69284,1,0,0:0:0:0:
306,104,69438,2,0,L|404:84,1,100,8|0,0:0|0:0,0:0:0:0:
199,108,69745,5,0,0:0:0:0:
199,108,69822,1,0,0:0:0:0:
199,108,69899,1,0,0:0:0:0:
108,120,70053,2,0,L|93:172,2,50
264,40,70360,21,0,0:0:0:0:
364,32,70514,1,0,0:0:0:0:
491,168,70668,1,0,0:0:0:0:
392,132,70822,1,0,0:0:0:0:
244,268,70975,6,0,P|192:264|72:352,1,200,4|8,0:0|0:0,0:0:0:0:
292,344,71436,2,0,P|344:348|464:260,1,200
480,168,71897,2,0,P|476:112|456:56,1,100,8|0,0:0|0:0,0:0:0:0:
268,20,72205,6,0,P|216:8|108:96,1,200,4|8,0:0|0:0,0:0:0:0:
20,151,72666,2,0,P|71:191|195:155,1,200
280,110,73127,1,8,0:0:0:0:
380,115,73281,1,0,0:0:0:0:
359,335,73434,6,0,B|254:317|259:361|162:336,1,200,4|8,0:0|0:0,0:0:0:0:
85,270,73895,1,0,0:0:0:0:
123,177,74049,2,0,P|190:141|294:211,1,200,0|8,0:0|0:0,0:0:0:0:
199,247,74510,1,0,0:0:0:0:
86,74,74664,22,0,L|-14:60,1,100,4|0,0:0|0:0,0:0:0:0:
200,35,74971,2,0,L|300:21,2,100,8|0|0,0:0|0:0|0:0,0:0:0:0:
168,130,75433,1,0,0:0:0:0:
232,205,75586,1,8,0:0:0:0:
330,188,75740,1,0,0:0:0:0:
330,188,75817,1,0,0:0:0:0:
330,188,75894,6,0,P|381:171|507:275,1,200,4|8,0:0|0:0,0:0:0:0:
332,280,76355,2,0,B|296:177|373:177|332:86,1,200
258,22,76816,2,0,P|300:-3|371:5,1,100,8|0,0:0|0:0,0:0:0:0:
197,138,77123,6,0,B|145:153|145:153|141:133|141:133|115:144|5:134,2,200,4|8|0,0:0|0:0|0:0,0:0:0:0:
275,201,77892,1,0,0:0:0:0:
333,119,78046,2,0,L|349:0,1,100,8|0,0:0|0:0,0:0:0:0:
497,210,78353,6,0,L|481:329,1,100,4|0,0:0|0:0,0:0:0:0:
387,339,78661,1,12,0:0:0:0:
387,339,78737,1,0,0:0:0:0:
387,339,78814,1,0,0:0:0:0:
268,319,78968,1,4,0:0:0:0:
268,319,79045,1,0,0:0:0:0:
268,319,79122,1,0,0:0:0:0:
149,336,79275,1,12,0:0:0:0:
149,336,79352,1,0,0:0:0:0:
149,336,79429,1,0,0:0:0:0:
68,123,79583,22,0,L|60:73,2,50,4|0|0,0:0|0:0|0:0,0:0:0:0:
214,180,79890,2,0,L|206:230,2,50,12|0|0,0:0|0:0|0:0,0:0:0:0:
372,58,80198,6,0,L|485:49,1,100
344,154,80505,1,0,0:0:0:0:
257,103,80659,1,0,0:0:0:0:
423,218,80813,38,0,L|425:291,1,50,4|0,0:0|0:0,0:0:0:0:
252,356,81120,38,0,P|201:365|139:331,1,100,8|0,0:0|0:0,0:0:0:0:
212,220,81427,2,0,P|161:208|117:152,1,100
225,90,81735,2,0,P|189:52|184:-18,1,100,8|0,0:0|0:0,0:0:0:0:
344,154,82042,5,0,0:0:0:0:
435,114,82196,1,0,0:0:0:0:
344,247,82350,1,8,0:0:0:0:
245,235,82503,1,0,0:0:0:0:
397,318,82657,1,0,0:0:0:0:
496,306,82810,1,0,0:0:0:0:
230,341,82965,2,0,L|115:331,1,100,8|0,0:0|0:0,0:0:0:0:
344,247,83272,6,0,L|416:236,1,59.9999981689454,4|0,0:0|0:0,0:0:0:0:
284,156,83579,5,8,0:0:0:0:
217,111,83733,1,0,0:0:0:0:
147,106,83887,1,0,0:0:0:0:
87,113,84040,1,0,0:0:0:0:
38,101,84194,1,8,0:0:0:0:
13,68,84348,1,0,0:0:0:0:
246,241,84502,6,0,P|340:228|374:139,1,200,6|8,0:0|0:0,0:0:0:0:
143,225,84963,2,0,P|48:237|14:326,1,200,2|0,0:0|0:0,0:0:0:0:
263,347,85424,2,0,P|311:350|366:332,1,100,10|0,0:0|0:0,0:0:0:0:
494,184,85731,38,0,L|505:268,1,69.9999978637696,4|0,0:0|0:0,0:0:0:0:
408,149,86039,38,0,P|386:102|380:29,1,100,8|0,0:0|0:0,0:0:0:0:
350,211,86346,2,0,P|342:260|320:305,1,100
220,318,86654,1,8,0:0:0:0:
220,318,86807,1,0,0:0:0:0:
93,292,86961,5,0,0:0:0:0:
52,200,87115,1,0,0:0:0:0:
180,49,87268,1,8,0:0:0:0:
153,145,87422,1,0,0:0:0:0:
276,28,87576,2,0,P|328:24|384:44,1,100
512,148,87883,2,0,P|464:162|414:157,1,100,8|0,0:0|0:0,0:0:0:0:
500,48,88191,22,0,L|521:271,1,200,0|8,0:0|0:0,0:0:0:0:
452,328,88652,1,0,0:0:0:0:
452,328,88729,1,0,0:0:0:0:
452,328,88806,1,0,0:0:0:0:
356,360,88959,1,0,0:0:0:0:
264,320,89113,2,0,L|160:308,1,100,8|0,0:0|0:0,0:0:0:0:
356,248,89420,5,0,0:0:0:0:
356,248,89497,1,0,0:0:0:0:
356,248,89574,1,0,0:0:0:0:
372,148,89728,2,0,L|364:80,2,50,8|0|0,0:0|0:0|0:0,0:0:0:0:
256,28,90035,6,0,L|124:24,1,100
140,212,90343,2,0,L|8:208,1,100,0|0,0:0|0:0,0:0:0:0:
184,356,90650,1,6,0:0:0:0:
92,84,99873,6,0,P|136:72|256:120,1,150.000005722046,0|0,0:0|0:0,0:0:0:0:
268,168,100334,1,0,0:0:0:0:
340,152,100488,2,0,P|384:144|416:128,2,75.0000028610231,2|0|0,0:0|0:0|0:0,0:0:0:0:
268,168,100949,1,0,0:0:0:0:
232,232,101103,2,0,L|244:328,1,75.0000028610231
112,368,101410,2,0,L|124:272,1,75.0000028610231
121,293,101717,1,2,0:0:0:0:
340,88,102332,22,0,P|396:40|484:36,1,150.000005722046
388,160,102793,1,0,0:0:0:0:
312,172,102947,2,0,P|268:176|232:168,1,75.0000028610231,2|0,0:0|0:0,0:0:0:0:
60,220,103255,2,0,P|104:224|140:216,1,75.0000028610231
152,144,103562,2,0,L|160:64,1,75.0000028610231
104,20,103869,1,0,0:0:0:0:
223,27,104023,1,0,0:0:0:0:
223,27,104177,1,2,0:0:0:0:
356,292,104792,6,0,P|312:316|212:324,1,150.000005722046
164,268,105253,1,0,0:0:0:0:
88,268,105406,2,0,P|56:300|48:344,1,75.0000028610231,2|0,0:0|0:0,0:0:0:0:
136,184,105714,2,0,P|104:152|96:108,1,75.0000028610231
44,72,106021,2,0,P|83:52|117:53,2,75.0000028610231
21,143,106482,1,0,0:0:0:0:
136,184,106636,1,2,0:0:0:0:
414,90,107097,5,0,0:0:0:0:
442,159,107251,2,0,L|431:259,1,75.0000028610231
360,248,107558,2,0,L|313:158,1,75.0000028610231
303,323,107866,2,0,P|357:344|436:305,2,150.000005722046,2|0|0,0:0|0:0|0:0,0:0:0:0:
230,281,108634,1,0,0:0:0:0:
166,321,108788,2,0,L|62:318,1,75.0000028610231
91,318,109096,1,2,0:0:0:0:
12,108,109557,5,0,0:0:0:0:
28,36,109710,1,0,0:0:0:0:
95,68,109864,1,0,0:0:0:0:
170,66,110018,1,0,0:0:0:0:
240,40,110172,1,0,0:0:0:0:
314,40,110325,22,0,B|376:20|440:88|404:166|404:166|500:158|559:250|524:348|441:386|387:356|356:334|337:310|332:276,1,600.000022888185,6|0,0:0|0:0,0:0:0:0:
416,257,112016,1,0,0:0:0:0:
374,194,112170,1,0,0:0:0:0:
303,167,112324,1,0,0:0:0:0:
229,156,112477,1,8,0:0:0:0:
160,187,112631,1,0,0:0:0:0:
161,188,112708,1,0,0:0:0:0:
161,188,112785,6,0,P|107:170|75:82,1,150.000005722046,4|8,0:0|0:0,0:0:0:0:
165,97,113246,1,0,0:0:0:0:
163,6,113400,2,0,P|220:22|254:111,1,150.000005722046,0|8,0:0|0:0,0:0:0:0:
239,173,113861,1,0,0:0:0:0:
303,210,114014,2,0,P|358:226|438:185,1,150.000005722046,0|8,0:0|0:0,0:0:0:0:
363,55,114629,5,0,0:0:0:0:
212,39,114937,1,8,0:0:0:0:
137,48,115090,1,0,0:0:0:0:
137,48,115167,1,0,0:0:0:0:
137,48,115244,2,0,P|99:68|49:69,1,75.0000028610231,8|0,0:0|0:0,0:0:0:0:
4,210,115551,2,0,P|42:230|92:231,1,75.0000028610231,8|0,0:0|0:0,0:0:0:0:
64,150,115859,2,0,L|12:327,1,150.000005722046,8|8,0:0|0:0,0:0:0:0:
72,349,116320,1,0,0:0:0:0:
72,349,116474,5,8,0:0:0:0:
220,365,116781,1,8,0:0:0:0:
319,251,117089,2,0,L|333:168,1,75.0000028610231,8|0,0:0|0:0,0:0:0:0:
359,107,117396,1,8,0:0:0:0:
420,64,117550,1,8,0:0:0:0:
256,192,117703,12,2,118933,0:0:0:0:
60,49,119394,21,0,0:0:0:0:
60,49,119548,2,0,P|45:91|45:142,1,85.0000016212464,4|0,0:0|0:0,0:0:0:0:
150,266,119855,2,0,P|165:224|165:173,1,85.0000016212464,4|0,0:0|0:0,0:0:0:0:
69,285,120163,6,0,P|106:337|224:304,2,200,4|8|0,0:0|0:0|0:0,0:0:0:0:
245,189,121085,1,8,0:0:0:0:
342,212,121239,1,0,0:0:0:0:
437,183,121393,2,0,P|472:142|375:18,1,200,0|8,0:0|0:0,0:0:0:0:
223,52,122007,22,0,L|117:60,1,100
298,115,122315,2,0,L|397:122,1,100,8|0,0:0|0:0,0:0:0:0:
157,176,122622,22,0,P|129:221|-18:203,1,200,0|8,0:0|0:0,0:0:0:0:
338,268,123237,2,0,P|366:313|513:295,1,200,0|8,0:0|0:0,0:0:0:0:
502,211,123698,1,0,0:0:0:0:
479,113,123852,6,0,B|439:73|369:56|320:102|305:137|305:137|262:88|214:96,1,300
225,191,124467,2,0,L|204:302,1,100
380,279,124774,2,0,L|401:168,1,100,8|0,0:0|0:0,0:0:0:0:
455,337,125082,6,0,P|375:278|275:303,1,200,0|8,0:0|0:0,0:0:0:0:
56,154,125696,2,0,P|136:213|236:188,1,200,0|8,0:0|0:0,0:0:0:0:
293,116,126158,1,0,0:0:0:0:
360,42,126311,6,0,P|408:20|466:187,1,300
410,269,126926,2,0,P|403:324|411:369,1,100
294,215,127234,2,0,P|301:160|293:115,1,100,8|0,0:0|0:0,0:0:0:0:
214,265,127541,22,0,P|254:229|392:244,2,200,0|8|0,0:0|0:0|0:0,0:0:0:0:
177,359,128310,1,0,0:0:0:0:
80,332,128463,2,0,P|35:304|16:260,1,100,8|0,0:0|0:0,0:0:0:0:
247,107,128771,2,0,L|100:250,1,200,0|8,0:0|0:0,0:0:0:0:
303,27,129386,1,0,0:0:0:0:
397,58,129539,1,0,0:0:0:0:
413,156,129693,2,0,L|405:259,1,100,8|0,0:0|0:0,0:0:0:0:
247,354,130000,6,0,P|190:357|143:337,1,100,2|0,0:0|0:0,0:0:0:0:
0,195,130308,2,0,P|57:192|104:212,1,100,10|0,0:0|0:0,0:0:0:0:
298,153,130615,2,0,P|241:156|194:136,1,100,2|0,0:0|0:0,0:0:0:0:
31,31,130923,2,0,P|88:28|135:48,1,100,10|0,0:0|0:0,0:0:0:0:
172,220,131230,5,2,0:0:0:0:
237,295,131384,1,0,0:0:0:0:
336,288,131538,1,10,0:0:0:0:
430,320,131691,1,0,0:0:0:0:
497,246,131845,2,0,P|507:196|503:141,1,100,2|0,0:0|0:0,0:0:0:0:
504,147,132152,1,8,0:0:0:0:
193,41,132460,6,0,P|147:65|100:69,1,100,6|0,0:0|0:0,0:0:0:0:
0,210,132767,2,0,P|43:233|93:237,1,100,10|0,0:0|0:0,0:0:0:0:
268,238,133075,2,0,L|294:347,1,100,2|0,0:0|0:0,0:0:0:0:
440,267,133382,2,0,L|466:376,1,100,10|0,0:0|0:0,0:0:0:0:
463,364,133613,1,0,0:0:0:0:
463,364,133690,21,2,0:0:0:0:
145,280,133920,1,2,0:0:0:0:
365,28,134151,1,2,0:0:0:0:
265,45,134304,2,0,L|432:17,2,150
126,288,134919,6,0,P|177:310|227:307,1,100,2|0,0:0|0:0,0:0:0:0:
309,261,135227,1,8,0:0:0:0:
415,92,135534,2,0,P|364:70|314:73,1,100,2|0,0:0|0:0,0:0:0:0:
232,119,135842,1,8,0:0:0:0:
182,205,135995,1,0,0:0:0:0:
409,308,136149,6,0,L|422:208,1,100,14|0,0:0|0:0,0:0:0:0:
290,68,136456,2,0,L|303:168,1,100,10|0,0:0|0:0,0:0:0:0:
169,305,136764,2,0,L|182:205,1,100,10|0,0:0|0:0,0:0:0:0:
129,120,137071,1,10,0:0:0:0:
30,102,137225,1,2,0:0:0:0:
199,37,137379,6,2,L|253:45,1,50,10|0,0:0|0:0,0:0:0:0:
245,117,137532,2,0,L|299:125,1,50,2|0,0:0|0:0,0:0:0:0:
279,196,137686,2,0,L|333:204,1,50,10|0,0:0|0:0,0:0:0:0:
317,274,137840,2,0,L|371:282,1,50,2|0,0:0|0:0,0:0:0:0:
282,337,137993,2,0,L|232:329,1,50,10|0,0:0|0:0,0:0:0:0:
229,256,138147,2,0,L|179:248,1,50,2|0,0:0|0:0,0:0:0:0:
198,176,138301,2,0,L|148:168,1,50,2|0,0:0|0:0,0:0:0:0:
166,95,138455,2,0,L|116:87,1,50,2|0,0:0|0:0,0:0:0:0:
55,94,138608,21,8,0:0:0:0:
18,128,138685,1,0,0:0:0:0:
3,177,138762,1,0,0:0:0:0:
11,225,138839,1,0,0:0:0:0:
33,269,138916,1,8,0:0:0:0:
75,295,138993,1,0,0:0:0:0:
124,299,139069,1,0,0:0:0:0:
170,280,139146,1,0,0:0:0:0:
202,248,139223,5,8,0:0:0:0:
239,71,139377,1,0,0:0:0:0:
413,115,139531,1,0,0:0:0:0:
398,293,139684,1,0,0:0:0:0:
239,71,139838,38,0,L|183:62,1,50,4|0,0:0|0:0,0:0:0:0:
264,162,140145,2,0,L|320:171,2,50,12|0|0,0:0|0:0|0:0,0:0:0:0:
168,186,140607,1,0,0:0:0:0:
73,189,140760,1,8,0:0:0:0:
70,289,140914,1,0,0:0:0:0:
70,289,140991,1,0,0:0:0:0:
70,289,141068,38,0,P|129:301|188:285,1,119.999996337891
474,220,141375,2,0,P|416:234|358:222,1,119.999996337891,8|0,0:0|0:0,0:0:0:0:
276,133,141683,1,0,0:0:0:0:
267,13,141836,1,0,0:0:0:0:
168,186,141990,1,8,0:0:0:0:
182,305,142144,1,0,0:0:0:0:
344,191,142297,22,0,L|401:181,1,50,4|0,0:0|0:0,0:0:0:0:
466,112,142605,1,8,0:0:0:0:
441,14,142759,1,0,0:0:0:0:
441,14,142912,2,0,L|375:24,2,50,0|0|8,0:0|0:0|0:0,0:0:0:0:
318,79,143373,1,0,0:0:0:0:
318,79,143450,1,0,0:0:0:0:
318,79,143527,54,0,L|189:68,1,119.999996337891,2|0,0:0|0:0,0:0:0:0:
327,171,143835,2,0,P|385:143|409:84,2,119.999996337891,10|0|2,0:0|0:0|0:0,0:0:0:0:
210,199,144296,1,2,0:0:0:0:
123,281,144449,2,0,L|1:289,1,119.999996337891,10|0,0:0|0:0,0:0:0:0:
240,302,144757,6,0,L|305:312,1,50,4|0,0:0|0:0,0:0:0:0:
388,294,145064,1,12,0:0:0:0:
457,222,145218,1,0,0:0:0:0:
485,125,145372,2,0,P|480:95|464:73,2,50,0|0|8,0:0|0:0|0:0,0:0:0:0:
389,154,145833,1,0,0:0:0:0:
389,154,145910,1,0,0:0:0:0:
389,154,145986,5,4,0:0:0:0:
151,115,146140,1,0,0:0:0:0:
99,349,146294,1,8,0:0:0:0:
314,242,146448,1,0,0:0:0:0:
75,233,146601,2,0,P|25:197|4:142,1,119.999996337891
29,25,146909,1,8,0:0:0:0:
29,25,147062,1,0,0:0:0:0:
226,56,147216,5,0,0:0:0:0:
226,56,147293,1,0,0:0:0:0:
226,56,147370,1,0,0:0:0:0:
345,44,147524,1,8,0:0:0:0:
345,44,147600,1,0,0:0:0:0:
345,44,147677,1,0,0:0:0:0:
456,88,147831,2,0,P|477:149|478:271,1,179.999994506836
457,299,148138,2,0,P|421:342|347:352,1,119.999996337891,8|0,0:0|0:0,0:0:0:0:
87,350,148446,5,0,0:0:0:0:
87,350,148523,1,0,0:0:0:0:
178,170,148676,1,0,0:0:0:0:
178,170,148753,1,8,0:0:0:0:
28,46,148907,1,0,0:0:0:0:
3,223,149061,2,0,L|80:131,1,119.999996337891
405,43,149368,2,0,L|327:134,1,119.999996337891,8|0,0:0|0:0,0:0:0:0:
257,310,149676,22,0,L|291:271,1,50,4|0,0:0|0:0,0:0:0:0:
375,354,149983,6,0,P|438:363|498:319,1,119.999996337891
324,154,150290,2,0,P|261:145|204:190,1,119.999996337891
141,269,150598,1,8,0:0:0:0:
141,269,150752,1,0,0:0:0:0:
141,269,150905,1,0,0:0:0:0:
255,69,151059,5,0,0:0:0:0:
374,53,151213,1,8,0:0:0:0:
456,139,151366,1,0,0:0:0:0:
426,255,151520,2,0,L|423:376,2,119.999996337891,0|0|8,0:0|0:0|0:0,0:0:0:0:
426,255,151981,1,0,0:0:0:0:
170,233,152135,6,0,B|114:211|114:211|75:150,1,119.999996337891
127,49,152442,1,8,0:0:0:0:
127,49,152596,1,0,0:0:0:0:
193,149,152750,1,0,0:0:0:0:
193,149,152904,1,0,0:0:0:0:
193,149,153057,1,8,0:0:0:0:
299,89,153211,1,0,0:0:0:0:
299,89,153288,1,0,0:0:0:0:
299,89,153365,6,0,L|313:223,2,119.999996337891,2|0|0,0:0|0:0|0:0,0:0:0:0:
397,20,153826,1,2,0:0:0:0:
472,120,153980,1,0,0:0:0:0:
488,241,154133,1,2,0:0:0:0:
488,241,154210,1,0,0:0:0:0:
488,241,154287,1,10,0:0:0:0:
411,333,154441,1,0,0:0:0:0:
220,335,154594,6,0,L|154:329,1,50,4|0,0:0|0:0,0:0:0:0:
81,247,154902,6,0,L|58:116,1,119.999996337891,8|0,0:0|0:0,0:0:0:0:
367,189,155209,2,0,L|344:58,1,119.999996337891
232,29,155517,1,8,0:0:0:0:
120,70,155670,1,0,0:0:0:0:
346,71,155824,6,0,L|477:86,1,119.999996337891
276,189,156131,1,8,0:0:0:0:
161,153,156285,1,0,0:0:0:0:
56,213,156439,1,0,0:0:0:0:
358,233,156593,1,0,0:0:0:0:
358,233,156746,2,0,P|366:171|336:116,1,119.999996337891,8|0,0:0|0:0,0:0:0:0:
276,278,157054,6,0,P|360:231|478:281,2,200,0|8|0,0:0|0:0|0:0,0:0:0:0:
77,306,157976,2,0,P|17:140|196:36,1,400,8|8,0:0|0:0,0:0:0:0:
369,96,158898,6,0,L|366:200,1,100
486,99,159206,2,0,L|483:-5,1,100,8|0,0:0|0:0,0:0:0:0:
248,112,159513,21,6,0:0:0:0:
107,57,159821,1,0,0:0:0:0:
35,188,160128,2,0,P|23:244|46:345,1,150.000005722046,0|0,0:0|0:0,0:0:0:0:
112,356,160589,1,0,0:0:0:0:
186,344,160743,22,0,P|194:242|317:224,1,225.000008583069,0|0,0:0|0:0,0:0:0:0:
266,300,161358,2,0,P|317:323|360:311,1,75.0000028610231
409,315,161665,2,0,L|429:222,1,75.0000028610231
363,191,161973,2,0,P|407:163|498:215,2,150.000005722046,2|0|0,0:0|0:0|0:0,0:0:0:0:
222,245,162895,5,0,0:0:0:0:
155,210,163049,1,0,0:0:0:0:
82,231,163202,2,0,P|111:147|224:179,1,225.000008583069,2|0,0:0|0:0,0:0:0:0:
290,205,163817,1,0,0:0:0:0:
364,215,163971,1,0,0:0:0:0:
413,158,164125,2,0,P|422:118|418:77,1,75.0000028610231
342,66,164432,22,0,P|384:13|482:34,2,150.000005722046,2|0|0,0:0|0:0|0:0,0:0:0:0:
196,104,165354,2,0,P|151:81|14:235,1,300.000011444092
42,299,166123,1,0,0:0:0:0:
114,318,166276,2,0,P|164:319|204:303,1,75.0000028610231
247,265,166584,2,0,P|283:255|320:258,1,75.0000028610231
328,332,166891,6,0,L|308:153,2,150.000005722046,2|0|0,0:0|0:0|0:0,0:0:0:0:
476,327,167814,1,0,0:0:0:0:
488,253,167967,1,0,0:0:0:0:
443,194,168121,2,0,P|411:144|507:38,1,225.000008583069,2|0,0:0|0:0,0:0:0:0:
495,125,168736,2,0,L|344:88,2,150.000005722046,0|0|2,0:0|0:0|0:0,0:0:0:0:
256,193,171810,5,2,0:0:0:0:
448,335,173040,5,2,0:0:0:0:
448,94,174270,21,2,0:0:0:0:
27,192,176729,5,2,0:0:0:0:
207,34,177959,5,2,0:0:0:0:
263,267,179188,5,2,0:0:0:0:
