osu file format v12

[General]
AudioFilename: Nightstep Come Get It (Krewella).mp3
AudioLeadIn: 0
PreviewTime: 41462
Countdown: 0
SampleSet: Soft
StackLeniency: 0.7
Mode: 0
LetterboxInBreaks: 0
WidescreenStoryboard: 1

[Editor]
Bookmarks: 110325,110786,111248,111709,112170,112477,112631,112708,112785,113246,113707,114168,114629,114937,115013,115090,115167,115244,120778,122007,123237,124467,125696,126926,128156,129386,130000,132152,134304,135227,135841,136456,137071,139838
DistanceSpacing: 1.1
BeatDivisor: 4
GridSize: 4

[Metadata]
Title:Come & Get It (Nightcore Mix)
TitleUnicode:Come & Get It (Nightcore Mix)
Artist:Krewella
ArtistUnicode:Krewella
Creator:Asphyxia
Version:Collab Normal
Source:
Tags:rezoons Gero collab collaboration electronic and Kyshiro Ami
BeatmapID:360479
BeatmapSetID:125553

[Difficulty]
HPDrainRate:4
CircleSize:3
OverallDifficulty:4
ApproachRate:5
SliderMultiplier:1.1
SliderTickRate:1

[Events]
//Background and Video events
0,0,"sunset-anime-girl-1366x768.jpg",0,0
//Break Periods
2,93110,109125
//Storyboard Layer 0 (Background)
//Storyboard Layer 1 (Fail)
//Storyboard Layer 2 (Pass)
//Storyboard Layer 3 (Foreground)
Sprite,Foreground,Centre,"SB\Gero.png",320,240 M,0,10720,,84,405 S,0,10720,,0.7226669 F,0,10720,11949,0,1 F,0,11949,40847,1,0.9275834 F,0,40847,41462,0.9275834,0
Sprite,Foreground,Centre,"SB\Asphyxia.png",320,240 M,0,41462,,87,405 S,0,41462,,0.6906667 F,0,41462,41770,0,1 F,0,41770,60523,1,0.9805195 F,0,60523,61137,0.9805195,0
Sprite,Foreground,Centre,"SB\Kyshiro.png",320,240 M,0,61137,,87,405 S,0,61137,,0.7333331 F,0,61137,61445,0,1 F,0,61445,90650,1,0.9577922 F,0,90650,91880,0.9577922,0
Sprite,Foreground,Centre,"SB\Gero.png",320,240 M,0,109096,,84,405 S,0,109096,,0.7226669 F,0,109096,110325,0,1 F,0,110325,139223,1,0.9275834 F,0,139223,139838,0.9275834,0
Sprite,Foreground,Centre,"SB\Asphyxia.png",320,240 M,0,139838,,87,405 S,0,139838,,0.6906667 F,0,139838,140146,0,1 F,0,140146,158899,1,0.9805195 F,0,158898,158899,1,0.9805195 F,0,158899,169351,0.9805195,0.9805222 F,0,169351,,0.9805222 F,0,169351,170580,0.9805222,0
Sprite,Foreground,Centre,"SB\Gero.png",320,240 M,0,170580,,81,404 S,0,170580,,0.6800003 F,0,170580,171810,0,1 F,0,171810,179188,1 F,0,179188,180418,1,0
//Storyboard Sound Samples
//Background Colour Transformations
3,100,163,162,255

[TimingPoints]
11950,307.424296766921,4,1,0,100,1,0
11950,-125,4,2,1,50,0,0
21787,-125,4,2,1,70,0,0
31317,-125,4,2,1,70,0,0
31625,-125,4,1,1,70,0,0
41462,-125,4,1,1,70,0,1
41770,-125,4,1,1,70,0,1
43922,-125,4,1,1,70,0,1
44229,-125,4,1,1,70,0,1
46381,-125,4,1,1,70,0,1
46688,-125,4,1,1,70,0,1
51300,-125,4,1,1,70,0,1
51607,-125,4,1,1,70,0,1
56219,-125,4,1,1,70,0,1
56526,-125,4,1,1,70,0,1
61137,-125,4,1,1,70,0,0
80813,-125,4,1,1,80,0,0
81120,-125,4,1,1,80,0,0
83272,-125,4,1,1,80,0,0
83579,-125,4,1,1,80,0,0
85731,-125,4,1,1,80,0,0
86039,-125,4,1,1,80,0,0
90650,-125,4,2,1,30,0,0
99873,-125,4,2,1,60,0,0
110325,-125,4,2,0,70,0,0
110786,-125,4,2,1,60,0,0
110940,-125,4,2,0,70,0,0
111248,-125,4,2,1,60,0,0
111555,-125,4,2,0,70,0,0
111709,-125,4,2,1,60,0,0
111786,-125,4,2,0,70,0,0
112477,-125,4,2,1,60,0,0
112785,-125,4,2,0,70,0,0
113246,-125,4,2,1,60,0,0
113400,-125,4,2,0,70,0,0
113707,-125,4,2,1,60,0,0
114014,-125,4,2,0,70,0,0
114168,-125,4,2,1,60,0,0
114245,-125,4,2,0,70,0,0
114937,-125,4,2,1,60,0,0
115244,-125,4,2,0,70,0,0
119548,-125,4,2,0,70,0,0
120163,-125,4,1,0,80,0,0
139223,-125,4,1,1,80,0,0
139838,-125,4,1,1,80,0,1
141068,-125,4,1,1,80,0,1
142297,-125,4,1,1,80,0,1
143527,-125,4,1,1,80,0,1
144757,-125,4,1,1,80,0,1
145986,-125,4,1,1,80,0,1
149676,-125,4,1,1,80,0,1
149983,-125,4,1,1,80,0,1
154594,-125,4,1,1,80,0,1
154902,-125,4,1,1,80,0,1
157054,-125,4,1,1,80,0,0
159513,-125,4,2,1,30,0,0
161358,-125,4,2,1,50,0,0

[Colours]
Combo1 : 48,3,107
Combo2 : 255,255,128
Combo3 : 255,128,64
Combo4 : 255,53,53

[HitObjects]
256,120,11949,1,6,0:0:0:0:
332,60,12257,2,0,P|256:22|180:60,2,176,8|8|8,0:0|0:0|0:0,0:0:0:0:
392,136,13794,1,2,0:0:0:0:
447,215,14101,2,0,B|447:299|383:299|383:375,1,176,8|8,0:0|0:0,0:0:0:0:
296,332,15024,2,0,B|256:314|256:314|216:332,1,88,2|8,0:0|0:0,0:0:0:0:
129,375,15639,2,0,B|129:299|65:299|65:215,1,176,2|2,0:0|0:0,0:0:0:0:
120,136,16561,1,8,0:0:0:0:
216,116,16868,6,0,B|256:134|256:134|296:116,1,88,2|8,0:0|0:0,0:0:0:0:
353,37,17483,1,2,0:0:0:0:
256,37,17791,2,0,L|256:218,1,176,8|8,0:0|0:0,0:0:0:0:
256,309,18713,1,2,0:0:0:0:
332,368,19020,2,0,P|376:368|416:345,1,88,8|2,0:0|0:0,0:0:0:0:
480,276,19635,2,0,B|508:192|508:192|480:108,1,176,8|8,0:0|0:0,0:0:0:0:
399,56,20557,6,0,L|361:29,2,44,2|0|8,0:0|0:0|0:0,0:0:0:0:
345,136,21172,2,0,L|294:130,2,44,8|0|8,0:0|0:0|0:0,0:0:0:0:
424,192,21787,5,6,0:0:0:0:
497,255,22095,2,0,B|497:292|497:292|464:332,1,88,8|2,0:0|0:0,0:0:0:0:
368,321,22709,1,8,0:0:0:0:
278,283,23017,2,0,P|265:324|279:368,2,88,2|8|2,0:0|0:0|0:0,0:0:0:0:
318,194,23939,1,8,0:0:0:0:
397,139,24246,6,0,P|322:174|238:143,1,176,2|2,0:0|0:0,0:0:0:0:
183,63,25169,1,8,0:0:0:0:
89,38,25476,2,0,P|49:60|24:104,2,88,2|8|2,0:0|0:0|0:0,0:0:0:0:
115,131,26398,1,8,0:0:0:0:
170,210,26706,6,0,B|189:248|189:248|189:298,1,88,6|8,0:0|0:0,0:0:0:0:
256,364,27321,1,2,0:0:0:0:
323,293,27628,2,0,B|323:248|323:248|342:210,1,88,8|2,0:0|0:0,0:0:0:0:
432,172,28243,2,0,L|256:172,1,176,8|8,0:0|0:0,0:0:0:0:
256,75,29165,6,0,L|309:75,2,44,2|0|8,0:0|0:0|0:0,0:0:0:0:
159,75,29780,2,0,L|141:33,2,44,2|0|8,0:0|0:0|0:0,0:0:0:0:
90,143,30395,2,0,L|47:113,2,44,10|0|8,0:0|0:0|0:0,0:0:0:0:
121,234,31010,5,2,0:0:0:0:
121,234,31164,2,0,L|65:262,2,44,0|2|0,0:0|0:0|0:0,0:0:0:0:
165,252,31625,6,0,P|190:316|166:377,2,132,12|8|8,0:0|0:0|0:0,0:0:0:0:
220,168,32854,2,0,B|256:193|256:193|292:168,1,88,2|8,0:2|0:0,0:0:0:0:
292,72,33469,6,0,B|256:47|256:47|220:72,1,88,2|8,0:2|0:0,0:0:0:0:
220,168,34084,2,0,P|160:148|124:88,2,132,8|8|8,0:0|0:0|0:0,0:0:0:0:
308,204,35314,2,0,L|400:204,1,88,2|8,0:2|0:0,0:0:0:0:
444,288,35929,6,0,L|496:288,2,44,2|2|8,0:2|0:2|0:0,0:0:0:0:
408,320,36390,1,0,0:0:0:0:
368,348,36543,2,0,B|316:348|316:348|288:340|288:340|232:340,2,132,8|8|8,0:0|0:0|0:0,0:0:0:0:
444,288,37773,1,2,0:2:0:0:
480,196,38081,1,8,0:0:0:0:
412,128,38388,6,0,P|448:104|496:104,2,88,2|8|2,0:2|0:0|0:2,0:0:0:0:
480,196,39310,2,0,L|308:136,1,176,8|8,0:0|0:0,0:0:0:0:
221,108,40233,1,2,0:2:0:0:
128,79,40540,1,8,0:0:0:0:
59,149,40847,6,0,L|66:200,1,44,2|0,0:2|0:0,0:0:0:0:
99,227,41155,2,0,L|93:270,1,44,2|0,0:2|0:0,0:0:0:0:
80,317,41462,5,4,0:0:0:0:
172,344,41770,2,0,L|272:347,1,88,8|0,0:0|0:0,0:0:0:0:
335,285,42385,1,8,0:0:0:0:
387,203,42692,2,0,P|401:142|376:52,2,132,0|0|8,0:0|0:0|0:0,0:0:0:0:
291,218,43922,5,4,0:0:0:0:
194,207,44229,2,0,L|90:180,1,88,8|0,0:0|0:0,0:0:0:0:
45,111,44844,1,8,0:0:0:0:
6,22,45151,2,0,P|65:16|124:53,2,132,2|2|10,0:0|0:0|0:0,0:0:0:0:
45,111,46381,5,4,0:0:0:0:
110,181,46688,2,0,L|168:173,1,44,8|0,0:0|0:0,0:0:0:0:
201,184,46996,2,0,L|259:176,1,44,0|0,0:0|0:0,0:0:0:0:
292,187,47303,2,0,L|358:175,1,44,8|0,0:0|0:0,0:0:0:0:
380,160,47611,2,0,P|399:114|390:24,2,132,0|0|8,0:0|0:0|0:0,0:0:0:0:
289,193,48840,6,0,L|294:241,2,44,0|0|8,0:0|0:0|0:0,0:0:0:0:
199,155,49455,2,0,L|194:107,2,44,0|0|8,0:0|0:0|0:0,0:0:0:0:
146,236,50070,2,0,L|46:250,1,88,0|8,0:0|0:0,0:0:0:0:
27,340,50685,2,0,L|80:346,1,44
119,341,50992,2,0,L|195:333,1,44,8|0,0:0|0:0,0:0:0:0:
210,325,51300,5,4,0:0:0:0:
302,298,51607,2,0,P|352:295|416:328,2,88,8|0|8,0:0|0:0|0:0,0:0:0:0:
220,244,52530,2,0,P|194:203|198:96,2,132,0|0|8,0:0|0:0|0:0,0:0:0:0:
293,306,53759,2,0,P|377:323|441:268,1,176
351,226,54681,1,8,0:0:0:0:
308,138,54989,2,0,P|376:132|441:191,2,132,2|2|10,0:0|0:0|0:0,0:0:0:0:
231,197,56219,5,4,0:0:0:0:
152,253,56526,2,0,P|103:266|57:260,1,88,8|0,0:0|0:0,0:0:0:0:
30,229,56987,1,0,0:0:0:0:
11,182,57141,1,8,0:0:0:0:
21,85,57448,2,0,P|55:55|151:56,2,132,0|0|8,0:0|0:0|0:0,0:0:0:0:
102,140,58678,6,0,L|89:245,1,88,4|8,0:0|0:0,0:0:0:0:
113,321,59293,1,0,0:0:0:0:
209,340,59600,1,8,0:0:0:0:
279,272,59908,2,0,L|291:214,2,44,0|0|8,0:0|0:0|0:0,0:0:0:0:
352,335,60523,2,0,P|396:337|417:326,1,44
441,322,60830,2,0,P|471:290|477:267,1,44,8|0,0:0|0:0,0:0:0:0:
476,242,61137,6,0,B|465:191|465:191|466:154,1,88,4|8,0:0|0:0,0:0:0:0:
395,88,61752,2,0,P|329:62|266:85,2,132,0|0|8,0:0|0:0|0:0,0:0:0:0:
329,159,62982,1,0,0:0:0:0:
232,169,63289,1,8,0:0:0:0:
166,97,63597,6,0,P|150:62|156:9,1,88,0|8,0:0|0:0,0:0:0:0:
245,46,64212,1,0,0:0:0:0:
254,142,64519,2,0,L|238:190,1,44,8|0,0:0|0:0,0:0:0:0:
218,227,64826,2,0,P|166:263|86:241,2,132,0|0|8,0:0|0:0|0:0,0:0:0:0:
303,272,66056,5,0,0:0:0:0:
370,202,66364,2,0,B|393:114|393:114|427:84,1,132,8|0,0:0|0:0,0:0:0:0:
465,62,66978,1,8,0:0:0:0:
383,8,67286,2,0,P|344:27|288:25,1,88,0|8,0:0|0:0,0:0:0:0:
224,88,67901,2,0,P|184:68|141:67,1,88,0|8,0:0|0:0,0:0:0:0:
67,131,68516,6,0,L|51:177,1,44,0|0,0:0|0:0,0:0:0:0:
78,213,68823,2,0,L|62:259,1,44,8|0,0:0|0:0,0:0:0:0:
88,296,69130,2,0,L|134:312,1,44
175,294,69438,2,0,L|221:310,1,44,8|0,0:0|0:0,0:0:0:0:
260,287,69745,2,0,P|313:273|356:286,2,88,0|8|0,0:0|0:0|0:0,0:0:0:0:
73,233,70975,6,0,P|41:197|36:144,1,88,4|8,0:0|0:0,0:0:0:0:
48,112,71436,2,0,P|106:76|178:96,1,132,0|8,0:0|0:0,0:0:0:0:
257,56,72205,2,0,P|305:78|398:72,2,132,0|0|8,0:0|0:0|0:0,0:0:0:0:
235,150,73434,6,0,L|245:203,1,44
272,232,73742,2,0,L|262:285,1,44,8|0,0:0|0:0,0:0:0:0:
242,318,74049,2,0,P|197:348|159:350,1,88,0|8,0:0|0:0,0:0:0:0:
94,283,74664,2,0,B|85:219|85:219|66:195,1,88,0|8,0:0|0:0,0:0:0:0:
28,176,75125,2,0,P|97:189|156:166,1,132,0|8,0:0|0:0,0:0:0:0:
238,122,75894,6,0,B|257:81|257:81|257:39,1,88,0|8,0:0|0:0,0:0:0:0:
338,91,76509,2,0,P|365:151|427:182,1,132
469,176,77123,1,0,0:0:0:0:
500,267,77431,1,8,0:0:0:0:
454,284,77585,2,0,P|400:261|326:269,1,132,0|8,0:0|0:0,0:0:0:0:
253,328,78353,6,0,B|213:346|213:346|169:346,1,88,0|8,0:0|0:0,0:0:0:0:
149,251,78968,2,0,B|189:233|189:233|233:233,1,88,0|8,0:0|0:0,0:0:0:0:
304,167,79583,2,0,P|350:180|431:163,1,132
464,128,80198,1,0,0:0:0:0:
291,39,80813,6,0,P|264:54|197:62,1,88,4|8,0:0|0:0,0:0:0:0:
129,119,81427,2,0,L|40:110,1,88,0|8,0:0|0:0,0:0:0:0:
10,202,82042,2,0,P|24:262|130:305,1,176
107,210,82965,1,8,0:0:0:0:
197,244,83272,6,0,L|244:320,1,88,4|8,0:0|0:0,0:0:0:0:
337,296,83887,1,0,0:0:0:0:
421,343,84194,1,8,0:0:0:0:
488,273,84502,2,0,B|494:183|494:183|515:140,2,132,2|2|2,0:0|0:0|0:0,0:0:0:0:
403,225,85731,6,0,P|366:198|309:192,1,88,4|8,0:0|0:0,0:0:0:0:
247,132,86346,1,0,0:0:0:0:
185,206,86654,2,0,L|164:256,1,44,8|0,0:0|0:0,0:0:0:0:
133,280,86961,2,0,P|98:292|39:277,1,88,0|8,0:0|0:0,0:0:0:0:
4,196,87576,2,0,P|39:184|98:199,1,88,0|8,0:0|0:0,0:0:0:0:
152,121,88191,6,0,P|164:67|149:18,1,88,0|8,0:0|0:0,0:0:0:0:
246,73,88806,2,0,P|283:100|377:97,1,132
412,87,89420,2,0,L|448:133,1,44
439,170,89728,2,0,L|475:216,1,44,8|0,0:0|0:0,0:0:0:0:
467,253,90035,5,0,0:0:0:0:
394,317,90343,1,8,0:0:0:0:
304,280,90650,1,6,0:0:0:0:
371,367,110325,6,0,P|395:307|371:247,1,132,10|8,0:2|0:0,0:0:0:0:
348,204,110940,2,0,L|392:124,1,88,8|8,0:0|0:0,0:0:0:0:
311,67,111555,1,8,0:0:0:0:
311,67,111709,2,0,P|256:38|200:67,1,132,8|10,0:0|0:0,0:0:0:0:
121,126,112477,6,0,L|121:172,1,44,8|10,0:0|0:0,0:0:0:0:
163,203,112785,2,0,P|198:229|220:268,1,88,10|0,0:0|0:0,0:0:0:0:
256,304,113246,1,10,0:0:0:0:
292,268,113400,2,0,P|313:229|348:203,1,88,8|10,0:0|0:0,0:0:0:0:
384,293,114014,1,10,0:0:0:0:
384,293,114168,2,0,P|435:245|440:183,1,132,8|10,0:0|0:0,0:0:0:0:
390,103,114937,5,8,0:0:0:0:
355,68,115090,1,8,0:0:0:0:
323,36,115244,2,0,L|224:36,1,88,10|8,0:0|0:0,0:0:0:0:
269,126,115859,2,0,L|181:126,1,88,10|10,0:0|0:0,0:0:0:0:
146,160,116320,1,10,0:0:0:0:
111,194,116474,2,0,B|111:238|111:238|130:281,1,88,8|8,0:0|0:0,0:0:0:0:
208,333,117089,5,10,0:0:0:0:
304,333,117396,1,10,0:0:0:0:
343,305,117550,1,10,0:0:0:0:
256,192,117703,12,10,119548,0:0:0:0:
79,41,120163,6,0,B|79:118|137:118|137:207,1,176,4|8,0:0|1:0,0:0:0:0:
205,272,121085,1,2,0:2:0:0:
295,306,121393,2,0,P|334:306|376:280,1,88,0|2,0:0|0:2,0:0:0:0:
385,187,122007,2,0,P|341:188|305:211,1,88,8|2,0:0|0:2,0:0:0:0:
375,281,122622,6,0,L|314:106,1,176,4|8,0:0|0:0,0:0:0:0:
256,38,123545,1,2,0:2:0:0:
195,114,123852,2,0,L|165:196,1,88,0|2,0:0|0:2,0:0:0:0:
83,146,124467,2,0,L|53:228,1,88,8|2,0:0|0:2,0:0:0:0:
11,316,125082,6,0,B|56:340|100:316|100:316|182:316,1,176,4|8,0:0|0:0,0:0:0:0:
270,274,126004,2,0,P|280:316|270:360,2,88,2|0|2,0:2|0:0|0:2,0:0:0:0:
187,223,126926,2,0,P|177:181|187:137,1,88,8|2,0:0|0:2,0:0:0:0:
247,62,127541,6,0,P|183:120|100:104,1,176,4|8,0:0|0:0,0:0:0:0:
16,57,128463,2,0,P|2:97|10:140,1,88,2|0,0:2|0:0,0:0:0:0:
56,226,129078,1,2,0:2:0:0:
128,290,129386,2,0,B|171:290|171:290|209:316,1,88,8|2,0:0|0:2,0:0:0:0:
304,315,130000,6,0,B|341:289|341:289|384:289,2,88,6|2|2,0:0|0:0|0:0,0:0:0:0:
256,229,130923,1,2,0:0:0:0:
208,315,131230,2,0,B|170:289|170:289|127:289,2,88,2|2|2,0:0|0:0|0:0,0:0:0:0:
256,229,132152,1,8,0:0:0:0:
324,160,132460,6,0,L|422:134,2,88,6|2|2,0:0|0:0|0:0,0:0:0:0:
256,90,133382,1,2,0:0:0:0:
187,21,133690,2,0,L|115:21,2,66,2|2|2,0:0|0:0|0:0,0:0:0:0:
221,55,134304,2,0,L|293:55,2,66,8|2|2,0:0|0:0|0:0,0:0:0:0:
178,68,134919,5,6,0:0:0:0:
188,164,135227,1,8,0:0:0:0:
161,258,135534,2,0,P|192:288|207:336,1,88,6|8,0:0|0:0,0:0:0:0:
303,328,136149,2,0,P|317:287|349:257,1,88,6|8,0:0|0:0,0:0:0:0:
324,160,136764,1,6,0:0:0:0:
256,90,137071,1,8,0:0:0:0:
188,160,137379,6,2,P|256:351|324:160,1,528,6|6,0:0|0:0,0:0:0:0:
256,244,139531,1,2,2:0:0:0:
188,160,139838,5,6,0:0:0:0:
91,150,140145,1,8,0:0:0:0:
44,135,140299,2,0,P|18:94|39:23,2,88
83,163,141068,6,0,L|135:177,1,44
158,209,141375,2,0,L|137:271,1,44,8|0,0:0|0:0,0:0:0:0:
177,286,141683,2,0,L|156:348,1,44
199,358,141990,2,0,L|252:354,1,44,8|0,0:0|0:0,0:0:0:0:
285,331,142297,6,0,P|329:315|409:341,2,132,4|0|8,0:0|0:0|0:0,0:0:0:0:
188,329,143527,2,0,P|145:300|129:237,1,88,0|8,0:0|0:0,0:0:0:0:
133,219,143988,1,0,0:0:0:0:
142,171,144142,2,0,P|142:102|113:74,1,88,0|8,0:0|0:0,0:0:0:0:
58,26,144757,5,4,0:0:0:0:
153,12,145064,1,8,0:0:0:0:
196,33,145218,2,0,P|243:37|313:17,1,88
331,27,145679,1,8,0:0:0:0:
378,37,145833,1,0,0:0:0:0:
422,56,145986,6,0,P|438:90|436:113,1,44
411,136,146294,2,0,P|415:157|427:175,1,44,8|0,0:0|0:0,0:0:0:0:
461,209,146601,2,0,P|472:227|477:248,1,44
469,296,146909,1,8,0:0:0:0:
391,353,147216,5,0,0:0:0:0:
312,296,147524,1,8,0:0:0:0:
219,323,147831,2,0,P|174:322|129:305,1,88,0|8,0:0|0:0,0:0:0:0:
74,230,148446,6,0,P|87:178|82:89,1,132
69,53,149061,1,0,0:0:0:0:
112,31,149214,1,0,0:0:0:0:
160,30,149368,1,8,0:0:0:0:
206,43,149522,1,0,0:0:0:0:
240,77,149676,5,4,0:0:0:0:
326,120,149983,2,0,P|370:112|405:75,1,88,8|0,0:0|0:0,0:0:0:0:
489,44,150598,2,0,L|480:139,1,88,8|0,0:0|0:0,0:0:0:0:
442,220,151213,1,8,0:0:0:0:
415,260,151366,1,0,0:0:0:0:
378,292,151520,1,0,0:0:0:0:
283,312,151828,2,0,L|217:304,1,44,8|0,0:0|0:0,0:0:0:0:
196,283,152135,6,0,P|162:246|172:136,2,132,0|0|8,0:0|0:0|0:0,0:0:0:0:
290,259,153365,2,0,P|330:234|426:270,2,132,2|2|10,0:0|0:0|0:0,0:0:0:0:
204,304,154594,5,4,0:0:0:0:
112,270,154902,2,0,P|77:251|69:227,1,44,8|0,0:0|0:0,0:0:0:0:
74,200,155209,2,0,P|78:155|70:135,1,44
52,115,155517,1,8,0:0:0:0:
51,66,155670,1,0,0:0:0:0:
84,30,155824,2,0,P|108:18|142:19,2,44,0|0|8,0:0|0:0|0:0,0:0:0:0:
143,106,156439,2,0,L|201:115,2,44,0|0|8,0:0|0:0|0:0,0:0:0:0:
108,211,157054,6,0,P|85:255|185:321,1,176,4|0,0:0|0:0,0:0:0:0:
256,297,157976,1,8,0:0:0:0:
346,330,158283,2,0,P|418:292|402:212,1,176
333,144,159206,1,8,0:0:0:0:
257,84,159513,5,6,0:0:0:0:
55,56,161973,6,0,B|102:34|153:41|187:92|187:92|238:16|299:9|346:32|373:47,2,352,2|2|2,0:0|0:0|0:0,0:0:0:0:
471,38,166891,6,0,B|289:1|318:76|113:37,2,352,2|2|2,0:0|0:0|0:0,0:0:0:0:
316,176,171810,6,0,B|280:220|300:280|336:328|384:328|416:280|384:232|336:232|300:280|276:308|256:373|256:373|236:308|212:280|176:232|128:232|96:280|128:328|176:328|212:280|232:220|196:176,1,704,2|2,0:0|0:0,0:0:0:0:
444,128,176729,6,0,B|376:128|336:184|336:184|280:176|212:140|184:84|184:24|256:-12|328:24|328:84|300:140|232:176|176:184|176:184|136:128|68:128,1,704,2|2,0:0|0:0,0:0:0:0:
