osu file format v12

[General]
AudioFilename: Come & Get It.mp3
AudioLeadIn: 507
PreviewTime: 33804
Countdown: 0
SampleSet: Normal
StackLeniency: 0.7
Mode: 0
LetterboxInBreaks: 1
EpilepsyWarning: 1
WidescreenStoryboard: 0

[Editor]
DistanceSpacing: 1.2
BeatDivisor: 2
GridSize: 4

[Metadata]
Title:Come & Get It
TitleUnicode:Come & Get It
Artist:Krewella
ArtistUnicode:Krewella
Creator:Cancel
Version:Hard
Source:
Tags:skydevil ayu drum and bass 2012 new year orion
BeatmapID:207860
BeatmapSetID:70401

[Difficulty]
HPDrainRate:5
CircleSize:4
OverallDifficulty:7
ApproachRate:8
SliderMultiplier:1.6
SliderTickRate:2

[Events]
//Background and Video events
0,0,"BG_01.jpg",0,0
//Break Periods
//Storyboard Layer 0 (Background)
//Storyboard Layer 1 (Fail)
//Storyboard Layer 2 (Pass)
//Storyboard Layer 3 (Foreground)
//Storyboard Sound Samples
//Background Colour Transformations
3,100,163,162,255

[TimingPoints]
1403,344.827586206897,4,1,0,75,1,0
22092,-200,4,1,0,75,0,0
22437,-200,4,1,0,75,0,0
22782,-200,4,1,0,75,0,0
23471,-100,4,1,0,75,0,0
34506,-100,4,1,0,75,0,1
44851,-100,4,1,0,75,0,0
78644,-100,4,1,0,75,0,1
88989,-100,4,1,0,75,0,0
100713,-100,4,1,0,5,0,0

[HitObjects]
256,192,22092,12,4,23471,0:0:0:0:
48,108,23816,6,0,L|164:116,1,80,8|0,0:0|0:0,0:0:0:0:
208,176,24161,2,0,P|248:192|336:124,1,160,0|8,0:0|0:0,0:0:0:0:
376,44,24678,2,0,P|300:32|249:89,2,160,2|2|0,0:0|0:0|0:0,0:0:0:0:
444,112,25540,2,0,L|452:216,1,80,2|0,0:0|0:0,0:0:0:0:
372,244,25885,2,0,L|380:348,1,80,8|0,0:0|0:0,0:0:0:0:
378,323,26230,6,0,P|320:300|240:344,1,160,0|8,0:0|0:0,0:0:0:0:
156,300,26747,1,0,0:0:0:0:
72,344,26920,2,0,L|60:176,1,160,0|8,0:0|0:0,0:0:0:0:
28,92,27437,2,0,B|76:80|116:108|116:108|180:52,1,160,2|2,0:0|0:0,0:0:0:0:
264,64,27954,2,0,B|314:108|314:108|354:80|402:92,1,160,8|2,0:0|0:0,0:0:0:0:
376,184,28471,1,0,0:0:0:0:
444,252,28644,1,8,0:0:0:0:
384,328,28816,1,8,0:0:0:0:
384,328,28989,6,0,L|224:324,1,160,4|8,0:0|0:0,0:0:0:0:
132,356,29506,1,0,0:0:0:0:
80,276,29678,2,0,P|44:216|76:132,1,160,0|8,0:0|0:0,0:0:0:0:
132,60,30196,2,0,P|168:120|136:204,1,160,2|2,0:0|0:0,0:0:0:0:
224,248,30713,2,0,P|256:236|320:252,1,80,8|0,0:0|0:0,0:0:0:0:
388,196,31058,2,0,P|400:228|384:292,1,80,2|0,0:0|0:0,0:0:0:0:
268,316,31403,2,0,L|264:136,1,160,8|8,0:0|0:0,0:0:0:0:
200,84,31920,5,8,0:0:0:0:
120,32,32092,2,0,P|104:68|112:120,1,80,8|8,0:0|0:0,0:0:0:0:
56,188,32437,2,0,P|92:204|144:196,1,80,8|8,0:0|0:0,0:0:0:0:
212,252,32782,2,0,P|228:216|220:164,1,80,8|8,0:0|0:0,0:0:0:0:
200,84,33127,6,0,B|256:76|296:112|296:112|352:88,1,160,8|4,0:0|0:3,0:0:0:0:
444,108,33644,1,4,0:3:0:0:
492,192,33816,5,4,0:0:0:0:
452,280,33989,1,0,0:0:0:0:
356,296,34161,1,0,0:0:0:0:
288,228,34334,1,0,0:0:0:0:
288,228,34506,6,0,L|128:220,1,160,4|8,0:0|0:0,0:0:0:0:
44,264,35023,1,0,0:0:0:0:
16,172,35196,2,0,P|8:96|64:40,1,160,0|10,0:0|0:0,0:0:0:0:
212,92,35713,2,2,B|156:56|156:56|144:112|84:132,1,160,2|0,0:0|0:0,0:0:0:0:
288,140,36230,2,0,B|312:108|296:60|296:60|372:36,1,160,8|2,0:0|0:0,0:0:0:0:
436,104,36747,1,0,0:0:0:0:
396,280,36920,2,0,P|436:280|480:248,1,80,10|2,0:0|0:0,0:0:0:0:
408,196,37265,6,0,P|348:204|308:288,1,160,4|8,0:0|0:0,0:0:0:0:
356,372,37782,1,0,0:0:0:0:
260,360,37954,2,0,B|224:344|220:300|220:300|160:308|148:368,1,160,0|10,0:0|0:0,0:0:0:0:
44,204,38471,6,2,B|80:220|84:264|84:264|144:256|156:196,1,160,2|0,0:0|0:0,0:0:0:0:
148,120,38989,2,0,P|140:72|96:40,1,80
68,116,39334,6,0,L|224:68,1,160,2|2,0:0|0:0,0:0:0:0:
272,152,39851,1,2,0:0:0:0:
320,68,40023,6,0,L|472:115,1,160,4|8,0:0|0:0,0:0:0:0:
488,212,40540,2,0,P|436:200|368:272,1,160,2|0,0:0|0:0,0:0:0:0:
408,348,41058,2,0,P|440:324|448:268,1,80,8|0,0:0|0:0,0:0:0:0:
296,324,41403,6,0,L|128:332,1,160,2|8,0:0|0:0,0:0:0:0:
172,244,41920,2,0,L|4:252,1,160,2|0,0:0|0:0,0:0:0:0:
36,160,42437,2,0,P|72:160|120:120,1,80,8|0,0:0|0:0,0:0:0:0:
188,84,42782,6,0,P|128:44|44:76,1,160,8|8,0:0|0:0,0:0:0:0:
228,160,43299,2,0,P|256:140|272:92,1,80,0|8,0:0|0:0,0:0:0:0:
348,56,43644,2,0,P|328:28|280:12,2,80,0|8|0,0:0|0:0|0:0,0:0:0:0:
368,148,44161,6,0,L|448:160,1,80,8|2,0:0|0:3,0:0:0:0:
392,240,44506,2,0,L|472:252,2,80,4|0|12,0:3|0:3|0:3,0:0:0:0:
300,264,45023,1,0,0:0:0:0:
276,172,45196,1,8,0:0:0:0:
368,148,45368,1,8,0:0:0:0:
300,264,45540,6,0,P|224:256|184:180,1,160,4|10,0:0|0:0,0:0:0:0:
212,96,46058,1,0,0:0:0:0:
132,44,46230,2,0,L|52:68,1,80,2|0,0:0|0:0,0:0:0:0:
60,164,46575,2,0,P|80:225|40:312,1,160,8|2,0:0|0:0,0:0:0:0:
168,304,47092,5,0,0:0:0:0:
256,340,47265,2,0,B|288:328|288:328|336:328,1,80,10|0,0:0|0:0,0:0:0:0:
448,232,47609,2,0,B|416:244|416:244|368:244,1,80,2|0,0:0|0:0,0:0:0:0:
236,164,47954,2,0,L|316:164,1,80,10|0,0:0|0:0,0:0:0:0:
356,76,48299,6,0,L|192:76,1,160,4|10,0:0|0:0,0:0:0:0:
104,48,48816,1,0,0:0:0:0:
44,124,48989,2,0,P|40:164|48:204,1,80,2|0,0:0|0:0,0:0:0:0:
108,280,49334,2,0,P|112:320|104:360,2,80,10|0|2,0:0|0:0|0:2,0:0:0:0:
144,192,49851,5,0,0:0:0:0:
236,164,50023,1,2,0:2:0:0:
248,260,50196,2,0,B|324:272|324:240|412:256,1,160,2|4,0:2|0:3,0:0:0:0:
496,302,50713,2,0,B|511:221|479:221|492:144,1,160,2|4,0:2|0:1,0:0:0:0:
492,144,51403,6,0,P|440:148|396:136,1,80,10|0,0:0|0:0,0:0:0:0:
336,84,51747,2,0,B|260:72|260:104|172:88,1,160,2|8,0:1|0:1,0:0:0:0:
96,36,52265,1,0,0:0:0:0:
44,116,52437,6,0,L|32:280,1,160,2|10,0:0|0:0,0:0:0:0:
116,324,52954,2,0,L|127:164,1,160,2|4,0:0|0:3,0:0:0:0:
220,196,53471,2,0,P|260:180|324:204,1,80,10|0,0:0|0:0,0:0:0:0:
452,248,53816,6,0,P|412:264|348:240,1,80,8|0,0:0|0:0,0:0:0:0:
400,164,54161,2,0,P|400:136|428:92,1,80,8|0,0:0|0:0,0:0:0:0:
428,92,54506,2,0,B|365:107|313:55|313:55|313:111,1,160,8|0,0:0|0:0,0:0:0:0:
216,92,55023,6,0,B|216:58|216:58|164:110|100:84,1,160,2|2,0:0|0:0,0:0:0:0:
144,12,55540,2,0,L|168:180,1,160,8|8,0:3|0:0,0:0:0:0:
96,236,56058,1,0,0:0:0:0:
156,312,56230,1,0,0:0:0:0:
232,256,56403,1,8,0:0:0:0:
232,256,56575,6,0,B|256:296|248:340|248:340|272:304|316:296,1,160,4|8,0:0|0:0,0:0:0:0:
388,352,57092,1,0,0:0:0:0:
424,264,57265,2,0,B|457:258|481:222|481:222|473:266|497:306,1,160,2|8,0:0|0:0,0:0:0:0:
460,132,57782,2,0,B|426:137|402:173|402:173|410:129|386:89,1,160,0|2,0:0|0:0,0:0:0:0:
308,148,58299,1,8,0:0:0:0:
244,76,58471,2,0,L|152:56,1,80,0|2,0:0|0:0,0:0:0:0:
140,152,58816,2,0,L|48:132,2,80,0|8|0,0:0|0:0|0:0,0:0:0:0:
204,224,59334,6,0,P|216:256|204:320,1,80
304,332,59678,2,0,B|336:328|336:328|384:328,1,80,8|0,0:0|0:0,0:0:0:0:
472,236,60023,2,0,B|440:240|440:240|392:240,1,80,0|0,0:0|0:0,0:0:0:0:
308,148,60368,2,0,B|340:144|340:144|388:144,1,80,8|0,0:0|0:0,0:0:0:0:
424,56,60713,6,0,L|260:56,1,160,2|8,0:2|0:0,0:0:0:0:
204,132,61230,2,0,L|40:132,1,160,2|0,0:2|0:0,0:0:0:0:
48,228,61747,2,0,B|88:228|88:228|128:232,1,80,8|0,0:0|0:0,0:0:0:0:
200,296,62092,6,0,B|236:316|272:288|272:288|308:256|356:288,1,160,4|10,0:0|0:0,0:0:0:0:
420,348,62609,1,0,0:0:0:0:
