osu file format v13

[General]
AudioFilename: Nightcore - Cant Control Myself.mp3
AudioLeadIn: 0
PreviewTime: -1
Countdown: 1
SampleSet: Soft
StackLeniency: 0.7
Mode: 0
LetterboxInBreaks: 1
WidescreenStoryboard: 0

[Editor]
DistanceSpacing: 1.4
BeatDivisor: 4
GridSize: 8
TimelineZoom: 1

[Metadata]
Title:Can't Control Myself (Nightcore)
TitleUnicode:Can't Control Myself (Nightcore)
Artist:Krewella
ArtistUnicode:Krewella
Creator:Firstus
Version:WITHOUT CONTROL!
Source:
Tags:dubstep
BeatmapID:400335
BeatmapSetID:128622

[Difficulty]
HPDrainRate:5
CircleSize:4
OverallDifficulty:7
ApproachRate:10
SliderMultiplier:1.6
SliderTickRate:1

[Events]
//Background and Video events
//Break Periods
2,75313,80870
//Storyboard Layer 0 (Background)
//Storyboard Layer 1 (Fail)
//Storyboard Layer 2 (Pass)
//Storyboard Layer 3 (Foreground)
//Storyboard Sound Samples
//Background Colour Transformations
3,100,163,162,255

[TimingPoints]
631,258.620689655172,4,1,0,100,1,0
6837,-100,4,2,0,75,0,0
25458,-133.333333333333,4,2,0,55,0,0
33734,-117.647058823529,4,2,0,55,0,0
42010,-83.3333333333333,4,2,0,55,0,1
73044,-83.3333333333333,4,2,0,55,0,0
81320,-100,4,2,0,55,0,0
99941,-100,4,2,0,55,0,1
99942,-100,4,2,0,55,0,0
116493,-76.9230769230769,4,2,0,55,0,1
149596,-100,4,2,0,55,0,0

[HitObjects]
80,64,6837,5,8,0:0:0:0:
232,184,7096,1,8,0:0:0:0:
392,288,7355,1,8,0:0:0:0:
312,240,7484,1,8,0:0:0:0:
152,128,7743,1,0,0:0:0:0:
336,80,8001,5,0,0:0:0:0:
440,240,8260,1,0,0:0:0:0:
368,296,8389,1,0,0:0:0:0:
272,296,8518,1,0,0:0:0:0:
272,200,8648,1,0,0:0:0:0:
368,200,8777,1,0,0:0:0:0:
328,112,8906,6,0,P|272:80|264:56,1,80
168,72,9165,1,0,0:0:0:0:
88,128,9294,1,0,0:0:0:0:
56,216,9424,1,0,0:0:0:0:
80,312,9553,2,0,P|144:280|200:296,2,120,0|0|2,0:0|0:0|0:0,0:0:0:0:
272,312,10199,1,0,0:0:0:0:
272,312,10329,1,0,0:0:0:0:
272,312,10458,2,0,B|384:288|280:224|344:216|384:208|384:208,1,160
264,56,10975,5,0,0:0:0:0:
80,120,11234,1,0,0:0:0:0:
120,312,11493,1,0,0:0:0:0:
312,328,11751,1,0,0:0:0:0:
440,184,12010,1,0,0:0:0:0:
400,96,12139,1,0,0:0:0:0:
344,176,12268,1,0,0:0:0:0:
256,224,12398,6,0,B|176:224|208:288|104:288,2,160
232,128,13044,1,0,0:0:0:0:
264,40,13174,1,0,0:0:0:0:
168,48,13303,1,0,0:0:0:0:
128,136,13432,2,0,B|80:176|80:208|48:200,2,80
184,216,13820,2,0,P|224:248|272:240,2,80
376,192,14337,5,0,0:0:0:0:
376,192,14467,1,0,0:0:0:0:
376,192,14596,2,0,B|304:240|336:264|296:320|232:304,1,160
184,256,14984,2,0,P|112:208|96:208,2,80
240,176,15372,2,0,B|240:112|320:128|344:88|336:48,1,160
144,80,15889,6,0,P|104:128|64:128,2,80
240,64,16277,1,0,0:0:0:0:
328,96,16406,2,0,P|384:72|392:40,1,80
416,152,16665,1,0,0:0:0:0:
416,152,16924,1,0,0:0:0:0:
344,328,17182,1,0,0:0:0:0:
256,288,17312,1,0,0:0:0:0:
224,200,17441,1,0,0:0:0:0:
136,160,17570,6,0,P|112:112|88:88,2,80
80,240,17958,1,0,0:0:0:0:
136,160,18087,1,0,0:0:0:0:
208,96,18217,1,0,0:0:0:0:
400,88,18475,5,0,0:0:0:0:
400,88,18605,1,0,0:0:0:0:
400,88,18734,2,0,B|328:136|432:208|312:240,1,160
152,224,19251,2,0,B|216:176|240:240|288:160,1,160
104,96,19768,2,0,P|64:80|48:48,2,80
200,72,20156,2,0,P|256:96|296:64,2,80
208,168,20544,1,0,0:0:0:0:
280,232,20674,1,0,0:0:0:0:
376,248,20803,2,0,P|424:224|456:128,1,160
208,168,21320,6,0,B|184:224|136:224|136:224,2,80
272,96,21708,1,0,0:0:0:0:
368,72,21837,1,0,0:0:0:0:
448,128,21967,1,0,0:0:0:0:
448,224,22096,2,0,P|416:280|432:304,2,80
272,304,22613,5,0,0:0:0:0:
112,200,22872,2,0,P|64:144|72:112,1,80
152,104,23130,2,0,P|192:72|240:88,2,80
224,176,23518,2,0,P|272:176|344:72,1,160
392,184,23906,2,0,P|416:240|448:256,2,80
336,264,24294,1,0,0:0:0:0:
256,320,24424,1,0,0:0:0:0:
160,320,24553,1,0,0:0:0:0:
88,256,24682,1,0,0:0:0:0:
56,168,24812,1,0,0:0:0:0:
80,72,24941,1,4,0:0:0:0:
320,80,25458,6,0,P|352:136|424:128,1,120.000004577637
336,240,25975,2,0,P|280:248|248:304,1,120.000004577637
144,232,26493,1,0,0:0:0:0:
72,136,26751,1,0,0:0:0:0:
168,64,27010,1,0,0:0:0:0:
280,112,27268,1,0,0:0:0:0:
376,184,27527,2,0,P|432:160|464:104,1,120.000004577637
464,232,28044,2,0,P|408:256|376:312,2,120.000004577637
352,128,28820,2,0,P|288:144|232:112,2,120.000004577637
296,232,29596,5,0,0:0:0:0:
184,272,29855,1,0,0:0:0:0:
80,208,30113,1,0,0:0:0:0:
112,96,30372,2,0,P|192:96|216:64,2,120.000004577637
208,168,31148,1,0,0:0:0:0:
320,120,31406,1,0,0:0:0:0:
440,96,31665,1,0,0:0:0:0:
392,208,31924,2,0,B|368:240|320:232|280:296,1,120.000004577637
176,272,32441,1,0,0:0:0:0:
128,240,32570,1,0,0:0:0:0:
88,192,32699,6,0,P|64:136|80:64,2,120.000004577637
176,112,33475,1,0,0:0:0:0:
280,48,33734,2,0,P|360:56|400:96,1,136.000002593994
280,136,34251,2,0,P|256:176|288:256,2,136.000002593994
408,176,35027,1,0,0:0:0:0:
464,304,35286,2,0,P|400:296|376:304,2,68.0000012969971
328,296,35803,2,0,P|248:304|208:240,1,136.000002593994
192,112,36320,2,0,P|232:184|280:184,1,136.000002593994
320,128,36708,5,2,0:0:0:0:
384,104,36837,1,0,0:0:0:0:
448,128,36967,1,2,0:0:0:0:
448,192,37096,2,0,P|432:248|488:304,2,136.000002593994
336,264,37872,5,0,0:0:0:0:
200,248,38130,1,0,0:0:0:0:
112,144,38389,1,0,0:0:0:0:
240,96,38648,1,0,0:0:0:0:
376,96,38906,1,0,0:0:0:0:
240,288,39165,1,0,0:0:0:0:
376,288,39423,1,0,0:0:0:0:
136,96,39682,1,0,0:0:0:0:
272,96,39940,1,0,0:0:0:0:
360,136,40070,5,0,0:0:0:0:
280,184,40199,1,0,0:0:0:0:
376,208,40329,1,0,0:0:0:0:
280,248,40458,1,0,0:0:0:0:
376,272,40587,1,0,0:0:0:0:
280,304,40717,1,0,0:0:0:0:
184,296,40846,2,0,P|120:312|96:320,1,68.0000012969971
104,216,41105,2,0,P|160:224|184:224,1,68.0000012969971
168,128,41363,2,0,P|120:136|96:136,1,68.0000012969971,0|4,0:0|0:0,0:0:0:0:
376,88,42010,5,0,0:0:0:0:
376,88,42074,1,0,0:0:0:0:
376,88,42139,1,0,0:0:0:0:
240,104,42268,2,0,B|256:168|296:200|296:200,1,95.9999970703126
152,216,42527,1,0,0:0:0:0:
152,216,42592,1,0,0:0:0:0:
152,216,42656,1,0,0:0:0:0:
280,264,42786,6,0,P|344:272|352:272,2,47.9999985351563
168,184,43044,1,0,0:0:0:0:
344,168,43174,1,0,0:0:0:0:
168,184,43303,1,0,0:0:0:0:
344,168,43432,1,0,0:0:0:0:
168,184,43562,1,0,0:0:0:0:
344,168,43691,1,0,0:0:0:0:
168,184,43820,1,0,0:0:0:0:
344,168,43949,1,0,0:0:0:0:
240,152,44079,5,0,0:0:0:0:
240,152,44143,1,0,0:0:0:0:
240,152,44208,1,0,0:0:0:0:
88,72,44337,2,0,P|152:80|200:56,1,95.9999970703126
312,80,44596,1,0,0:0:0:0:
312,80,44661,1,0,0:0:0:0:
312,80,44725,1,0,0:0:0:0:
416,168,44855,2,0,P|448:216|448:256,1,95.9999970703126
320,288,45113,5,0,0:0:0:0:
184,312,45243,1,0,0:0:0:0:
224,184,45372,1,0,0:0:0:0:
280,304,45501,5,0,0:0:0:0:
144,328,45631,1,0,0:0:0:0:
184,200,45760,1,0,0:0:0:0:
96,88,45889,2,0,B|152:72|176:80|176:80|192:64,1,95.9999970703126
312,120,46148,1,0,0:0:0:0:
312,120,46212,1,0,0:0:0:0:
312,120,46277,1,0,0:0:0:0:
392,224,46406,6,0,P|400:288|432:312,1,95.9999970703126
288,272,46665,1,0,0:0:0:0:
288,272,46730,1,0,0:0:0:0:
288,272,46794,1,0,0:0:0:0:
72,256,46924,2,0,P|120:272|144:264,2,47.9999985351563
152,144,47182,1,0,0:0:0:0:
256,64,47312,1,0,0:0:0:0:
208,192,47441,1,0,0:0:0:0:
176,320,47570,5,0,0:0:0:0:
264,224,47699,1,0,0:0:0:0:
336,112,47829,1,0,0:0:0:0:
328,248,47958,1,0,0:0:0:0:
240,352,48087,1,0,0:0:0:0:
328,248,48217,6,0,P|352:192|384:176,2,95.9999970703126
208,192,48605,1,0,0:0:0:0:
80,232,48734,1,0,0:0:0:0:
104,104,48863,1,0,0:0:0:0:
304,192,48993,1,0,0:0:0:0:
432,232,49122,1,0,0:0:0:0:
408,104,49251,1,0,0:0:0:0:
256,136,49380,1,0,0:0:0:0:
384,176,49509,1,0,0:0:0:0:
360,48,49638,1,0,0:0:0:0:
208,152,49768,5,0,0:0:0:0:
336,200,49898,1,0,0:0:0:0:
312,72,50027,2,0,P|264:48|216:56,1,95.9999970703126
136,64,50286,5,0,0:0:0:0:
136,64,50350,1,0,0:0:0:0:
136,64,50415,1,0,0:0:0:0:
48,168,50544,1,0,0:0:0:0:
80,296,50674,1,0,0:0:0:0:
80,296,50738,1,0,0:0:0:0:
80,296,50803,1,0,0:0:0:0:
176,208,50932,1,0,0:0:0:0:
304,256,51062,5,0,0:0:0:0:
304,256,51191,1,0,0:0:0:0:
416,184,51320,1,0,0:0:0:0:
360,64,51449,1,0,0:0:0:0:
416,184,51579,1,0,0:0:0:0:
360,64,51708,1,0,0:0:0:0:
416,184,51837,1,0,0:0:0:0:
416,184,51902,1,0,0:0:0:0:
416,184,51967,1,0,0:0:0:0:
280,168,52096,6,0,B|232:120|200:128|176:96,1,95.9999970703126
72,168,52355,1,0,0:0:0:0:
72,168,52419,1,0,0:0:0:0:
72,168,52484,1,0,0:0:0:0:
176,256,52613,2,0,P|232:264|272:288,2,95.9999970703126
144,240,52937,1,0,0:0:0:0:
128,208,53001,1,0,0:0:0:0:
224,112,53130,6,0,P|280:96|304:56,1,95.9999970703126
376,176,53389,1,0,0:0:0:0:
400,312,53518,1,0,0:0:0:0:
424,176,53648,1,0,0:0:0:0:
344,288,53777,1,0,0:0:0:0:
464,224,53906,1,0,0:0:0:0:
328,232,54036,1,0,0:0:0:0:
448,288,54165,1,0,0:0:0:0:
352,192,54294,1,0,0:0:0:0:
328,56,54424,5,0,0:0:0:0:
328,56,54488,1,0,0:0:0:0:
328,56,54553,1,0,0:0:0:0:
208,104,54682,2,0,P|160:136|96:144,1,95.9999970703126
80,272,54941,1,0,0:0:0:0:
80,272,55005,1,0,0:0:0:0:
80,272,55070,1,0,0:0:0:0:
208,232,55199,1,0,0:0:0:0:
208,232,55329,1,0,0:0:0:0:
288,128,55458,5,0,0:0:0:0:
416,168,55587,1,0,0:0:0:0:
368,296,55717,1,0,0:0:0:0:
240,256,55846,1,0,0:0:0:0:
256,88,55976,5,0,0:0:0:0:
384,128,56105,1,0,0:0:0:0:
336,256,56235,1,0,0:0:0:0:
208,216,56364,1,0,0:0:0:0:
136,104,56493,6,0,P|88:80|80:80,2,47.9999985351563
48,200,56751,2,0,P|80:264|120:264,1,95.9999970703126
192,176,57010,2,0,P|240:184|264:224,1,95.9999970703126
160,304,57268,2,0,P|192:344|216:344,2,47.9999985351563
296,288,57527,2,0,P|352:304|392:280,2,95.9999970703126
440,64,58044,5,0,0:0:0:0:
440,64,58174,1,0,0:0:0:0:
440,64,58303,1,0,0:0:0:0:
440,64,58432,1,0,0:0:0:0:
440,64,58562,1,0,0:0:0:0:
424,72,58626,1,0,0:0:0:0:
400,72,58691,1,0,0:0:0:0:
384,80,58755,1,0,0:0:0:0:
368,96,58820,1,0,0:0:0:0:
344,120,58885,5,0,0:0:0:0:
320,136,58949,1,0,0:0:0:0:
296,144,59014,1,0,0:0:0:0:
264,144,59079,1,0,0:0:0:0:
232,144,59143,2,0,L|208:96,1,47.9999985351563
192,152,59273,2,0,L|160:104,1,47.9999985351563
152,176,59402,2,0,L|112:136,1,47.9999985351563
128,208,59531,1,0,0:0:0:0:
120,240,59596,1,0,0:0:0:0:
248,272,59725,5,0,0:0:0:0:
248,272,59790,1,0,0:0:0:0:
248,272,59855,1,0,0:0:0:0:
384,264,59984,1,0,0:0:0:0:
456,152,60113,1,0,0:0:0:0:
456,152,60178,1,0,0:0:0:0:
456,152,60243,1,0,0:0:0:0:
320,152,60372,1,0,0:0:0:0:
208,80,60501,1,0,0:0:0:0:
96,152,60630,6,0,P|56:120|48:96,2,47.9999985351563
120,168,60824,1,0,0:0:0:0:
136,192,60889,1,0,0:0:0:0:
160,216,60954,1,0,0:0:0:0:
184,232,61018,1,0,0:0:0:0:
216,240,61083,1,0,0:0:0:0:
248,232,61148,1,0,0:0:0:0:
272,216,61212,1,0,0:0:0:0:
288,192,61277,1,0,0:0:0:0:
296,168,61342,5,0,0:0:0:0:
312,144,61406,1,0,0:0:0:0:
336,128,61471,1,0,0:0:0:0:
368,120,61536,1,0,0:0:0:0:
392,120,61600,1,0,0:0:0:0:
416,136,61665,1,0,0:0:0:0:
424,272,61794,1,0,0:0:0:0:
296,328,61924,1,0,0:0:0:0:
176,264,62053,1,0,0:0:0:0:
88,168,62182,5,0,0:0:0:0:
192,80,62312,1,0,0:0:0:0:
328,72,62441,1,0,0:0:0:0:
440,144,62570,1,0,0:0:0:0:
424,272,62699,1,0,0:0:0:0:
424,272,62764,1,0,0:0:0:0:
424,272,62829,1,0,0:0:0:0:
440,144,62958,2,0,P|472:96|464:48,1,95.9999970703126
328,72,63217,1,0,0:0:0:0:
192,80,63346,5,0,0:0:0:0:
88,168,63475,1,0,0:0:0:0:
176,264,63605,1,0,0:0:0:0:
312,280,63734,1,0,0:0:0:0:
408,192,63863,1,0,0:0:0:0:
280,144,63993,1,0,0:0:0:0:
280,144,64057,1,0,0:0:0:0:
280,144,64122,1,0,0:0:0:0:
264,256,64251,5,0,0:0:0:0:
360,168,64380,1,0,0:0:0:0:
232,120,64510,1,0,0:0:0:0:
136,216,64639,1,0,0:0:0:0:
120,80,64768,1,0,0:0:0:0:
256,72,64898,1,0,0:0:0:0:
272,208,65027,1,0,0:0:0:0:
136,216,65156,1,0,0:0:0:0:
152,112,65286,5,0,0:0:0:0:
288,104,65416,1,0,0:0:0:0:
304,240,65545,1,0,0:0:0:0:
168,248,65674,1,0,0:0:0:0:
192,152,65803,1,0,0:0:0:0:
328,144,65933,1,0,0:0:0:0:
344,280,66062,1,0,0:0:0:0:
208,288,66191,1,0,0:0:0:0:
232,192,66320,5,0,0:0:0:0:
368,184,66450,1,0,0:0:0:0:
384,320,66579,1,0,0:0:0:0:
248,328,66708,1,0,0:0:0:0:
120,288,66837,5,0,0:0:0:0:
96,264,66902,1,0,0:0:0:0:
80,232,66967,1,0,0:0:0:0:
80,200,67031,2,0,L|32:176,1,47.9999985351563
96,168,67161,2,0,L|48:128,1,47.9999985351563
120,144,67290,1,0,0:0:0:0:
152,128,67355,1,0,0:0:0:0:
176,112,67419,1,0,0:0:0:0:
200,88,67484,1,0,0:0:0:0:
336,96,67613,6,0,P|384:80|416:32,1,95.9999970703126
440,176,67872,1,0,0:0:0:0:
440,176,67937,1,0,0:0:0:0:
440,176,68001,1,0,0:0:0:0:
424,312,68130,1,0,0:0:0:0:
440,176,68260,1,0,0:0:0:0:
424,312,68389,2,0,P|360:312|328:328,2,95.9999970703126
304,248,68777,5,0,0:0:0:0:
176,288,68906,1,0,0:0:0:0:
176,288,68971,1,0,0:0:0:0:
176,288,69036,1,0,0:0:0:0:
64,216,69165,2,0,P|96:160|80:120,1,95.9999970703126
224,104,69424,1,0,0:0:0:0:
224,104,69488,1,0,0:0:0:0:
224,104,69553,1,0,0:0:0:0:
360,96,69682,2,0,P|424:72|440:48,1,95.9999970703126
384,176,69941,5,0,0:0:0:0:
424,304,70070,1,0,0:0:0:0:
296,272,70199,1,0,0:0:0:0:
425,174,70329,5,0,0:0:0:0:
403,340,70458,1,0,0:0:0:0:
275,236,70587,1,0,0:0:0:0:
449,196,70717,5,0,0:0:0:0:
351,350,70846,1,0,0:0:0:0:
272,188,70975,1,0,0:0:0:0:
272,188,71040,1,0,0:0:0:0:
272,188,71105,1,0,0:0:0:0:
88,224,71234,2,0,P|136:264|144:320,1,95.9999970703126
176,152,71493,1,0,0:0:0:0:
176,152,71557,1,0,0:0:0:0:
176,152,71622,1,0,0:0:0:0:
304,80,71751,6,0,P|352:112|392:96,1,95.9999970703126
416,240,72010,1,0,0:0:0:0:
416,240,72074,1,0,0:0:0:0:
416,240,72139,1,0,0:0:0:0:
296,296,72268,1,0,0:0:0:0:
176,232,72398,1,0,0:0:0:0:
304,144,72527,1,0,0:0:0:0:
268,317,72656,1,0,0:0:0:0:
152,205,72786,1,0,0:0:0:0:
327,147,72915,1,0,0:0:0:0:
256,192,73044,5,0,0:0:0:0:
256,192,73303,1,0,0:0:0:0:
256,192,73562,1,0,0:0:0:0:
256,192,73820,1,0,0:0:0:0:
256,192,74079,1,0,0:0:0:0:
256,144,74337,2,0,P|312:112|336:72,2,95.9999970703126
336,200,74725,2,0,P|392:224|480:120,1,191.999994140625
392,120,75113,1,4,0:0:0:0:
48,64,81320,5,0,0:0:0:0:
200,112,81579,1,0,0:0:0:0:
352,64,81837,1,0,0:0:0:0:
432,120,81967,1,0,0:0:0:0:
328,280,82225,1,0,0:0:0:0:
136,264,82484,1,0,0:0:0:0:
224,216,82613,1,0,0:0:0:0:
312,184,82743,5,0,0:0:0:0:
376,112,82872,1,0,0:0:0:0:
288,88,83001,1,0,0:0:0:0:
192,112,83130,1,0,0:0:0:0:
104,64,83260,1,0,0:0:0:0:
192,112,83389,6,0,P|248:112|288:56,2,120
240,200,83906,1,0,0:0:0:0:
336,200,84036,1,0,0:0:0:0:
416,144,84165,2,0,P|440:88|464:72,2,80
328,312,84682,1,0,0:0:0:0:
144,264,84941,1,0,0:0:0:0:
72,88,85199,1,0,0:0:0:0:
264,80,85458,6,0,P|328:80|416:16,1,160
432,120,85846,1,0,0:0:0:0:
376,200,85975,2,0,P|296:224|256:288,2,160
184,232,86751,1,0,0:0:0:0:
104,56,87010,2,0,P|176:128|248:128,1,160
424,152,87527,1,0,0:0:0:0:
344,200,87656,1,0,0:0:0:0:
296,112,87786,1,0,0:0:0:0:
384,64,87915,1,0,0:0:0:0:
424,152,88044,6,0,P|448:232|464:240,1,80
368,288,88303,2,0,P|320:328|216:304,1,160
96,176,88820,1,0,0:0:0:0:
264,264,89079,2,0,P|200:264|176:232,2,80
424,152,89596,2,0,P|344:136|256:192,1,160
296,72,89984,1,0,0:0:0:0:
208,96,90113,2,0,P|152:128|32:88,1,160
88,208,90501,6,0,P|136:248|136:296,1,80
232,224,90760,2,0,P|280:208|336:224,1,80
344,296,91018,2,0,P|416:256|408:176,2,160
312,208,91665,5,0,0:0:0:0:
168,184,91794,1,0,0:0:0:0:
264,72,91924,1,0,0:0:0:0:
241,237,92053,5,0,0:0:0:0:
178,105,92182,1,0,0:0:0:0:
324,120,92312,1,0,0:0:0:0:
440,200,92441,2,0,P|408:264|464:344,1,160
256,312,92958,1,0,0:0:0:0:
96,208,93217,1,0,0:0:0:0:
96,208,93346,2,0,P|88:144|64:112,2,80
184,168,93734,2,0,B|240:120|248:88|248:88|280:80|312:64,1,160
344,160,94122,1,0,0:0:0:0:
400,256,94251,6,0,B|384:216|496:184|432:88,1,160
264,56,94768,1,0,0:0:0:0:
224,248,95027,1,0,0:0:0:0:
176,64,95286,2,0,P|176:144|112:192,1,160
312,184,95803,6,0,P|344:144|400:128,1,80
424,208,96062,2,0,P|448:256|400:352,1,160
352,272,96449,1,0,0:0:0:0:
256,288,96579,2,0,P|224:320|112:264,1,160
88,64,97355,5,0,0:0:0:0:
176,104,97484,1,0,0:0:0:0:
264,72,97613,2,0,P|328:112|416:72,1,160
376,176,98001,1,0,0:0:0:0:
296,232,98130,2,0,P|216:264|208:336,1,160
96,184,98648,1,0,0:0:0:0:
216,40,98906,5,0,0:0:0:0:
392,120,99165,2,0,P|448:104|464:64,1,80
464,184,99424,2,0,P|432:232|448:352,1,160
392,320,99747,1,0,0:0:0:0:
368,288,99812,1,0,0:0:0:0:
336,264,99876,1,0,0:0:0:0:
296,256,99941,2,0,P|240:280|168:216,1,160
272,104,100458,6,0,P|216:152|120:128,1,160
200,48,100975,1,0,0:0:0:0:
312,40,101234,2,0,P|376:88|456:64,1,160
400,168,101751,1,0,0:0:0:0:
320,248,102010,2,0,B|256:256|200:296|200:296|176:280|168:280,1,160
80,216,102527,2,0,P|128:160|232:160,1,160
312,96,103044,1,0,0:0:0:0:
392,176,103303,6,0,P|408:224|448:256,1,80
376,256,103562,2,0,P|336:216|224:224,1,160
144,280,104079,1,0,0:0:0:0:
96,176,104337,5,0,0:0:0:0:
192,120,104596,2,0,P|224:80|224:40,1,80
264,96,104855,2,0,P|288:136|328:144,2,80
368,56,105372,1,0,0:0:0:0:
408,160,105630,1,0,0:0:0:0:
312,224,105889,2,0,P|264:248|256:280,1,80
224,224,106148,1,0,0:0:0:0:
176,120,106406,6,0,P|224:128|280:96,1,80
288,80,106665,2,0,B|344:88|400:64|400:64|432:80|456:88,1,160
432,192,107182,1,0,0:0:0:0:
328,240,107441,2,0,P|272:256|264:296,1,80
208,288,107699,2,0,P|144:272|120:176,1,160
200,120,108217,6,0,P|304:104|328:48,1,160
384,160,108734,2,0,P|336:200|312:296,2,160
424,264,109510,1,0,0:0:0:0:
344,336,109768,1,0,0:0:0:0:
256,264,110027,1,0,0:0:0:0:
152,304,110286,2,0,P|104:240|120:144,1,160
224,160,110803,2,0,P|320:96|328:40,2,160
232,104,111449,1,0,0:0:0:0:
200,56,111579,1,0,0:0:0:0:
128,144,111837,6,0,P|96:208|72:216,2,80
320,144,112355,1,0,0:0:0:0:
464,272,112613,1,0,0:0:0:0:
288,200,112872,1,0,0:0:0:0:
432,328,113130,1,0,0:0:0:0:
256,256,113389,1,0,0:0:0:0:
344,88,113648,5,0,0:0:0:0:
208,216,113906,1,0,0:0:0:0:
296,48,114165,1,0,0:0:0:0:
160,184,114424,1,0,0:0:0:0:
80,240,114553,1,0,0:0:0:0:
128,320,114682,1,0,0:0:0:0:
224,328,114812,1,0,0:0:0:0:
312,288,114941,1,0,0:0:0:0:
368,208,115070,1,0,0:0:0:0:
424,128,115199,5,0,0:0:0:0:
328,120,115329,2,0,L|280:96|248:80,1,80
240,176,115587,2,0,P|240:224|232:264,1,80
152,208,115846,2,0,P|112:152|96:136,1,80
80,64,116493,5,0,0:0:0:0:
80,64,116557,1,0,0:0:0:0:
80,64,116622,1,0,0:0:0:0:
144,176,116751,2,0,P|96:208|64:248,1,103.999995239258
184,296,117010,1,0,0:0:0:0:
184,296,117074,1,0,0:0:0:0:
184,296,117139,1,0,0:0:0:0:
304,256,117268,6,0,P|376:232|416:240,1,103.999995239258
368,112,117527,1,0,0:0:0:0:
368,112,117592,1,0,0:0:0:0:
368,112,117656,1,0,0:0:0:0:
128,112,117786,1,0,0:0:0:0:
368,112,117915,1,0,0:0:0:0:
128,112,118044,1,0,0:0:0:0:
368,112,118174,1,0,0:0:0:0:
128,112,118303,1,0,0:0:0:0:
368,112,118432,1,0,0:0:0:0:
128,112,118562,5,0,0:0:0:0:
128,112,118626,1,0,0:0:0:0:
128,112,118691,1,0,0:0:0:0:
200,216,118820,2,0,P|232:296|288:312,1,103.999995239258
360,248,119079,1,0,0:0:0:0:
360,248,119143,1,0,0:0:0:0:
360,248,119208,1,0,0:0:0:0:
448,160,119337,2,0,P|440:96|448:80,2,51.999997619629
336,96,119596,5,0,0:0:0:0:
176,56,119725,1,0,0:0:0:0:
216,216,119855,1,0,0:0:0:0:
216,216,119919,1,0,0:0:0:0:
216,216,119984,1,0,0:0:0:0:
104,272,120113,1,0,0:0:0:0:
104,272,120178,1,0,0:0:0:0:
104,272,120243,1,0,0:0:0:0:
200,344,120372,1,0,0:0:0:0:
200,344,120437,1,0,0:0:0:0:
200,344,120501,1,0,0:0:0:0:
320,320,120630,6,0,P|384:304|400:312,2,51.999997619629
400,224,120889,1,0,0:0:0:0:
400,224,121018,1,0,0:0:0:0:
328,120,121148,1,0,0:0:0:0:
328,120,121212,1,0,0:0:0:0:
328,120,121277,1,0,0:0:0:0:
208,88,121406,2,0,P|144:88|112:48,1,103.999995239258
120,184,121665,5,0,0:0:0:0:
120,184,121730,1,0,0:0:0:0:
120,184,121794,1,0,0:0:0:0:
256,288,121924,1,0,0:0:0:0:
360,160,122053,1,0,0:0:0:0:
432,312,122182,1,0,0:0:0:0:
272,189,122312,1,0,0:0:0:0:
435,215,122441,1,0,0:0:0:0:
339,354,122570,1,0,0:0:0:0:
256,192,122699,5,0,0:0:0:0:
200,192,122829,1,0,0:0:0:0:
312,192,122958,1,0,0:0:0:0:
144,192,123087,1,0,0:0:0:0:
368,192,123217,1,0,0:0:0:0:
88,192,123346,1,0,0:0:0:0:
424,192,123475,1,0,0:0:0:0:
32,192,123605,1,0,0:0:0:0:
480,192,123734,1,0,0:0:0:0:
88,192,123863,5,0,0:0:0:0:
424,192,123993,1,0,0:0:0:0:
144,192,124122,1,0,0:0:0:0:
368,192,124251,1,0,0:0:0:0:
200,192,124380,1,0,0:0:0:0:
312,192,124510,1,0,0:0:0:0:
256,192,124639,1,0,0:0:0:0:
312,80,124768,5,0,0:0:0:0:
312,80,124833,1,0,0:0:0:0:
312,80,124898,1,0,0:0:0:0:
168,64,125027,2,0,P|104:80|64:64,1,103.999995239258
112,208,125286,1,0,0:0:0:0:
112,208,125350,1,0,0:0:0:0:
112,208,125415,1,0,0:0:0:0:
240,280,125544,2,0,P|296:264|312:272,2,51.999997619629
384,312,125803,5,0,0:0:0:0:
432,128,125932,1,0,0:0:0:0:
448,312,126062,1,0,0:0:0:0:
368,128,126191,1,0,0:0:0:0:
200,200,126320,2,0,B|256:184|296:240|360:208,2,155.999992858887
96,96,126837,5,0,0:0:0:0:
96,96,126902,1,0,0:0:0:0:
96,96,126967,1,0,0:0:0:0:
88,240,127096,2,0,P|136:288|136:320,1,103.999995239258
280,304,127355,1,0,0:0:0:0:
280,304,127419,1,0,0:0:0:0:
280,304,127484,1,0,0:0:0:0:
400,216,127613,6,0,P|424:152|424:112,1,103.999995239258
280,80,127872,1,0,0:0:0:0:
112,160,128001,1,0,0:0:0:0:
272,256,128130,1,0,0:0:0:0:
464,40,128389,2,0,P|408:80|400:112,1,103.999995239258
256,152,128648,2,0,P|192:176|144:152,1,103.999995239258
72,280,128906,5,0,0:0:0:0:
72,280,128971,1,0,0:0:0:0:
72,280,129036,1,0,0:0:0:0:
216,312,129165,1,0,0:0:0:0:
360,280,129294,1,0,0:0:0:0:
360,280,129359,1,0,0:0:0:0:
360,280,129424,1,0,0:0:0:0:
240,200,129553,1,0,0:0:0:0:
112,136,129682,2,0,P|88:88|64:72,2,51.999997619629
232,80,129941,5,0,0:0:0:0:
392,104,130070,1,0,0:0:0:0:
208,128,130199,1,0,0:0:0:0:
392,160,130329,1,0,0:0:0:0:
184,176,130458,1,0,0:0:0:0:
392,216,130587,1,0,0:0:0:0:
160,224,130717,1,0,0:0:0:0:
392,272,130846,1,0,0:0:0:0:
248,320,130975,5,0,0:0:0:0:
96,256,131234,2,0,B|80:192|104:160|64:144,1,103.999995239258
160,88,131493,2,0,P|240:64|256:48,1,103.999995239258
312,136,131751,2,0,P|320:208|336:240,2,103.999995239258
400,80,132139,2,0,P|312:48|296:32,2,103.999995239258
424,216,132527,5,0,0:0:0:0:
424,216,132656,1,0,0:0:0:0:
424,216,132786,1,0,0:0:0:0:
424,216,132915,1,0,0:0:0:0:
424,216,133044,1,0,0:0:0:0:
392,224,133109,1,0,0:0:0:0:
360,240,133174,1,0,0:0:0:0:
328,248,133238,1,0,0:0:0:0:
288,248,133303,5,0,0:0:0:0:
256,264,133368,1,0,0:0:0:0:
216,264,133432,1,0,0:0:0:0:
184,248,133497,1,0,0:0:0:0:
160,224,133562,1,0,0:0:0:0:
128,216,133626,1,0,0:0:0:0:
112,184,133691,2,0,P|48:184|24:192,1,51.999997619629
104,144,133820,2,0,P|48:136|24:144,1,51.999997619629
120,104,133949,2,0,P|72:80|64:80,1,51.999997619629
240,64,134079,5,0,0:0:0:0:
360,96,134208,1,0,0:0:0:0:
360,96,134273,1,0,0:0:0:0:
360,96,134337,1,0,0:0:0:0:
432,200,134467,1,0,0:0:0:0:
352,296,134596,1,0,0:0:0:0:
352,296,134661,1,0,0:0:0:0:
352,296,134725,1,0,0:0:0:0:
232,328,134855,5,0,0:0:0:0:
264,208,134984,1,0,0:0:0:0:
144,248,135113,1,0,0:0:0:0:
128,232,135178,1,0,0:0:0:0:
128,208,135243,1,0,0:0:0:0:
136,184,135307,1,0,0:0:0:0:
152,160,135372,1,0,0:0:0:0:
160,136,135437,5,0,0:0:0:0:
184,112,135501,1,0,0:0:0:0:
216,96,135566,1,0,0:0:0:0:
248,88,135630,1,0,0:0:0:0:
280,96,135695,1,0,0:0:0:0:
312,112,135760,1,0,0:0:0:0:
344,120,135824,1,0,0:0:0:0:
376,112,135889,1,0,0:0:0:0:
416,128,135954,1,0,0:0:0:0:
456,152,136018,5,0,0:0:0:0:
440,192,136083,1,0,0:0:0:0:
432,240,136148,1,0,0:0:0:0:
256,296,136277,1,0,0:0:0:0:
96,64,136406,1,0,0:0:0:0:
416,64,136536,1,0,0:0:0:0:
96,296,136665,1,0,0:0:0:0:
416,296,136794,1,0,0:0:0:0:
256,64,136924,1,0,0:0:0:0:
256,296,137053,1,0,0:0:0:0:
152,192,137182,5,0,0:0:0:0:
152,192,137247,1,0,0:0:0:0:
152,192,137312,1,0,0:0:0:0:
296,160,137441,2,0,P|336:128|344:120,2,51.999997619629
96,296,137699,1,0,0:0:0:0:
416,296,137829,1,0,0:0:0:0:
152,192,137958,1,0,0:0:0:0:
360,192,138087,1,0,0:0:0:0:
248,104,138217,5,0,0:0:0:0:
88,208,138346,1,0,0:0:0:0:
272,160,138475,1,0,0:0:0:0:
272,160,138540,1,0,0:0:0:0:
272,160,138605,1,0,0:0:0:0:
88,144,138734,1,0,0:0:0:0:
256,224,138863,1,0,0:0:0:0:
120,96,138993,1,0,0:0:0:0:
208,264,139122,1,0,0:0:0:0:
256,48,139251,5,0,0:0:0:0:
256,320,139380,1,0,0:0:0:0:
357,90,139510,1,0,0:0:0:0:
165,282,139639,1,0,0:0:0:0:
400,191,139768,1,0,0:0:0:0:
128,192,139897,1,0,0:0:0:0:
357,293,140027,1,0,0:0:0:0:
165,101,140156,1,0,0:0:0:0:
256,48,140286,5,0,0:0:0:0:
357,277,140416,1,0,0:0:0:0:
165,85,140545,1,0,0:0:0:0:
400,176,140674,1,0,0:0:0:0:
128,176,140803,1,0,0:0:0:0:
357,74,140933,1,0,0:0:0:0:
165,266,141062,1,0,0:0:0:0:
256,152,141191,1,0,0:0:0:0:
256,296,141320,5,0,0:0:0:0:
256,296,141385,1,0,0:0:0:0:
256,296,141449,1,0,0:0:0:0:
240,296,141514,1,0,0:0:0:0:
216,296,141579,1,0,0:0:0:0:
200,304,141643,1,0,0:0:0:0:
176,304,141708,1,0,0:0:0:0:
160,288,141773,1,0,0:0:0:0:
128,280,141837,5,0,0:0:0:0:
120,248,141902,1,0,0:0:0:0:
96,224,141967,1,0,0:0:0:0:
96,184,142031,1,0,0:0:0:0:
80,152,142096,1,0,0:0:0:0:
184,80,142225,5,0,0:0:0:0:
320,136,142355,1,0,0:0:0:0:
320,136,142419,1,0,0:0:0:0:
320,136,142484,1,0,0:0:0:0:
424,304,142613,1,0,0:0:0:0:
320,136,142743,1,0,0:0:0:0:
424,304,142872,2,0,P|368:312|320:280,2,103.999995239258
440,144,143260,1,0,0:0:0:0:
328,248,143389,5,0,0:0:0:0:
328,248,143454,1,0,0:0:0:0:
328,248,143518,1,0,0:0:0:0:
176,272,143648,1,0,0:0:0:0:
72,160,143777,1,0,0:0:0:0:
72,160,143842,1,0,0:0:0:0:
72,160,143906,1,0,0:0:0:0:
216,104,144036,1,0,0:0:0:0:
368,88,144165,6,0,P|416:56|432:56,2,51.999997619629
218,128,144424,1,0,0:0:0:0:
383,157,144553,1,0,0:0:0:0:
354,323,144682,1,0,0:0:0:0:
189,293,144812,1,0,0:0:0:0:
248,118,144941,1,0,0:0:0:0:
386,214,145070,1,0,0:0:0:0:
290,352,145199,1,0,0:0:0:0:
152,256,145329,1,0,0:0:0:0:
112,120,145458,5,0,0:0:0:0:
112,120,145523,1,0,0:0:0:0:
112,120,145587,1,0,0:0:0:0:
48,256,145717,1,0,0:0:0:0:
176,192,145846,1,0,0:0:0:0:
176,192,145911,1,0,0:0:0:0:
176,192,145975,1,0,0:0:0:0:
312,144,146105,1,0,0:0:0:0:
440,80,146234,6,0,P|448:144|456:152,2,51.999997619629
296,72,146493,1,0,0:0:0:0:
112,224,146622,1,0,0:0:0:0:
344,312,146751,1,0,0:0:0:0:
379,166,146880,1,0,0:0:0:0:
156,83,147009,1,0,0:0:0:0:
196,328,147138,1,0,0:0:0:0:
296,72,147268,1,0,0:0:0:0:
196,328,147398,1,0,0:0:0:0:
256,192,147527,5,0,0:0:0:0:
256,192,147786,1,0,0:0:0:0:
256,192,148044,1,0,0:0:0:0:
256,192,148303,1,0,0:0:0:0:
256,192,148562,1,0,0:0:0:0:
256,192,148820,12,0,149596,0:0:0:0:
