osu file format v12

[General]
AudioFilename: Nightcore - Cant Control Myself.mp3
AudioLeadIn: 0
PreviewTime: -1
Countdown: 1
SampleSet: None
StackLeniency: 0.7
Mode: 0
LetterboxInBreaks: 1
WidescreenStoryboard: 1

[Editor]
DistanceSpacing: 0.8
BeatDivisor: 4
GridSize: 8
TimelineZoom: 1

[Metadata]
Title:Can't Control Myself (Nightcore)
TitleUnicode:Can't Control Myself (Nightcore)
Artist:Krewella
ArtistUnicode:Krewella
Creator:Firstus
Version:Shinys Hard
Source:
Tags:
BeatmapID:400334
BeatmapSetID:128622

[Difficulty]
HPDrainRate:5
CircleSize:4
OverallDifficulty:5
ApproachRate:7
SliderMultiplier:1.3
SliderTickRate:1

[Events]
//Background and Video events
//Break Periods
2,75313,80420
//Storyboard Layer 0 (Background)
//Storyboard Layer 1 (Fail)
//Storyboard Layer 2 (Pass)
//Storyboard Layer 3 (Foreground)
//Storyboard Sound Samples
//Background Colour Transformations
3,100,163,162,255

[TimingPoints]
631,258.620689655172,4,1,0,100,1,0
6837,-100,4,2,0,75,0,0
25458,-133.333333333333,4,2,0,45,0,0
33734,-120.481927710843,4,2,0,55,0,0
42010,-83.3333333333333,4,2,0,55,0,1
73044,-83.3333333333333,4,2,0,55,0,0
81320,-100,4,2,0,55,0,0
99941,-100,4,2,0,55,0,1
99942,-100,4,2,0,55,0,0
116493,-83.3333333333333,4,2,0,55,0,1
149596,-100,4,2,0,55,0,0

[Colours]
Combo1 : 255,128,128
Combo2 : 0,128,255
Combo3 : 255,255,128

[HitObjects]
408,320,6837,5,0,0:0:0:0:
288,320,7096,2,0,L|224:320,2,65
352,208,7613,1,0,0:0:0:0:
224,216,7872,2,0,L|176:264,2,65
88,216,8389,1,0,0:0:0:0:
88,216,8648,1,0,0:0:0:0:
40,128,8906,6,0,P|88:80|160:64,1,130
256,128,9424,2,0,L|256:56,2,65
256,256,9941,1,0,0:0:0:0:
440,72,10458,5,0,0:0:0:0:
344,160,10717,1,0,0:0:0:0:
440,248,10975,2,0,P|416:296|336:344,2,130
440,120,11751,5,0,0:0:0:0:
328,64,12010,2,0,P|280:56|192:96,1,130
88,144,12527,1,0,0:0:0:0:
56,200,12656,1,0,0:0:0:0:
96,248,12786,1,0,0:0:0:0:
208,320,13044,5,0,0:0:0:0:
336,320,13303,1,0,0:0:0:0:
272,208,13562,1,0,0:0:0:0:
320,168,13691,1,0,0:0:0:0:
368,128,13820,2,0,P|352:88|264:48,1,130
64,192,14596,5,0,0:0:0:0:
152,288,14855,1,0,0:0:0:0:
248,200,15113,1,0,0:0:0:0:
248,136,15243,1,0,0:0:0:0:
248,72,15372,1,0,0:0:0:0:
376,72,15630,5,0,0:0:0:0:
456,176,15889,1,0,0:0:0:0:
408,296,16148,2,0,P|368:320|328:320,2,65
440,240,16536,1,0,0:0:0:0:
440,176,16665,1,0,0:0:0:0:
408,120,16794,1,0,0:0:0:0:
216,88,17182,6,0,P|192:128|104:144,2,130
280,88,17829,1,0,0:0:0:0:
344,88,17958,1,0,0:0:0:0:
472,88,18217,1,0,0:0:0:0:
344,312,18734,5,0,0:0:0:0:
224,256,18993,1,0,0:0:0:0:
120,328,19251,1,0,0:0:0:0:
88,200,19510,1,0,0:0:0:0:
176,104,19768,2,0,P|208:80|304:48,1,130
432,40,20286,5,0,0:0:0:0:
432,104,20415,1,0,0:0:0:0:
416,168,20544,1,0,0:0:0:0:
368,288,20803,2,0,P|312:320|224:320,2,130
416,168,21579,5,0,0:0:0:0:
296,120,21837,2,0,P|256:96|208:96,2,65
224,232,22355,1,0,0:0:0:0:
456,344,22872,5,0,0:0:0:0:
328,344,23130,2,0,P|248:344|176:320,1,130
96,256,23648,1,0,0:0:0:0:
176,152,23906,6,0,P|192:112|184:72,2,65
304,144,24424,1,0,0:0:0:0:
304,144,24553,1,0,0:0:0:0:
304,144,24682,1,0,0:0:0:0:
384,248,24941,1,0,0:0:0:0:
216,336,25458,6,0,B|160:320|120:320|112:320|112:304|104:280|72:208,2,195.00000743866
312,336,26751,1,0,0:0:0:0:
392,280,27010,2,0,L|416:256,1,24.3750009298325
384,192,27268,2,0,L|408:168,1,24.3750009298325
440,104,27527,2,0,B|400:72|352:88|304:144|248:96,2,195.00000743866
448,216,28820,5,0,0:0:0:0:
392,296,29079,2,0,P|336:328|296:336,1,97.50000371933
208,328,29596,1,0,0:0:0:0:
128,272,29855,5,0,0:0:0:0:
144,176,30113,2,0,P|168:120|200:80,1,97.50000371933
288,56,30630,1,0,0:0:0:0:
328,88,30760,1,0,0:0:0:0:
352,128,30889,1,0,0:0:0:0:
360,224,31148,5,0,0:0:0:0:
360,224,31406,2,0,P|328:256|272:272,1,97.50000371933
184,264,31924,1,0,0:0:0:0:
112,200,32182,5,0,0:0:0:0:
184,264,32441,1,0,0:0:0:0:
272,296,32699,1,0,0:0:0:0:
368,296,32958,2,0,P|416:272|440:224,2,97.50000371933
344,192,33734,6,0,B|312:168|304:136|304:96|304:96|240:112|192:64,2,221.000004215241
360,304,35027,1,0,0:0:0:0:
264,256,35286,1,0,0:0:0:0:
168,304,35544,1,0,0:0:0:0:
112,240,35803,2,0,B|112:184|144:168|120:128,1,107.900001564102
200,80,36320,2,0,B|240:56|256:56|272:96|320:64,2,110.50000210762
120,160,37096,5,0,0:0:0:0:
128,272,37355,2,0,L|72:320,2,55.2500010538101
216,200,37872,1,0,0:0:0:0:
296,280,38130,1,0,0:0:0:0:
384,216,38389,1,0,0:0:0:0:
296,144,38648,1,0,0:0:0:0:
384,216,38906,1,0,0:0:0:0:
440,120,39165,5,0,0:0:0:0:
408,80,39294,1,0,0:0:0:0:
360,56,39424,1,0,0:0:0:0:
248,40,39682,2,0,P|216:56|160:112,1,110.50000210762
104,200,40199,5,0,0:0:0:0:
160,296,40458,2,0,L|208:312,1,27.6250005269051
264,288,40717,2,0,L|304:304,1,27.6250005269051
368,328,40975,1,0,0:0:0:0:
424,232,41234,2,0,P|440:160|416:128,2,110.50000210762
272,200,42010,6,0,P|232:152|256:64,2,155.999995239258
400,200,42786,2,0,P|400:248|312:312,1,155.999995239258
200,320,43303,1,0,0:0:0:0:
144,296,43432,1,0,0:0:0:0:
128,240,43562,1,0,0:0:0:0:
240,184,43820,5,0,0:0:0:0:
216,128,43949,1,0,0:0:0:0:
240,72,44079,2,0,P|312:48|392:72,2,155.999995239258
344,136,44855,1,0,0:0:0:0:
432,224,45113,2,0,B|384:240|392:272|392:320|352:328|320:320,2,155.999995239258
344,136,45889,1,0,0:0:0:0:
224,120,46148,6,0,B|184:152|64:104|64:104|96:192|112:224|80:264,2,311.999990478516
344,136,47441,1,0,0:0:0:0:
328,256,47699,1,0,0:0:0:0:
272,280,47829,1,0,0:0:0:0:
216,256,47958,1,0,0:0:0:0:
256,192,48217,12,0,49898,0:0:0:0:
360,272,50286,5,0,0:0:0:0:
288,168,50544,2,0,P|232:128|128:144,1,155.999995239258
152,240,51062,1,0,0:0:0:0:
192,288,51191,1,0,0:0:0:0:
248,312,51320,2,0,B|312:280|272:224|392:240,1,155.999995239258
376,112,51837,5,0,0:0:0:0:
256,72,52096,1,0,0:0:0:0:
312,184,52355,2,0,B|360:216|360:216|320:272|320:272|360:304,2,155.999995239258
192,160,53130,1,0,0:0:0:0:
120,264,53389,5,0,0:0:0:0:
176,296,53518,1,0,0:0:0:0:
240,296,53648,1,0,0:0:0:0:
352,240,53906,2,0,P|400:208|416:288,2,155.999995239258
248,176,54682,5,0,0:0:0:0:
144,104,54941,2,0,B|136:160|160:200|160:200|104:224,1,155.999995239258
80,344,55458,1,0,0:0:0:0:
208,344,55717,1,0,0:0:0:0:
328,320,55975,5,0,0:0:0:0:
376,280,56105,1,0,0:0:0:0:
384,216,56234,1,0,0:0:0:0:
384,88,56493,1,0,0:0:0:0:
256,80,56751,5,0,0:0:0:0:
144,192,57010,1,0,0:0:0:0:
296,216,57268,1,0,0:0:0:0:
296,216,57398,1,0,0:0:0:0:
296,216,57527,2,0,P|328:264|304:368,2,155.999995239258
216,120,58303,5,0,0:0:0:0:
160,104,58432,1,0,0:0:0:0:
112,144,58562,1,0,0:0:0:0:
96,264,58820,2,0,P|192:272|240:328,1,155.999995239258
360,304,59337,1,0,0:0:0:0:
360,304,59596,2,0,B|320:248|328:224|392:200|416:168|416:128|376:112|344:80|328:64|344:40|376:16,2,311.999990478516
256,192,60889,12,0,62312,0:0:0:0:
256,192,62699,5,0,0:0:0:0:
360,264,62958,1,0,0:0:0:0:
360,264,63217,2,0,P|400:240|448:144,1,155.999995239258
344,80,63734,2,0,P|296:72|176:88,1,155.999995239258
128,192,64251,2,0,P|168:256|272:280,1,155.999995239258
368,264,64768,2,0,B|320:232|272:216|224:176|152:136|160:64|200:16|272:0|360:8|400:48|368:128|336:160|216:240,2,623.999980957032
256,360,67096,5,0,0:0:0:0:
200,248,67355,2,0,L|176:208,4,38.9999988098145
328,240,67872,2,0,P|384:200|408:104,1,155.999995239258
288,144,68389,2,0,P|200:120|112:144,2,155.999995239258
256,264,69165,5,0,0:0:0:0:
152,192,69424,1,0,0:0:0:0:
232,96,69682,1,0,0:0:0:0:
344,144,69941,5,0,0:0:0:0:
384,192,70070,1,0,0:0:0:0:
344,240,70199,1,0,0:0:0:0:
256,328,70458,5,0,0:0:0:0:
200,304,70587,1,0,0:0:0:0:
152,264,70717,2,0,P|128:232|120:192,2,77.999997619629
256,192,71234,1,0,0:0:0:0:
344,96,71493,6,0,P|392:80|496:112,2,155.999995239258
280,96,72139,1,0,0:0:0:0:
216,112,72268,1,0,0:0:0:0:
144,208,72527,1,0,0:0:0:0:
192,328,72786,1,0,0:0:0:0:
320,328,73044,5,0,0:0:0:0:
424,256,73303,1,0,0:0:0:0:
336,168,73562,1,0,0:0:0:0:
424,80,73820,1,0,0:0:0:0:
304,48,74079,5,0,0:0:0:0:
240,48,74208,1,0,0:0:0:0:
176,48,74337,1,0,0:0:0:0:
72,120,74596,2,0,P|80:176|160:248,2,155.999995239258
256,192,81320,12,0,83130,0:0:0:0:
256,184,83389,6,0,P|288:168|392:168,2,130
176,256,84165,1,0,0:0:0:0:
128,240,84294,1,0,0:0:0:0:
96,200,84424,2,0,P|88:152|128:72,1,130
224,56,84941,5,0,0:0:0:0:
320,96,85199,1,0,0:0:0:0:
296,200,85458,1,0,0:0:0:0:
392,248,85717,2,0,B|360:296|336:304|312:312|296:352,1,130
200,320,86234,5,0,0:0:0:0:
136,240,86493,2,0,P|120:192|120:160,2,65
232,200,87010,1,0,0:0:0:0:
392,64,87527,6,0,P|416:104|424:128,2,65
288,56,88044,1,0,0:0:0:0:
184,56,88303,2,0,P|160:80|112:184,1,130
256,320,89079,5,0,0:0:0:0:
352,288,89337,1,0,0:0:0:0:
400,200,89596,1,0,0:0:0:0:
360,112,89855,1,0,0:0:0:0:
312,88,89984,1,0,0:0:0:0:
264,80,90113,1,0,0:0:0:0:
160,80,90372,6,0,P|120:112|80:192,2,130
224,160,91148,2,0,L|272:216,2,65
136,216,91665,1,0,0:0:0:0:
176,312,91924,1,0,0:0:0:0:
280,328,92182,5,0,0:0:0:0:
328,304,92312,1,0,0:0:0:0:
368,272,92441,2,0,P|384:232|384:136,1,130
200,48,93217,2,0,P|160:64|128:104,1,65
120,120,93475,1,0,0:0:0:0:
136,224,93734,6,0,P|96:256|8:272,2,130
240,200,94510,1,0,0:0:0:0:
344,200,94768,1,0,0:0:0:0:
400,112,95027,5,0,0:0:0:0:
360,72,95156,1,0,0:0:0:0:
312,56,95286,2,0,B|280:80|256:96|256:96|224:80|168:72,1,130
96,88,95803,1,0,0:0:0:0:
144,184,96062,1,0,0:0:0:0:
80,264,96320,2,0,P|104:288|208:296,1,130
296,288,96837,1,0,0:0:0:0:
352,88,97355,5,0,0:0:0:0:
248,72,97613,2,0,L|176:64,2,65
192,160,98130,1,0,0:0:0:0:
120,240,98389,1,0,0:0:0:0:
208,304,98648,5,0,0:0:0:0:
256,320,98777,1,0,0:0:0:0:
304,328,98906,2,0,P|360:320|424:264,2,130
240,128,99941,6,8,B|248:56|248:56|328:128|328:128|344:40,2,260
152,192,101234,1,8,0:0:0:0:
216,272,101493,2,8,B|256:256|280:264|304:288|336:280|352:272,1,130
400,192,102010,1,8,0:0:0:0:
344,104,102268,2,8,B|320:80|272:96|240:64|208:40,1,130
128,96,102786,2,8,P|104:136|128:224,1,130
200,280,103303,5,8,0:0:0:0:
248,280,103432,1,8,0:0:0:0:
304,272,103562,1,8,0:0:0:0:
368,192,103820,1,8,0:0:0:0:
304,112,104079,1,8,0:0:0:0:
200,88,104337,5,8,0:0:0:0:
216,192,104596,1,8,0:0:0:0:
120,160,104855,1,8,0:0:0:0:
80,256,105113,2,8,P|104:320|168:344,2,130
120,160,105889,1,8,0:0:0:0:
200,96,106148,2,8,P|272:80|328:96,1,130
400,160,106665,5,8,0:0:0:0:
336,240,106924,2,8,L|400:280,2,65
256,312,107441,1,8,0:0:0:0:
208,312,107570,1,8,0:0:0:0:
160,296,107699,1,8,0:0:0:0:
96,216,107958,6,0,B|72:160|112:136|128:88,1,130
224,64,108475,2,0,B|376:-8|392:40|304:128|296:144|384:104|432:136|424:112|496:128|432:200|368:224,1,390
360,304,109510,1,0,0:0:0:0:
256,288,109768,1,0,0:0:0:0:
152,304,110027,1,0,0:0:0:0:
104,208,110286,1,0,0:0:0:0:
200,176,110544,2,0,B|168:136|160:96|160:56|192:48|216:136|248:112|272:128|280:72|312:64|328:56|352:120|320:160|288:176|264:200|232:232,1,390
256,328,111579,5,0,0:0:0:0:
352,280,111837,2,0,L|400:336,2,65
288,200,112355,1,0,0:0:0:0:
360,120,112613,1,0,0:0:0:0:
264,80,112872,2,0,B|208:72|208:88|152:112|136:72,1,130
88,168,113389,5,0,0:0:0:0:
80,216,113518,1,0,0:0:0:0:
96,264,113648,1,0,0:0:0:0:
192,312,113906,2,0,B|248:296|280:296|288:320|336:296,2,130
216,208,114682,1,0,0:0:0:0:
216,104,114941,2,0,P|248:80|344:64,2,130
216,208,115717,2,0,P|160:248|88:256,2,130
296,112,116493,5,0,0:0:0:0:
392,192,116751,2,0,B|384:240|344:256|328:304|344:336,1,155.999995239258
216,320,117268,1,0,0:0:0:0:
216,320,117398,1,0,0:0:0:0:
216,320,117527,2,0,B|168:288|136:280|96:248|96:192,2,155.999995239258
256,200,118303,1,0,0:0:0:0:
192,96,118562,6,0,P|256:72|344:88,1,155.999995239258
408,192,119079,1,0,0:0:0:0:
408,192,119337,1,0,0:0:0:0:
304,264,119596,2,0,B|256:264|176:280|168:336|128:256|120:192|176:168|256:232,2,311.999990478516
408,192,120889,5,0,0:0:0:0:
320,104,121148,2,0,P|264:80|160:96,1,155.999995239258
104,192,121665,1,0,0:0:0:0:
168,192,121794,1,0,0:0:0:0:
232,192,121924,1,0,0:0:0:0:
240,320,122182,2,0,P|296:336|392:296,1,155.999995239258
256,192,122699,12,0,124510,0:0:0:0:
72,136,124768,6,0,P|112:96|216:64,1,155.999995239258
200,192,125286,2,0,P|240:240|336:264,1,155.999995239258
432,200,125803,1,0,0:0:0:0:
408,144,125932,1,0,0:0:0:0:
360,104,126062,1,0,0:0:0:0:
240,80,126320,2,0,B|192:80|152:64|136:112|88:112,1,155.999995239258
64,232,126837,6,0,P|88:296|192:312,1,155.999995239258
288,320,127355,1,0,0:0:0:0:
384,248,127613,1,0,0:0:0:0:
328,136,127872,2,0,L|368:120,4,38.9999988098145
216,88,128389,2,0,P|152:88|80:152,1,155.999995239258
88,272,128906,6,0,P|152:248|256:256,1,155.999995239258
160,344,129424,2,0,P|232:352|320:312,1,155.999995239258
424,280,129941,1,0,0:0:0:0:
424,216,130070,1,0,0:0:0:0:
384,168,130199,1,0,0:0:0:0:
288,248,130458,1,0,0:0:0:0:
288,248,130587,1,0,0:0:0:0:
288,248,130717,2,0,P|216:264|128:240,1,155.999995239258
136,120,131234,5,0,0:0:0:0:
256,88,131493,2,0,L|296:88,1,38.9999988098145
312,176,131751,2,0,L|360:176,1,38.9999988098145
416,240,132010,2,0,P|368:304|280:320,2,155.999995239258
424,176,132656,1,0,0:0:0:0:
400,120,132786,1,0,0:0:0:0:
280,80,133044,2,0,B|232:104|168:160|152:232|208:304|304:248|416:160|160:112,1,467.999985717774
64,192,134079,5,0,0:0:0:0:
128,296,134337,1,0,0:0:0:0:
232,232,134596,1,0,0:0:0:0:
344,288,134855,2,0,B|368:256|432:208|432:152,1,155.999995239258
328,88,135372,6,0,B|272:120|224:48|128:48|120:96|136:184|160:208|80:224,1,311.999990478516
160,328,136148,2,0,L|120:328,4,38.9999988098145
256,248,136665,1,0,0:0:0:0:
360,184,136924,2,0,P|384:104|352:40,2,155.999995239258
256,248,137699,6,0,L|288:288,4,38.9999988098145
168,160,138217,1,0,0:0:0:0:
128,208,138346,1,0,0:0:0:0:
120,272,138475,2,0,P|152:320|256:336,1,155.999995239258
368,312,138993,1,0,0:0:0:0:
256,192,139251,12,0,141062,0:0:0:0:
256,192,141320,5,0,0:0:0:0:
144,128,141579,1,0,0:0:0:0:
144,128,141708,1,0,0:0:0:0:
144,128,141837,1,0,0:0:0:0:
136,256,142096,2,0,P|192:320|264:328,1,155.999995239258
376,280,142613,5,0,0:0:0:0:
376,152,142872,2,0,B|344:128|336:80|272:80|256:48,1,155.999995239258
136,64,143389,1,0,0:0:0:0:
200,176,143648,1,0,0:0:0:0:
120,272,143906,1,0,0:0:0:0:
240,312,144165,5,0,0:0:0:0:
344,256,144424,2,0,B|304:200|344:176|360:200|416:176|392:128|336:128|288:104|296:80|344:96|384:64|392:56|456:128,2,311.999990478516
256,168,145717,1,0,0:0:0:0:
152,104,145975,2,0,P|96:128|80:224,1,155.999995239258
136,320,146493,2,0,B|176:320|224:280|240:248|320:232|392:288|344:344|256:352,2,311.999990478516
96,216,147786,5,0,0:0:0:0:
184,128,148044,1,0,0:0:0:0:
264,224,148303,1,0,0:0:0:0:
384,184,148562,1,0,0:0:0:0:
360,128,148691,1,0,0:0:0:0:
304,96,148820,1,0,0:0:0:0:
192,48,149079,2,0,B|144:48|88:40|80:80|24:48,2,155.999995239258
