osu file format v12

[General]
AudioFilename: Nightcore - Cant Control Myself.mp3
AudioLeadIn: 0
PreviewTime: -1
Countdown: 0
SampleSet: None
StackLeniency: 0.7
Mode: 0
LetterboxInBreaks: 1
WidescreenStoryboard: 1

[Editor]
DistanceSpacing: 0.5
BeatDivisor: 4
GridSize: 8
TimelineZoom: 1

[Metadata]
Title:Can't Control Myself (Nightcore)
TitleUnicode:Can't Control Myself (Nightcore)
Artist:Krewella
ArtistUnicode:Krewella
Creator:Firstus
Version:RLC
Source:
Tags:
BeatmapID:400333
BeatmapSetID:128622

[Difficulty]
HPDrainRate:7
CircleSize:4
OverallDifficulty:8
ApproachRate:10
SliderMultiplier:1.9
SliderTickRate:1

[Events]
//Background and Video events
//Break Periods
2,25658,33284
2,75313,80870
2,100141,107767
//Storyboard Layer 0 (Background)
//Storyboard Layer 1 (Fail)
//Storyboard Layer 2 (Pass)
//Storyboard Layer 3 (Foreground)
//Storyboard Sound Samples
//Background Colour Transformations
3,100,163,162,255

[TimingPoints]
631,258.620689655172,4,1,0,80,1,0
6837,-133.333333333333,4,1,0,60,0,0
8906,-133.333333333333,4,2,0,60,0,0
24424,-133.333333333333,4,1,0,60,0,0
33734,-200,4,1,0,60,0,0
39941,-166.666666666667,4,1,0,60,0,0
40458,-125,4,1,0,60,0,0
40975,-100,4,1,0,60,0,0
42010,-100,4,1,0,80,0,1
73044,-100,4,1,0,80,0,0
81320,-133.333333333333,4,1,0,60,0,0
83389,-133.333333333333,4,2,0,60,0,0
99941,-100,4,1,0,80,0,1
99942,-100,4,1,0,80,0,0
108217,-200,4,1,0,80,0,0
114424,-166.666666666667,4,1,0,80,0,0
114941,-125,4,1,0,80,0,0
115458,-100,4,1,0,80,0,0
116493,-100,4,1,0,80,0,1
149596,-100,4,1,0,80,0,0

[HitObjects]
368,81,6837,6,0,L|520:59,2,142.500005435944
306,147,7484,2,0,L|296:240,1,71.2500027179719,0|2,0:0|2:0,0:0:0:0:
466,356,7743,6,0,P|486:298|460:202,1,142.500005435944
396,169,8130,1,2,2:0:0:0:
358,331,8260,2,0,L|268:348,1,71.2500027179719
144,256,8518,2,0,L|234:273,1,71.2500027179719,0|2,0:0|0:2,0:0:0:0:
307,238,8777,1,2,0:2:0:0:
166,356,8906,5,0,1:0:0:0:
51,80,9165,1,0,0:0:0:0:
138,115,9294,2,0,L|157:202,2,71.2500027179719,0|8|0,0:0|0:0|0:0,0:0:0:0:
218,80,9682,2,0,B|291:66|280:113|374:90,2,142.500005435944,0|0|0,0:0|1:0|0:0,0:0:0:0:
332,16,10329,5,0,0:0:0:0:
244,235,10458,2,0,P|237:193|237:156,1,71.2500027179719,8|0,0:0|0:0,0:0:0:0:
433,40,10717,2,0,P|440:82|440:119,1,71.2500027179719
489,212,10975,6,0,L|333:196,1,142.500005435944,0|0,1:0|0:0,0:0:0:0:
343,290,11363,2,0,P|337:330|348:377,1,71.2500027179719,0|8,0:0|0:0,0:0:0:0:
341,360,11751,1,0,0:0:0:0:
256,135,12010,5,0,1:0:0:0:
177,167,12139,2,0,P|127:169|37:104,1,142.500005435944,2|2,0:0|0:0,0:0:0:0:
47,239,12527,2,0,L|34:320,1,71.2500027179719,8|2,0:0|0:0,0:0:0:0:
152,306,12786,2,0,L|164:377,1,71.2500027179719,0|2,0:0|0:0,0:0:0:0:
142,70,13044,5,0,1:0:0:0:
342,262,13303,1,0,0:0:0:0:
407,207,13432,2,0,P|414:168|415:124,2,71.2500027179719,0|8|0,0:0|0:0|0:0,0:0:0:0:
342,262,13820,2,0,P|290:266|211:333,2,142.500005435944,0|0|0,0:0|1:0|0:0,0:0:0:0:
314,361,14467,5,0,0:0:0:0:
117,270,14596,2,0,L|103:187,1,71.2500027179719,8|0,0:0|0:0,0:0:0:0:
286,17,14855,2,0,L|300:100,1,71.2500027179719
210,210,15113,6,0,L|184:43,1,142.500005435944,0|0,1:0|0:0,0:0:0:0:
98,125,15501,1,0,0:0:0:0:
299,159,15630,2,0,B|378:140|368:194|455:164,1,142.500005435944,8|0,0:0|0:0,0:0:0:0:
438,169,16148,6,0,L|456:272,1,71.2500027179719,0|2,1:0|0:0,0:0:0:0:
319,314,16406,2,0,L|336:211,1,71.2500027179719,0|2,0:0|0:0,0:0:0:0:
410,83,16665,2,0,P|346:83|263:20,1,142.500005435944,0|2,0:0|0:0,0:0:0:0:
50,224,17182,6,0,L|212:205,1,142.500005435944,4|2,1:2|0:1,0:0:0:0:
100,310,17570,2,0,L|21:323,2,71.2500027179719,0|8|0,0:0|0:0|0:0,0:0:0:0:
149,126,17958,2,0,L|228:113,2,71.2500027179719,2|0|0,0:1|0:0|1:0,0:0:0:0:
149,126,18475,1,2,0:1:0:0:
430,39,18734,2,0,P|442:98|416:184,1,142.500005435944,8|2,0:0|0:1,0:0:0:0:
369,253,19122,1,0,0:0:0:0:
464,256,19251,6,0,L|451:326,1,71.2500027179719,0|0,1:0|0:0,0:0:0:0:
335,163,19510,1,2,0:1:0:0:
48,128,19768,6,0,L|60:57,1,71.2500027179719,8|0,0:0|0:0,0:0:0:0:
177,221,20027,1,2,0:1:0:0:
177,221,20286,6,0,L|165:313,1,71.2500027179719,0|2,1:0|0:0,0:0:0:0:
90,235,20544,1,2,0:1:0:0:
258,314,20674,2,0,P|299:285|402:293,1,142.500005435944,2|2,0:0|0:0,0:0:0:0:
482,321,21062,2,0,L|470:229,1,71.2500027179719,2|2,0:1|0:0,0:0:0:0:
344,384,21320,5,4,1:2:0:0:
499,111,21579,1,2,0:0:0:0:
499,111,21708,2,0,L|397:131,1,71.2500027179719,0|10,0:0|0:0,0:0:0:0:
256,156,21967,1,0,0:0:0:0:
331,221,22096,2,0,B|351:173|351:173|330:85,2,142.500005435944,2|0|2,0:0|1:0|0:0,0:0:0:0:
243,272,22743,1,0,0:0:0:0:
337,316,22872,2,0,L|421:330,1,71.2500027179719,2|0,0:0|0:0,0:0:0:0:
243,272,23130,2,0,L|159:286,1,71.2500027179719,2|0,0:0|0:0,0:0:0:0:
106,361,23389,6,0,B|78:294|78:294|97:221,1,142.500005435944,4|2,1:2|0:1,0:0:0:0:
186,183,23777,1,0,0:0:0:0:
129,105,23906,2,0,L|45:93,1,71.2500027179719,10|0,0:0|0:0,0:0:0:0:
274,189,24165,2,0,L|358:177,1,71.2500027179719,2|0,0:1|0:0,0:0:0:0:
512,132,24424,5,0,1:0:0:0:
436,90,24553,2,2,B|426:144|426:144|434:169|434:169|419:237,1,142.500005435944,2|2,2:0|2:1,0:0:0:0:
452,323,24941,2,2,B|337:296|354:366|213:339,1,213.750008153916,8|2,2:0|2:1,0:0:0:0:
40,192,25458,5,4,0:0:0:0:
88,80,33734,5,4,0:3:0:0:
88,80,34251,2,0,B|66:149|66:149|96:215,1,142.5,8|8,0:0|0:0,0:0:0:0:
168,336,34768,2,0,L|178:241,2,95,0|0|8,0:0|0:0|0:0,0:0:0:0:
175,140,35544,1,2,2:0:0:0:
501,249,35803,5,4,1:3:0:0:
501,249,36320,2,0,L|392:263,1,95,8|0,1:0|1:0,0:0:0:0:
313,237,36708,1,8,1:0:0:0:
313,237,36837,2,0,L|305:304,1,47.5,0|8,1:0|1:0,0:0:0:0:
385,168,37096,1,0,1:0:0:0:
385,168,37355,2,0,L|397:66,1,95,8|2,1:0|2:0,1:0:0:0:
22,91,37872,5,0,0:0:0:0:
140,110,38130,1,0,0:0:0:0:
336,133,38389,5,0,0:0:0:0:
218,152,38647,1,0,0:0:0:0:
23,179,38906,5,0,0:0:0:0:
141,198,39164,1,0,0:0:0:0:
337,221,39423,5,0,0:0:0:0:
219,240,39681,1,0,0:0:0:0:
78,312,39941,6,0,L|89:243,1,56.9999982604981
132,142,40199,2,0,L|143:211,1,56.9999982604981
178,339,40458,6,0,L|195:237,1,76
238,111,40717,2,0,L|255:213,1,76
284,370,40975,6,0,L|302:259,1,95
361,79,41234,1,0,0:0:0:0:
449,170,41363,1,0,0:0:0:0:
483,37,41493,1,8,0:0:0:0:
56,344,42010,6,2,P|92:308|242:312,1,190,4|8,0:0|0:2,0:0:0:0:
319,303,42398,1,8,0:0:0:0:
264,131,42527,2,2,B|255:178|255:178|269:226,1,95,4|2,0:3|0:0,0:0:0:0:
357,172,42786,1,10,0:0:0:0:
165,199,42915,1,2,2:0:0:0:
346,71,43044,5,4,0:2:0:0:
433,232,43174,1,2,0:2:0:0:
430,250,43238,1,2,0:2:0:0:
427,268,43303,1,4,0:2:0:0:
482,123,43432,1,8,0:0:0:0:
284,219,43562,5,4,0:2:0:0:
256,40,43691,1,2,0:2:0:0:
244,317,43820,5,8,0:0:0:0:
264,130,43949,1,2,0:2:0:0:
14,258,44079,6,2,B|91:240|91:240|129:252|129:252|207:235,1,190,4|8,0:0|0:2,0:0:0:0:
70,343,44467,1,8,0:0:0:0:
172,57,44596,2,2,L|159:169,1,95,4|0,0:3|0:0,0:0:0:0:
264,130,44855,1,10,0:0:0:0:
64,83,44984,1,2,0:0:0:0:
455,371,45113,6,0,P|478:332|488:277,1,95,4|2,0:2|0:2,0:0:0:0:
413,168,45372,1,4,0:2:0:0:
323,238,45501,1,8,0:0:0:0:
355,102,45630,5,4,0:2:0:0:
399,295,45760,1,8,0:0:0:0:
236,220,45889,5,8,0:0:0:0:
505,198,46018,1,2,0:2:0:0:
274,0,46148,6,2,P|215:31|174:150,1,190,4|8,0:0|0:2,0:0:0:0:
247,299,46536,1,8,0:0:0:0:
81,368,46665,2,2,L|65:269,1,95,4|2,0:3|0:0,0:0:0:0:
14,110,46924,1,10,0:0:0:0:
173,141,47053,1,2,0:0:0:0:
66,274,47182,5,4,0:2:0:0:
173,141,47312,1,2,0:2:0:0:
178,123,47376,1,2,0:2:0:0:
182,104,47441,1,4,0:2:0:0:
94,80,47570,1,8,0:0:0:0:
261,180,47699,5,4,0:2:0:0:
83,173,47829,1,2,0:2:0:0:
274,83,47958,5,8,0:0:0:0:
247,299,48087,1,2,0:2:0:0:
368,224,48217,6,0,P|413:210|464:208,1,95,0|8,0:0|2:0,0:0:0:0:
499,142,48475,1,2,2:0:0:0:
445,87,48605,2,0,P|402:51|264:36,1,190,0|2,0:0|2:0,0:0:0:0:
211,79,48993,1,0,0:0:0:0:
211,79,49122,1,8,2:0:0:0:
328,227,49251,6,0,P|313:172|290:124,2,95,0|8|2,0:0|2:0|2:0,0:0:0:0:
312,301,49639,1,0,0:0:0:0:
375,342,49768,2,0,P|431:354|489:356,1,95,8|8,0:2|0:2,0:0:0:0:
376,342,50027,1,8,0:0:0:0:
177,382,50156,1,2,0:0:0:0:
156,203,50286,6,2,P|156:155|97:66,1,142.5,4|0,0:0|0:0,0:0:0:0:
85,59,50544,1,0,0:0:0:0:
51,169,50674,1,8,0:0:0:0:
217,50,50803,2,2,P|272:82|418:70,1,190,4|10,0:3|0:0,0:0:0:0:
486,25,51191,1,2,0:0:0:0:
341,172,51320,5,4,0:2:0:0:
512,124,51449,1,2,0:2:0:0:
346,193,51579,5,4,0:2:0:0:
508,235,51708,1,8,0:0:0:0:
342,222,51837,6,0,L|334:319,1,95,4|2,0:2|0:2,0:0:0:0:
334,316,52096,1,8,0:0:0:0:
17,93,52355,6,2,P|60:45|195:49,1,190,4|0,0:0|0:0,0:0:0:0:
253,113,52743,1,8,0:0:0:0:
147,288,52872,2,2,L|118:124,1,142.5,4|0,0:3|0:0,0:0:0:0:
115,119,53130,1,8,0:0:0:0:
153,317,53260,1,2,0:0:0:0:
227,190,53389,5,4,0:2:0:0:
33,231,53518,1,6,0:2:0:0:
227,190,53648,2,0,L|330:199,1,95,4|8,0:2|0:0,0:0:0:0:
440,105,53906,5,4,0:2:0:0:
262,282,54036,1,8,0:0:0:0:
324,93,54165,1,8,0:0:0:0:
445,237,54294,1,2,0:2:0:0:
324,93,54424,6,2,P|257:43|183:56,1,142.5,4|0,0:0|0:0,0:0:0:0:
177,61,54682,1,0,0:0:0:0:
20,124,54812,1,8,0:0:0:0:
136,224,54941,2,2,P|122:169|108:129,1,95,4|2,0:3|0:0,0:0:0:0:
62,30,55199,1,10,0:0:0:0:
45,215,55329,1,2,0:0:0:0:
210,148,55458,5,4,0:2:0:0:
210,148,55587,1,2,0:2:0:0:
124,338,55717,1,4,0:2:0:0:
124,338,55846,1,2,0:2:0:0:
302,148,55975,5,4,0:2:0:0:
302,148,56104,1,2,0:2:0:0:
388,338,56234,1,4,0:2:0:0:
388,338,56363,1,2,0:2:0:0:
256,232,56493,5,4,0:0:0:0:
256,192,56622,12,0,58044,0:0:0:0:
343,242,58174,6,0,P|347:184|352:132,2,95
448,208,58562,5,4,0:0:0:0:
57,138,58820,1,0,0:0:0:0:
149,94,58949,1,2,0:2:0:0:
153,75,59014,1,2,0:2:0:0:
157,56,59079,1,0,0:0:0:0:
67,43,59208,1,4,0:2:0:0:
252,98,59337,1,2,0:2:0:0:
243,115,59402,1,2,0:2:0:0:
236,133,59467,1,2,0:2:0:0:
233,151,59531,1,2,0:2:0:0:
232,170,59596,5,4,0:0:0:0:
335,158,59725,2,2,L|397:138,2,47.5,2|2|8,0:2|0:2|0:0,0:0:0:0:
143,247,59984,2,2,P|88:243|32:231,1,95,8|0,0:0|0:0,0:0:0:0:
383,354,60243,2,2,P|439:339|496:331,1,95,0|8,0:0|0:0,0:0:0:0:
275,259,60501,1,10,0:0:0:0:
248,368,60630,5,6,0:0:0:0:
375,148,60889,1,2,0:2:0:0:
380,166,60954,1,2,0:2:0:0:
381,184,61018,1,8,0:0:0:0:
382,203,61083,1,2,0:2:0:0:
381,222,61148,1,4,0:3:0:0:
467,269,61277,1,2,0:2:0:0:
470,250,61342,1,2,0:2:0:0:
476,232,61406,1,8,0:0:0:0:
285,190,61536,1,2,0:2:0:0:
463,134,61665,6,2,L|575:118,1,95,4|2,0:0|0:0,0:0:0:0:
391,323,61924,1,0,0:0:0:0:
284,280,62053,2,0,L|172:264,1,95,10|0,0:0|0:0,0:0:0:0:
7,219,62312,1,10,0:0:0:0:
119,331,62441,1,8,0:0:0:0:
157,168,62570,1,2,0:0:0:0:
16,323,62699,5,0,0:0:0:0:
385,144,62958,2,2,L|403:83,2,47.5,2|0|8,0:0|0:0|0:0,0:0:0:0:
310,193,63217,1,2,0:0:0:0:
408,61,63346,1,0,0:0:0:0:
410,224,63475,1,8,0:0:0:0:
312,85,63605,1,2,0:0:0:0:
475,139,63734,5,4,0:2:0:0:
339,282,63863,1,2,0:2:0:0:
241,272,63993,1,4,0:2:0:0:
224,262,64057,1,2,0:2:0:0:
206,254,64122,1,8,0:0:0:0:
187,248,64187,1,2,0:2:0:0:
168,244,64251,5,4,0:2:0:0:
78,299,64380,1,2,0:2:0:0:
77,200,64510,1,8,0:0:0:0:
165,341,64639,1,2,0:2:0:0:
238,180,64768,6,0,P|235:123|223:77,1,95,0|8,0:0|2:0,0:0:0:0:
262,19,65027,1,2,2:0:0:0:
326,59,65156,1,0,0:0:0:0:
399,37,65286,2,0,P|449:27|534:37,1,95,8|2,1:0|2:0,0:0:0:0:
399,114,65544,2,0,P|365:146|293:190,1,95,0|8,0:0|2:0,0:0:0:0:
341,259,65803,6,0,P|414:277|518:349,1,190,0|2,0:0|2:2,0:0:0:0:
456,193,66191,2,0,P|441:283|398:383,1,190,8|8,0:0|0:2,0:0:0:0:
341,259,66579,2,0,P|332:201|331:151,1,95,8|2,0:0|0:0,0:0:0:0:
509,339,66837,5,4,0:0:0:0:
210,129,67096,1,0,0:0:0:0:
353,82,67225,1,8,0:0:0:0:
358,64,67290,1,0,0:0:0:0:
363,46,67355,1,4,0:3:0:0:
341,259,67484,1,2,0:0:0:0:
432,235,67613,2,2,P|393:180|269:192,1,190,8|4,0:0|0:2,0:0:0:0:
165,268,68001,5,2,0:2:0:0:
165,268,68066,1,2,0:2:0:0:
165,268,68130,1,4,0:2:0:0:
133,60,68260,1,8,0:0:0:0:
65,161,68389,2,0,P|125:168|188:170,1,95,4|2,0:2|0:2,0:0:0:0:
159,169,68648,1,8,0:0:0:0:
504,336,68906,6,2,B|402:336|436:266|320:272,1,190,4|0,0:0|0:0,0:0:0:0:
237,311,69294,1,8,0:0:0:0:
343,366,69424,2,2,L|360:214,1,142.5,0|0,0:0|0:0,0:0:0:0:
478,155,69682,2,0,L|494:260,1,95,10|2,0:0|0:0,0:0:0:0:
286,76,69941,5,4,0:2:0:0:
473,130,70070,1,2,0:2:0:0:
298,173,70199,1,4,0:2:0:0:
447,216,70329,1,8,0:0:0:0:
386,120,70458,2,0,L|392:21,1,95,4|8,0:2|0:0,0:0:0:0:
185,116,70717,2,0,L|197:216,1,95,8|2,0:0|0:2,0:0:0:0:
273,315,70975,6,2,P|233:260|108:259,1,190,4|0,0:0|0:0,0:0:0:0:
176,352,71363,1,8,0:0:0:0:
299,173,71493,2,2,L|467:154,1,142.5,4|0,0:3|0:0,0:0:0:0:
467,167,71751,1,10,0:0:0:0:
316,81,71880,1,2,0:0:0:0:
393,252,72010,5,4,0:2:0:0:
316,81,72139,1,2,0:2:0:0:
307,63,72204,1,2,0:2:0:0:
298,46,72268,1,4,0:2:0:0:
299,173,72398,1,8,0:0:0:0:
413,44,72527,5,4,0:2:0:0:
221,110,72656,1,2,0:2:0:0:
382,141,72786,5,8,0:0:0:0:
223,19,72915,1,2,0:2:0:0:
213,207,73044,5,0,0:0:0:0:
256,192,73174,12,4,75113,0:0:0:0:
99,228,81320,6,0,P|83:185|112:75,2,142.500005435944
71,321,81967,2,0,L|-15:316,1,71.2500027179719,0|2,0:0|2:0,0:0:0:0:
188,181,82225,6,0,L|339:163,1,142.500005435944
411,228,82613,1,2,2:0:0:0:
329,326,82743,2,0,L|314:243,1,71.2500027179719
422,62,83001,2,0,L|407:145,1,71.2500027179719,0|2,0:0|0:2,0:0:0:0:
320,71,83260,1,2,0:2:0:0:
503,143,83389,5,0,1:0:0:0:
90,325,83648,1,0,0:0:0:0:
90,325,83777,2,0,L|75:244,2,71.2500027179719,0|8|0,0:0|0:0|0:0,0:0:0:0:
171,275,84165,2,0,P|213:267|310:328,1,142.500005435944,0|0,0:0|1:0,0:0:0:0:
377,360,84553,5,0,0:0:0:0:
407,264,84682,2,0,L|419:171,1,71.2500027179719
483,139,84941,2,0,L|326:157,1,142.500005435944,8|0,0:0|0:0,0:0:0:0:
254,167,85329,1,0,0:0:0:0:
254,167,85458,1,0,1:0:0:0:
66,56,85717,6,0,L|48:139,1,71.2500027179719
123,208,85975,2,0,L|141:125,1,71.2500027179719,8|0,0:0|0:0,0:0:0:0:
218,57,86234,1,0,0:0:0:0:
218,57,86493,6,0,P|251:39|298:38,1,71.2500027179719,0|2,1:0|0:0,0:0:0:0:
223,254,86751,2,0,P|258:267|313:266,1,71.2500027179719,0|2,0:0|0:0,0:0:0:0:
342,152,87010,1,8,0:0:0:0:
342,152,87139,1,2,0:0:0:0:
452,139,87268,1,0,0:0:0:0:
452,139,87398,1,2,0:0:0:0:
510,240,87527,6,0,L|497:326,2,71.2500027179719,0|0|0,1:0|0:0|0:0,0:0:0:0:
452,139,87915,2,0,L|442:59,2,71.2500027179719,0|8|0,0:0|0:0|0:0,0:0:0:0:
404,236,88303,2,0,P|359:206|260:213,2,142.500005435944,0|0|0,0:0|1:0|0:0,0:0:0:0:
321,294,88949,5,0,0:0:0:0:
363,100,89079,2,0,P|362:57|344:3,1,71.2500027179719,8|0,0:0|0:0,0:0:0:0:
185,185,89337,2,0,P|186:228|204:282,1,71.2500027179719
259,73,89596,6,0,L|93:67,1,142.500005435944,0|0,1:0|0:0,0:0:0:0:
20,171,89984,1,0,0:0:0:0:
20,171,90113,2,0,P|10:123|12:77,1,71.2500027179719,8|0,0:0|0:0,0:0:0:0:
96,224,90372,2,0,P|106:176|104:130,1,71.2500027179719
350,169,90630,6,0,L|451:189,2,71.2500027179719,0|2|0,1:0|0:0|0:0,0:0:0:0:
250,147,91018,1,2,0:0:0:0:
384,256,91148,2,0,L|485:276,2,71.2500027179719,8|2|0,0:0|0:0|0:0,0:0:0:0:
284,234,91536,1,2,0:0:0:0:
59,335,91665,6,0,P|106:337|147:314,1,71.2500027179719,4|0,1:2|0:0,0:0:0:0:
246,125,91924,2,0,L|109:149,1,106.875004076958,2|0,0:1|0:0,0:0:0:0:
117,177,92182,2,0,P|79:173|31:143,1,71.2500027179719,8|0,0:0|0:0,0:0:0:0:
280,245,92441,2,0,L|417:269,1,106.875004076958,2|0,0:1|0:0,0:0:0:0:
409,297,92699,6,0,P|447:293|495:263,1,71.2500027179719,0|0,1:0|0:0,0:0:0:0:
505,37,92958,2,0,L|368:61,1,106.875004076958,2|0,0:1|0:0,0:0:0:0:
376,89,93216,2,0,P|338:85|290:55,1,71.2500027179719,8|0,0:0|0:0,0:0:0:0:
134,72,93475,2,0,L|115:202,1,106.875004076958,2|0,0:1|0:0,0:0:0:0:
118,177,93734,6,0,L|33:185,1,71.2500027179719,0|0,1:0|0:0,0:0:0:0:
218,123,93993,2,0,L|304:114,1,71.2500027179719,2|0,0:1|0:0,0:0:0:0:
204,215,94251,2,0,P|211:258|180:368,1,142.500005435944,8|2,0:0|0:1,0:0:0:0:
383,189,94768,6,0,L|288:175,1,71.2500027179719,0|2,1:0|0:0,0:0:0:0:
435,109,95027,2,0,L|526:96,1,71.2500027179719,2|2,0:1|0:0,0:0:0:0:
362,350,95286,2,0,L|370:280,1,71.2500027179719,8|2,0:0|0:0,0:0:0:0:
467,221,95544,2,0,L|482:290,1,71.2500027179719,2|2,0:1|0:0,0:0:0:0:
344,92,95803,5,4,1:2:0:0:
67,136,96062,1,2,0:0:0:0:
145,222,96191,2,0,L|157:129,1,71.2500027179719,0|10,0:0|0:0,0:0:0:0:
128,340,96449,1,0,0:0:0:0:
71,261,96579,2,0,B|142:246|142:246|209:284,2,142.500005435944,2|0|2,0:0|1:0|0:0,0:0:0:0:
128,340,97225,5,0,0:0:0:0:
291,305,97355,2,0,L|279:226,1,71.2500027179719,10|0,0:0|0:0,0:0:0:0:
334,46,97613,2,0,L|295:119,1,71.2500027179719,2|0,0:0|0:0,0:0:0:0:
374,252,97872,6,0,B|362:179|362:179|391:118,1,142.500005435944,4|2,1:2|0:1,0:0:0:0:
461,196,98260,1,2,0:2:0:0:
279,169,98389,2,0,L|194:159,1,71.2500027179719,8|2,0:0|0:2,0:0:0:0:
89,247,98648,2,0,L|174:237,1,71.2500027179719,2|2,0:1|0:2,0:0:0:0:
392,118,98906,6,2,L|412:76,7,35.625001358986,2|2|2|2|2|2|2|2,1:2|0:0|0:0|0:0|0:0|0:0|0:0|0:0,0:0:0:0:
326,60,99424,2,2,L|313:22,7,35.625001358986,10|2|2|2|2|2|2|2,1:2|0:0|0:0|0:0|0:0|0:0|0:0|0:0,0:0:0:0:
251,104,99941,5,4,0:0:0:0:
382,95,108217,5,4,0:3:0:0:
382,95,108734,2,0,B|371:166|371:166|410:239,1,142.5,8|8,0:0|0:0,2:0:0:0:
283,136,109251,2,0,L|305:27,1,95,0|0,0:0|0:0,2:0:0:0:
465,148,109768,1,8,1:0:0:0:
465,148,110027,1,2,2:0:0:0:
53,242,110286,5,4,0:3:0:0:
53,242,110803,2,0,B|124:231|124:231|183:282,1,142.5,8|8,0:0|0:0,0:0:0:0:
245,333,111320,1,0,0:0:0:0:
245,333,111449,1,8,0:0:0:0:
305,262,111579,2,0,L|292:153,2,95,0|8|2,0:0|0:0|2:0,0:0:0:0:
459,110,112355,5,0,0:0:0:0:
97,88,112613,1,0,0:0:0:0:
184,116,112872,1,0,0:0:0:0:
115,181,113130,1,0,0:0:0:0:
492,202,113389,5,0,0:0:0:0:
108,80,113648,1,0,0:0:0:0:
185,129,113907,1,0,0:0:0:0:
101,174,114165,1,0,0:0:0:0:
420,269,114424,6,0,L|408:346,1,56.9999982604981
100,325,114682,2,0,L|92:269,1,56.9999982604981
382,127,114941,6,0,L|464:135,1,76
130,127,115199,2,0,L|48:135,1,76
256,96,115458,6,0,L|256:192,1,95
256,191,115717,1,0,0:0:0:0:
168,248,115846,1,0,0:0:0:0:
344,248,115975,1,8,0:0:0:0:
59,263,116493,6,2,P|113:338|204:353,1,190,4|0,0:0|0:0,0:0:0:0:
322,332,116880,1,8,0:0:0:0:
168,248,117010,2,2,B|156:199|156:199|165:143,1,95,4|0,0:3|0:0,0:0:0:0:
342,124,117268,2,0,B|354:173|354:173|345:229,1,95,10|0,0:0|0:0,0:0:0:0:
256,191,117527,5,4,0:2:0:0:
435,110,117656,1,2,0:2:0:0:
439,91,117721,1,2,0:2:0:0:
444,72,117786,1,4,0:2:0:0:
437,197,117915,1,8,0:0:0:0:
342,124,118044,5,4,0:2:0:0:
512,152,118174,1,2,0:2:0:0:
351,218,118303,5,8,0:0:0:0:
371,33,118432,1,2,0:2:0:0:
120,0,118562,6,2,B|72:54|72:54|106:179,1,190,4|0,0:0|0:0,0:0:0:0:
141,350,118949,1,8,0:0:0:0:
43,311,119079,2,2,P|88:263|178:255,1,142.5,4|0,0:3|0:0,0:0:0:0:
192,237,119337,2,2,P|198:191|195:130,1,95,8|2,0:0|0:0,0:0:0:0:
243,323,119596,6,0,L|359:305,1,95,4|2,0:2|0:2,0:0:0:0:
431,126,119855,1,4,0:2:0:0:
380,222,119984,1,8,0:0:0:0:
361,70,120113,5,4,0:2:0:0:
444,281,120243,1,2,0:2:0:0:
441,38,120372,5,4,0:2:0:0:
361,312,120501,1,2,0:2:0:0:
96,193,120630,6,2,P|169:138|259:157,1,190,4|0,0:0|0:0,0:0:0:0:
192,237,121018,1,8,0:0:0:0:
97,74,121148,2,2,P|45:66|-13:52,1,95,4|0,0:3|0:0,0:0:0:0:
210,53,121406,1,10,0:0:0:0:
259,157,121536,1,2,0:0:0:0:
173,140,121665,5,4,0:2:0:0:
351,133,121794,1,2,0:2:0:0:
351,133,121859,1,2,0:2:0:0:
351,133,121924,1,4,0:2:0:0:
192,237,122053,1,8,0:0:0:0:
448,144,122182,5,4,0:2:0:0:
259,157,122312,1,2,0:2:0:0:
430,248,122441,1,8,0:0:0:0:
284,255,122570,1,2,0:2:0:0:
448,144,122699,6,0,P|461:83|458:33,1,95,0|8,0:0|2:0,0:0:0:0:
388,23,122958,1,2,2:0:0:0:
377,184,123087,2,0,P|389:238|472:369,1,190,0|2,0:0|2:0,0:0:0:0:
498,275,123475,1,0,0:0:0:0:
373,377,123605,1,8,2:0:0:0:
284,255,123734,6,0,P|230:229|173:213,2,95,0|8|2,0:0|2:0|2:0,0:0:0:0:
296,341,124122,1,0,0:0:0:0:
296,168,124251,2,0,P|306:117|326:72,1,95,8|8,2:0|2:0,0:0:0:0:
296,168,124510,1,8,0:0:0:0:
215,311,124639,1,2,0:0:0:0:
100,131,124768,6,2,L|83:283,1,142.5,4|0,0:0|0:0,0:0:0:0:
81,301,125027,1,0,0:0:0:0:
0,159,125156,1,8,0:0:0:0:
183,220,125286,2,2,B|282:190|265:278|368:250,1,190,4|10,0:3|0:0,0:0:0:0:
215,311,125674,1,2,0:0:0:0:
339,165,125803,5,4,0:2:0:0:
393,319,125932,1,2,0:2:0:0:
427,113,126062,5,4,0:2:0:0:
439,235,126191,1,8,0:0:0:0:
512,71,126320,6,0,L|495:170,1,95,4|2,0:2|0:2,0:0:0:0:
495,164,126579,1,8,0:0:0:0:
218,95,126837,6,2,P|155:84|42:184,1,190,4|0,0:0|0:0,0:0:0:0:
36,253,127225,1,8,0:0:0:0:
166,202,127355,2,2,P|224:203|307:260,1,142.5,4|0,0:3|0:0,0:0:0:0:
309,269,127613,1,8,0:0:0:0:
139,215,127743,1,0,0:0:0:0:
266,110,127872,5,4,0:2:0:0:
206,293,128001,1,2,0:2:0:0:
266,110,128130,2,0,P|277:59|276:8,1,95,4|8,0:2|0:0,0:0:0:0:
187,53,128389,5,4,0:2:0:0:
321,187,128518,1,2,0:2:0:0:
198,165,128648,1,4,0:2:0:0:
360,80,128777,1,2,0:2:0:0:
450,222,128906,6,0,L|433:372,1,142.5,4|0,0:0|0:0,0:0:0:0:
433,363,129165,2,0,B|384:357|384:357|333:375,1,95,0|8,0:0|0:0,0:0:0:0:
115,301,129424,2,0,B|164:307|164:307|215:289,1,95,4|0,0:3|0:0,0:0:0:0:
321,187,129682,1,8,0:0:0:0:
243,384,129812,1,0,0:0:0:0:
152,211,129941,5,4,0:2:0:0:
152,211,130070,1,2,0:2:0:0:
255,114,130199,1,4,0:2:0:0:
255,114,130329,1,2,0:2:0:0:
324,274,130458,5,4,0:2:0:0:
324,274,130587,1,2,0:2:0:0:
416,74,130717,1,4,0:2:0:0:
416,74,130846,1,2,0:2:0:0:
480,319,130975,5,4,0:0:0:0:
256,192,131105,12,0,132527,0:0:0:0:
131,318,132656,6,0,L|241:304,2,95
37,363,133044,5,0,0:0:0:0:
337,110,133303,1,0,0:0:0:0:
248,154,133432,1,2,0:2:0:0:
243,135,133497,1,2,0:2:0:0:
239,116,133562,1,0,0:0:0:0:
336,22,133691,1,6,0:2:0:0:
327,203,133820,1,2,0:2:0:0:
324,221,133885,1,2,0:2:0:0:
321,239,133949,1,2,0:2:0:0:
317,257,134014,1,2,0:2:0:0:
313,275,134079,5,0,0:0:0:0:
423,251,134208,2,0,L|489:234,2,47.5,0|0|2,0:0|0:0|0:0,0:0:0:0:
222,242,134467,2,2,P|161:233|106:218,1,95,8|2,0:0|0:0,0:0:0:0:
415,155,134725,2,0,P|465:132|524:116,1,95,2|8,0:0|0:0,0:0:0:0:
130,80,134984,1,10,0:0:0:0:
291,17,135113,6,0,B|305:93|305:93|294:129|294:129|310:209,1,190,4|2,0:0|0:2,0:0:0:0:
308,202,135437,1,2,0:2:0:0:
308,202,135501,1,8,0:0:0:0:
308,202,135566,1,2,0:2:0:0:
308,202,135630,1,0,0:0:0:0:
168,284,135760,1,2,0:2:0:0:
149,270,135824,1,2,0:2:0:0:
126,261,135889,1,8,0:0:0:0:
102,257,135954,1,2,0:2:0:0:
78,261,136018,1,2,0:2:0:0:
102,348,136148,5,0,0:0:0:0:
146,181,136277,2,2,L|162:84,2,95,2|0|10,0:0|0:0|0:0,0:0:0:0:
74,91,136665,5,2,0:0:0:0:
227,211,136794,1,8,0:0:0:0:
256,23,136924,1,10,0:0:0:0:
405,154,137053,1,0,0:0:0:0:
175,110,137182,6,0,L|163:13,1,95,4|0,0:0|0:0,0:0:0:0:
326,298,137441,2,2,L|336:359,2,47.5,2|0|8,0:0|0:0|0:0,0:0:0:0:
260,238,137699,1,2,0:0:0:0:
343,381,137829,1,0,0:0:0:0:
359,219,137958,1,8,0:0:0:0:
246,333,138087,1,2,0:0:0:0:
415,303,138217,5,4,0:2:0:0:
260,238,138346,1,2,0:2:0:0:
359,219,138475,1,6,0:2:0:0:
364,200,138540,1,2,0:2:0:0:
367,181,138605,1,8,0:0:0:0:
367,162,138669,1,2,0:2:0:0:
364,143,138734,5,4,0:2:0:0:
306,69,138863,1,2,0:2:0:0:
398,53,138993,1,8,0:0:0:0:
278,156,139122,1,2,0:2:0:0:
182,34,139251,6,0,P|166:85|168:153,1,95,0|2,0:0|2:0,0:0:0:0:
181,206,139510,1,8,2:0:0:0:
83,101,139639,1,0,0:0:0:0:
8,146,139768,2,0,P|46:173|91:186,1,95,8|2,0:0|2:0,0:0:0:0:
117,270,140027,2,0,P|78:308|49:357,1,95,0|8,0:0|2:0,0:0:0:0:
261,354,140286,6,0,P|334:296|366:208,1,190,0|2,0:0|2:0,0:0:0:0:
265,218,140674,2,0,P|326:226|438:303,1,190,8|8,0:0|2:0,0:0:0:0:
366,208,141062,2,0,P|382:152|421:106,1,95,8|2,0:0|0:0,0:0:0:0:
431,295,141320,6,0,P|414:350|388:380,1,95,4|0,0:0|0:0,0:0:0:0:
288,120,141579,1,0,0:0:0:0:
456,194,141708,1,8,0:0:0:0:
474,198,141773,1,0,0:0:0:0:
492,203,141837,1,4,0:3:0:0:
361,48,141967,1,0,0:0:0:0:
287,120,142096,2,2,P|362:70|457:100,1,190,10|4,0:0|0:2,0:0:0:0:
379,175,142484,5,2,0:2:0:0:
379,175,142549,1,2,0:2:0:0:
379,175,142613,1,4,0:2:0:0:
242,27,142743,1,8,0:0:0:0:
211,182,142872,2,0,P|168:208|109:211,1,95,4|2,0:2|0:2,0:0:0:0:
124,213,143130,1,8,0:0:0:0:
496,258,143389,6,2,P|420:273|294:218,1,190,4|0,0:0|0:0,0:0:0:0:
142,122,143777,1,8,0:0:0:0:
306,338,143906,2,2,L|162:357,1,142.5,4|0,0:3|0:0,0:0:0:0:
135,373,144165,2,2,P|139:327|128:260,1,95,8|2,0:0|0:0,0:0:0:0:
83,55,144424,5,4,0:2:0:0:
222,102,144553,1,2,0:2:0:0:
69,183,144682,5,4,0:2:0:0:
224,133,144812,1,8,0:0:0:0:
65,213,144941,5,4,0:2:0:0:
250,257,145070,1,8,0:0:0:0:
47,343,145199,5,8,0:0:0:0:
255,286,145329,1,2,0:2:0:0:
135,373,145458,6,2,B|110:270|182:287|163:184,1,190,4|0,0:0|0:0,0:0:0:0:
63,201,145846,1,8,0:0:0:0:
397,299,145975,2,2,L|255:318,1,142.5,4|0,0:3|0:0,0:0:0:0:
233,336,146234,1,10,0:0:0:0:
335,228,146363,1,2,0:0:0:0:
389,383,146493,5,4,0:2:0:0:
335,228,146622,1,2,0:2:0:0:
332,209,146687,1,2,0:2:0:0:
329,190,146751,1,4,0:2:0:0:
486,297,146880,1,8,0:0:0:0:
245,222,147010,5,4,0:2:0:0:
421,204,147139,1,2,0:2:0:0:
398,299,147268,5,8,0:0:0:0:
380,118,147398,1,2,0:2:0:0:
155,228,147527,5,0,0:0:0:0:
256,192,147656,12,4,149596,0:0:0:0:
