osu file format v12

[General]
AudioFilename: Nightcore - Cant Control Myself.mp3
AudioLeadIn: 0
PreviewTime: 56756
Countdown: 1
SampleSet: None
StackLeniency: 0.7
Mode: 0
LetterboxInBreaks: 1
WidescreenStoryboard: 0

[Editor]
DistanceSpacing: 1.8
BeatDivisor: 4
GridSize: 4
TimelineZoom: 1

[Metadata]
Title:Can't Control Myself (Nightcore)
TitleUnicode:Can't Control Myself (Nightcore)
Artist:Krewella
ArtistUnicode:Krewella
Creator:Firstus
Version:Michi
Source:
Tags:
BeatmapID:400332
BeatmapSetID:128622

[Difficulty]
HPDrainRate:6
CircleSize:4
OverallDifficulty:8
ApproachRate:10
SliderMultiplier:1.6
SliderTickRate:1

[Events]
//Background and Video events
0,0,"383483-vocaloid_lily_.jpg",0,0
//Break Periods
2,25658,33284
//Storyboard Layer 0 (Background)
//Storyboard Layer 1 (Fail)
//Storyboard Layer 2 (Pass)
//Storyboard Layer 3 (Foreground)
//Storyboard Sound Samples
//Background Colour Transformations
3,100,163,162,255

[TimingPoints]
631.08128380286,258.620689655172,4,1,0,100,1,0
33734,-133.333333333333,4,1,0,100,0,0
42010,-80,4,1,0,100,0,0
42786,-66.6666666666667,4,1,0,100,0,0
43044,-80,4,1,0,100,0,0
48217,-80,4,1,0,100,0,1
50286,-80,4,1,0,100,0,0
58562,-80,4,1,0,100,0,1
59079,-80,4,1,0,100,0,0
59208,-80,4,1,0,100,0,1
59461,-80,4,1,0,100,0,0
59855,-80,4,1,0,100,0,1
59984,-80,4,1,0,100,0,0
60243,-80,4,1,0,100,0,1
60372,-80,4,1,0,100,0,0
60501,-80,4,1,0,100,0,1
60631,-80,4,1,0,100,0,0
61794,-80,4,1,0,100,0,1
62118,-80,4,1,0,100,0,0
62182,-80,4,1,0,100,0,1
62700,-80,4,1,0,100,0,0
63087,-80,4,1,0,100,0,1
63152,-80,4,1,0,100,0,0
63217,-80,4,1,0,100,0,1
63734,-80,4,1,0,100,0,0
64769,-80,4,1,0,100,0,1
66837,-80,4,1,0,100,0,0

[HitObjects]
176,132,6837,5,8,3:0:0:0:
176,132,7096,1,8,3:0:0:0:
96,52,7355,1,8,3:0:0:0:
96,52,7484,1,8,3:0:0:0:
96,52,7743,5,8,3:0:0:0:
96,52,8001,1,8,3:0:0:0:
96,52,8260,1,8,3:0:0:0:
280,112,8389,5,8,3:3:0:0:
280,112,8519,1,8,3:3:0:0:
280,112,8648,1,8,3:3:0:0:
280,112,8777,1,8,3:0:0:0:
280,112,8906,2,0,P|320:120|360:104,1,80,8|0,3:0|0:0,0:0:0:0:
424,64,9165,1,0,0:0:0:0:
256,224,9294,2,0,P|212:228|176:212,1,80,0|8,0:0|0:0,0:0:0:0:
112,168,9553,1,0,0:0:0:0:
332,164,9682,2,0,P|348:240|292:308,2,160,0|8|0,0:0|0:0|0:0,0:0:0:0:
292,96,10329,1,0,0:0:0:0:
88,48,10458,6,0,P|140:100|224:92,1,160,8|0,0:0|0:0,0:0:0:0:
296,60,10846,1,0,0:0:0:0:
440,132,10975,2,0,P|395:193|306:184,1,160,8|0,0:0|0:0,0:0:0:0:
248,148,11363,1,0,0:0:0:0:
248,148,11493,1,8,0:0:0:0:
248,148,11751,5,0,0:0:0:0:
248,148,12010,1,8,0:0:0:0:
176,180,12139,2,0,L|104:136,1,80
40,92,12398,1,0,0:0:0:0:
104,300,12527,2,0,L|184:272,1,80
252,244,12786,1,0,0:0:0:0:
324,208,12915,1,0,0:0:0:0:
384,260,13044,6,0,P|404:188|352:112,1,160
128,124,13432,2,0,P|108:196|160:272,1,160
384,260,13820,2,0,P|404:188|352:112,2,160
324,316,14467,1,0,0:0:0:0:
88,244,14596,6,0,P|168:256|232:208,1,160
288,156,14984,1,0,0:0:0:0:
116,80,15113,1,0,0:0:0:0:
116,80,15372,1,0,0:0:0:0:
116,80,15501,1,0,0:0:0:0:
116,80,15631,2,0,P|172:124|172:208,1,160
228,332,16148,6,0,L|296:280,1,80
448,204,16406,2,0,L|368:180,1,80
212,104,16665,2,0,L|236:184,1,80
260,256,16924,1,0,0:0:0:0:
260,256,17053,1,0,0:0:0:0:
260,256,17182,6,0,L|176:248,1,80
100,236,17441,1,0,0:0:0:0:
336,172,17570,2,0,L|256:164,1,80
176,152,17829,1,0,0:0:0:0:
392,72,17958,2,0,P|444:128|432:208,2,160
312,64,18605,1,0,0:0:0:0:
40,112,18734,6,0,P|100:164|176:152,1,160
248,120,19122,1,0,0:0:0:0:
460,216,19251,2,0,P|392:252|300:244,1,160
232,232,19639,1,0,0:0:0:0:
156,208,19769,1,0,0:0:0:0:
156,208,20027,1,0,0:0:0:0:
156,208,20286,5,0,0:0:0:0:
100,264,20415,1,0,0:0:0:0:
32,224,20544,1,0,0:0:0:0:
88,164,20674,1,0,0:0:0:0:
156,208,20803,1,0,0:0:0:0:
208,148,20932,1,0,0:0:0:0:
140,104,21062,1,0,0:0:0:0:
212,72,21191,1,0,0:0:0:0:
288,48,21320,6,0,P|316:124|292:196,1,160
224,336,21708,2,0,P|196:260|220:188,1,160
288,48,22096,2,0,P|316:124|292:196,2,160
208,36,22743,1,0,0:0:0:0:
456,180,22872,6,0,P|380:216|304:216,1,160
76,120,23260,2,0,L|120:192,1,80
160,256,23519,1,0,0:0:0:0:
336,344,23648,2,0,P|388:288|368:208,1,160
372,212,24165,1,0,0:0:0:0:
224,148,24424,6,0,L|148:176,1,80
72,204,24682,1,0,0:0:0:0:
308,184,24812,2,0,P|304:108|240:56,1,160
164,68,25200,1,0,0:0:0:0:
92,100,25329,1,0,0:0:0:0:
28,52,25458,1,0,0:0:0:0:
100,204,33734,6,0,P|172:240|256:196,1,180.000006866455
296,152,34251,2,0,L|336:104,2,60.0000022888184
256,200,34639,1,0,0:0:0:0:
360,260,34769,5,0,0:0:0:0:
432,152,35027,1,0,0:0:0:0:
364,40,35286,2,0,L|248:76,1,120.000004577637
60,192,35803,5,0,0:0:0:0:
452,192,36062,1,0,0:0:0:0:
256,344,36320,2,0,L|256:220,1,120.000004577637
256,164,36708,1,0,0:0:0:0:
132,156,36837,6,0,L|180:208,1,60.0000022888184
256,264,37096,1,0,0:0:0:0:
380,156,37225,2,0,L|332:208,1,60.0000022888184
340,200,37613,1,0,0:0:0:0:
432,56,37872,5,0,0:0:0:0:
80,56,38131,1,0,0:0:0:0:
80,328,38389,1,0,0:0:0:0:
432,328,38648,1,0,0:0:0:0:
256,52,38906,5,0,0:0:0:0:
432,192,39165,1,0,0:0:0:0:
256,332,39424,1,0,0:0:0:0:
80,192,39682,1,0,0:0:0:0:
324,136,39941,5,0,0:0:0:0:
292,172,40070,1,0,0:0:0:0:
252,196,40200,1,0,0:0:0:0:
204,200,40329,1,0,0:0:0:0:
148,172,40458,5,0,0:0:0:0:
108,120,40587,1,0,0:0:0:0:
52,88,40717,1,0,0:0:0:0:
8,136,40846,1,0,0:0:0:0:
16,216,40975,5,0,0:0:0:0:
84,260,41105,1,0,0:0:0:0:
160,240,41234,1,0,0:0:0:0:
196,168,41363,1,0,0:0:0:0:
216,40,41493,5,0,0:0:0:0:
452,132,42010,6,0,P|424:224|328:224,1,200
256,164,42398,1,0,0:0:0:0:
52,80,42527,2,0,P|88:112|136:136,1,100
416,276,42786,6,0,L|296:260,1,120.000004577637
84,236,43044,5,0,0:0:0:0:
172,112,43174,1,0,0:0:0:0:
172,112,43238,1,0,0:0:0:0:
172,112,43303,1,0,0:0:0:0:
256,236,43432,1,0,0:0:0:0:
360,96,43562,5,0,0:0:0:0:
200,176,43691,1,0,0:0:0:0:
284,336,43820,1,0,0:0:0:0:
444,252,43950,1,0,0:0:0:0:
104,328,44079,6,0,P|196:312|224:212,1,200
184,128,44467,1,0,0:0:0:0:
408,56,44596,2,0,P|316:72|288:172,1,200
328,256,44984,1,0,0:0:0:0:
48,216,45113,6,0,P|100:208|148:184,1,100
464,168,45372,2,0,P|412:176|364:200,1,100
280,240,45631,1,0,0:0:0:0:
280,240,45760,1,0,0:0:0:0:
280,240,45889,1,0,0:0:0:0:
280,240,46019,1,0,0:0:0:0:
280,240,46148,6,0,P|224:164|120:168,1,200
52,236,46536,1,0,0:0:0:0:
188,64,46665,2,0,P|236:76|288:64,1,100
380,36,46924,5,0,0:0:0:0:
456,308,47053,1,0,0:0:0:0:
164,208,47182,5,0,0:0:0:0:
344,188,47312,1,0,0:0:0:0:
344,188,47376,1,0,0:0:0:0:
344,188,47441,1,0,0:0:0:0:
232,48,47570,1,0,0:0:0:0:
60,108,47700,5,0,0:0:0:0:
236,148,47829,1,0,0:0:0:0:
192,320,47958,1,0,0:0:0:0:
20,272,48087,1,0,0:0:0:0:
256,108,48217,5,0,0:0:0:0:
316,284,48346,1,0,0:0:0:0:
164,176,48475,1,0,0:0:0:0:
348,176,48605,1,0,0:0:0:0:
196,284,48734,1,0,0:0:0:0:
256,81,48863,5,0,0:0:0:0:
335,313,48993,1,0,0:0:0:0:
134,170,49122,1,0,0:0:0:0:
377,170,49251,1,0,0:0:0:0:
176,313,49381,1,0,0:0:0:0:
256,55,49510,5,0,0:0:0:0:
353,341,49639,1,0,0:0:0:0:
106,166,49769,1,0,0:0:0:0:
405,166,49898,1,0,0:0:0:0:
158,341,50027,1,0,0:0:0:0:
256,24,50156,5,0,0:0:0:0:
344,288,50286,6,0,P|256:332|172:288,1,200
256,232,50674,1,0,0:0:0:0:
120,60,50803,2,0,L|184:140,1,100
256,352,51062,5,0,0:0:0:0:
256,32,51191,1,0,0:0:0:0:
116,192,51320,5,0,0:0:0:0:
256,32,51450,1,0,0:0:0:0:
396,192,51579,1,0,0:0:0:0:
256,352,51708,1,0,0:0:0:0:
256,32,51837,2,0,P|340:176|224:304,1,350
212,344,52355,6,0,P|180:260|272:204,1,200
256,304,52743,1,0,0:0:0:0:
300,40,52872,2,0,P|332:124|240:180,1,200
256,80,53260,1,0,0:0:0:0:
76,184,53389,6,0,P|116:208|176:204,1,100
435,199,53648,2,0,P|393:175|343:176,1,100
256,332,53906,1,0,0:0:0:0:
256,52,54036,1,0,0:0:0:0:
92,260,54165,1,0,0:0:0:0:
420,124,54294,1,0,0:0:0:0:
60,44,54424,6,0,L|192:200,1,200
256,272,54812,1,0,0:0:0:0:
452,44,54941,2,0,L|388:120,1,100
256,272,55200,1,0,0:0:0:0:
256,52,55329,1,0,0:0:0:0:
160,332,55458,5,0,0:0:0:0:
208,244,55587,1,0,0:0:0:0:
60,224,55717,5,0,0:0:0:0:
152,180,55847,1,0,0:0:0:0:
300,180,55975,5,0,0:0:0:0:
216,124,56105,1,0,0:0:0:0:
364,112,56234,5,0,0:0:0:0:
432,36,56363,1,0,0:0:0:0:
440,300,56493,5,0,0:0:0:0:
256,192,56751,12,0,57786,0:0:0:0:
116,120,58044,5,0,0:0:0:0:
116,120,58174,1,0,0:0:0:0:
116,120,58303,1,0,0:0:0:0:
116,120,58432,1,0,0:0:0:0:
116,120,58562,6,0,P|176:184|272:148,1,200
340,76,58950,1,0,0:0:0:0:
256,332,59079,1,0,0:0:0:0:
256,292,59144,1,0,0:0:0:0:
256,252,59208,1,0,0:0:0:0:
256,212,59273,1,0,0:0:0:0:
256,172,59337,2,0,L|256:120,3,50
256,80,59596,5,0,0:0:0:0:
396,192,59725,1,0,0:0:0:0:
396,192,59790,1,0,0:0:0:0:
396,192,59855,2,0,L|328:272,1,100
256,332,60113,1,0,0:0:0:0:
116,192,60243,2,0,L|184:272,1,100
256,332,60501,1,0,0:0:0:0:
164,108,60631,6,0,P|252:72|348:112,1,200
384,144,60954,5,0,0:0:0:0:
386,193,61018,1,0,0:0:0:0:
371,240,61083,1,0,0:0:0:0:
339,279,61147,1,0,0:0:0:0:
296,304,61212,1,0,0:0:0:0:
247,312,61277,1,0,0:0:0:0:
199,302,61341,1,0,0:0:0:0:
157,275,61406,1,0,0:0:0:0:
127,235,61471,1,0,0:0:0:0:
114,187,61535,1,0,0:0:0:0:
119,138,61600,1,0,0:0:0:0:
136,96,61665,6,0,L|196:184,1,100
256,348,61924,1,0,0:0:0:0:
416,192,62053,1,0,0:0:0:0:
360,24,62182,5,0,0:0:0:0:
140,139,62312,1,0,0:0:0:0:
345,279,62441,1,0,0:0:0:0:
110,363,62570,1,0,0:0:0:0:
224,28,62700,6,0,L|284:116,1,100
344,280,62959,1,0,0:0:0:0:
140,140,63088,1,0,0:0:0:0:
110,363,63217,5,0,0:0:0:0:
345,279,63346,1,0,0:0:0:0:
140,139,63475,1,0,0:0:0:0:
360,24,63605,1,0,0:0:0:0:
44,256,63734,6,0,P|92:272|144:264,1,100
308,196,63993,1,0,0:0:0:0:
352,164,64057,1,0,0:0:0:0:
396,132,64122,1,0,0:0:0:0:
444,100,64187,1,0,0:0:0:0:
480,68,64251,5,0,0:0:0:0:
300,48,64380,1,0,0:0:0:0:
216,208,64509,1,0,0:0:0:0:
72,100,64638,1,0,0:0:0:0:
228,312,64769,5,0,0:0:0:0:
131,159,64898,1,0,0:0:0:0:
284,68,65027,1,0,0:0:0:0:
372,224,65156,1,0,0:0:0:0:
140,263,65286,5,0,0:0:0:0:
184,69,65415,1,0,0:0:0:0:
374,117,65544,1,0,0:0:0:0:
321,307,65673,1,0,0:0:0:0:
110,158,65803,5,0,0:0:0:0:
295,40,65932,1,0,0:0:0:0:
406,225,66061,1,0,0:0:0:0:
217,332,66190,1,0,0:0:0:0:
169,52,66320,5,0,0:0:0:0:
404,105,66449,1,0,0:0:0:0:
346,335,66578,1,0,0:0:0:0:
116,271,66707,1,0,0:0:0:0:
