osu file format v12

[General]
AudioFilename: Nightcore - Cant Control Myself.mp3
AudioLeadIn: 0
PreviewTime: -1
Countdown: 1
SampleSet: None
StackLeniency: 0.7
Mode: 0
LetterboxInBreaks: 1
WidescreenStoryboard: 1

[Editor]
DistanceSpacing: 1.3
BeatDivisor: 4
GridSize: 8
TimelineZoom: 1

[Metadata]
Title:Can't Control Myself (Nightcore)
TitleUnicode:Can't Control Myself (Nightcore)
Artist:Krewella
ArtistUnicode:Krewella
Creator:Firstus
Version:Insane
Source:
Tags:
BeatmapID:400331
BeatmapSetID:128622

[Difficulty]
HPDrainRate:5
CircleSize:4
OverallDifficulty:6
ApproachRate:9
SliderMultiplier:1.3
SliderTickRate:2

[Events]
//Background and Video events
//Break Periods
2,75313,80720
//Storyboard Layer 0 (Background)
//Storyboard Layer 1 (Fail)
//Storyboard Layer 2 (Pass)
//Storyboard Layer 3 (Foreground)
//Storyboard Sound Samples
//Background Colour Transformations
3,100,163,162,255

[TimingPoints]
631,258.620689655172,4,1,0,100,1,0
6837,-100,4,2,0,60,0,0
25458,-133.333333333333,4,2,0,35,0,0
33734,-117.647058823529,4,2,0,55,0,0
42010,-83.3333333333333,4,2,0,55,0,1
48217,-83.3333333333333,4,2,0,45,0,1
50286,-83.3333333333333,4,2,0,55,0,1
73044,-83.3333333333333,4,2,0,55,0,0
81320,-100,4,2,0,55,0,0
99941,-100,4,2,0,55,0,1
99942,-100,4,2,0,55,0,0
116493,-76.9230769230769,4,2,0,55,0,1
129682,-76.9230769230769,4,2,0,45,0,1
149596,-100,4,2,0,55,0,0

[HitObjects]
72,64,6837,5,8,3:0:0:0:
168,64,7096,1,8,3:0:0:0:
264,72,7355,1,8,3:0:0:0:
312,88,7484,1,8,3:0:0:0:
384,160,7743,1,8,3:0:0:0:
376,256,8001,1,8,3:0:0:0:
288,296,8260,1,0,3:0:0:0:
240,296,8389,1,0,3:0:0:0:
200,264,8518,1,0,3:0:0:0:
200,216,8648,1,0,3:0:0:0:
240,192,8777,1,0,3:0:0:0:
304,152,8906,6,0,P|344:104|368:88,2,65
272,80,9294,2,0,P|240:40|200:40,1,65,0|8,0:0|0:0,0:0:0:0:
168,88,9553,1,0,0:0:0:0:
128,160,9682,2,0,P|96:208|32:192,1,130,0|0,0:0|0:0,0:0:0:0:
336,264,10458,5,8,2:0:0:0:
424,136,10717,1,0,0:0:0:0:
272,136,10975,1,0,0:0:0:0:
176,256,11234,1,0,0:0:0:0:
96,128,11493,2,0,P|112:80|104:40,2,65,8|0|0,0:0|0:0|0:0,0:0:0:0:
240,64,12010,2,0,P|192:104|184:128,2,65
328,88,12398,2,0,P|376:112|408:112,2,65,0|8|0,0:0|0:0|0:0,0:0:0:0:
328,296,13044,5,0,0:0:0:0:
280,232,13174,1,0,0:0:0:0:
360,216,13303,1,0,0:0:0:0:
256,152,13432,2,0,P|216:136|200:104,2,65,0|8|0,0:0|0:0|0:0,0:0:0:0:
144,200,13820,2,0,P|184:232|176:328,1,130
408,88,14596,6,0,P|408:136|440:152,2,65,8|0|0,2:0|0:0|0:0,0:0:0:0:
256,72,15113,2,0,P|296:104|312:128,1,65
336,184,15372,2,0,P|280:224|272:288,1,130,0|8,0:0|0:0,0:0:0:0:
176,152,15889,1,0,0:0:0:0:
72,272,16148,1,0,0:0:0:0:
224,312,16406,1,0,0:0:0:0:
368,248,16665,2,0,P|408:208|416:176,2,65,8|0|0,1:0|0:0|0:0,0:0:0:0:
256,144,17182,5,0,0:0:0:0:
136,152,17312,1,0,0:0:0:0:
192,48,17441,1,0,0:0:0:0:
200,168,17570,5,0,0:0:0:0:
136,72,17699,1,8,0:0:0:0:
256,64,17829,1,0,0:0:0:0:
200,168,17958,2,0,P|216:224|280:256,1,130
416,256,18475,1,0,0:0:0:0:
448,120,18734,1,8,0:0:0:0:
312,152,18993,1,0,0:0:0:0:
256,288,19251,2,0,P|208:304|128:272,1,130
176,216,19639,6,0,P|216:216|232:184,2,65,0|8|0,0:0|0:0|0:0,0:0:0:0:
88,216,20027,1,0,0:0:0:0:
176,72,20286,2,0,P|128:128|64:112,1,130
104,40,20674,2,0,P|56:48|40:64,2,65,0|8|0,0:0|0:0|0:0,0:0:0:0:
176,72,21062,1,0,0:0:0:0:
336,120,21320,6,0,P|376:104|400:72,2,65
392,184,21708,2,0,P|448:208|472:200,1,65,0|8,0:0|0:0,0:0:0:0:
392,272,21967,1,0,0:0:0:0:
312,256,22096,2,0,P|256:248|192:288,1,130
80,88,22872,5,8,0:0:0:0:
80,88,23001,2,0,P|152:96|168:104,2,65
104,168,23389,2,0,P|144:200|144:232,1,65
208,152,23648,2,0,P|248:112|280:112,2,65,0|0|8,0:0|0:0|0:0,0:0:0:0:
272,208,24036,1,0,0:0:0:0:
328,144,24165,2,0,P|368:104|328:40,1,130
440,144,24553,1,0,0:0:0:0:
416,232,24682,2,0,P|375:277|403:331,1,130,0|8,0:0|0:0,0:0:0:0:
176,224,25458,6,0,P|184:160|152:144,1,97.50000371933,4|0,0:0|0:0,0:0:0:0:
248,104,25975,2,0,P|304:128|368:104,1,121.875004649162
392,200,26493,1,0,0:0:0:0:
312,296,26751,2,0,P|352:296|368:304,1,48.750001859665
424,280,27010,2,0,P|464:256|472:240,1,48.750001859665
456,192,27268,2,0,P|440:152|440:128,1,48.750001859665
384,112,27527,2,0,P|328:136|208:80,2,195.00000743866
336,232,28820,5,0,0:0:0:0:
232,304,29079,1,0,0:0:0:0:
200,184,29337,1,0,0:0:0:0:
304,112,29596,1,0,0:0:0:0:
184,72,29855,2,0,P|144:96|88:88,1,97.50000371933
88,216,30372,1,0,0:0:0:0:
88,216,30501,2,0,P|152:248|152:272,1,97.50000371933
216,240,30889,2,0,P|248:216|256:192,2,48.750001859665
336,192,31406,5,0,0:0:0:0:
312,64,31665,1,0,0:0:0:0:
200,128,31924,1,0,0:0:0:0:
80,104,32182,2,0,P|72:80|48:56,2,48.750001859665
144,216,32699,2,0,P|176:256|184:304,1,97.50000371933
232,272,33087,2,0,P|256:224|312:208,1,97.50000371933
294,207,33475,1,0,0:0:0:0:
400,112,33734,6,0,P|408:168|464:208,1,110.50000210762,8|0,0:0|0:0,0:0:0:0:
328,288,34251,2,0,P|272:240|224:232,1,110.50000210762,8|0,0:0|0:0,0:0:0:0:
256,88,34768,1,8,0:0:0:0:
128,152,35027,2,0,P|104:184|32:224,1,110.50000210762,8|0,0:0|0:0,0:0:0:0:
44,220,35415,1,0,0:0:0:0:
44,220,35544,1,0,0:0:0:0:
184,264,35803,2,0,P|240:216|376:256,2,221.000004215241,8|8|4,0:0|0:0|0:0,0:0:0:0:
136,208,36967,1,8,0:0:0:0:
160,136,37096,1,0,0:0:0:0:
216,96,37225,1,0,0:0:0:0:
288,80,37355,1,2,0:0:0:0:
360,208,37613,6,0,P|344:272|376:320,1,110.50000210762,0|8,0:0|0:0,0:0:0:0:
224,288,38130,2,0,P|248:264|256:232,1,55.2500010538101,8|0,0:0|0:0,0:0:0:0:
216,184,38389,1,8,0:0:0:0:
168,136,38518,1,0,0:0:0:0:
168,64,38648,2,0,P|216:56|232:48,2,55.2500010538101,8|0|8,0:0|0:0|0:0,0:0:0:0:
304,112,39165,2,0,P|352:144|416:128,2,110.50000210762,8|8|8,0:0|0:0|0:0,0:0:0:0:
328,256,39941,2,0,P|368:288|376:312,1,55.2500010538101,8|0,0:0|0:0,0:0:0:0:
304,320,40199,2,0,P|256:320|232:336,1,55.2500010538101,0|0,0:0|0:0,0:0:0:0:
232,256,40458,2,0,P|184:272|160:264,1,55.2500010538101,0|0,0:0|0:0,0:0:0:0:
176,200,40717,6,0,P|208:160|216:136,1,55.2500010538101
280,144,40975,1,0,0:0:0:0:
352,120,41105,1,0,0:0:0:0:
424,144,41234,1,0,0:0:0:0:
464,208,41363,1,0,0:0:0:0:
456,280,41493,1,4,0:0:0:0:
88,112,42010,6,0,P|56:80|40:72,2,38.9999988098145,4|0|0,0:0|0:0|0:0,0:0:0:0:
192,88,42268,1,0,0:0:0:0:
176,200,42398,1,0,0:0:0:0:
88,264,42527,2,0,P|48:288|40:288,2,38.9999988098145,4|0|0,0:0|0:0|0:0,0:0:0:0:
184,312,42786,2,0,P|232:328|264:320,1,77.999997619629,2|0,0:0|0:0,0:0:0:0:
328,240,43044,1,8,0:0:0:0:
408,168,43174,2,0,P|448:176|456:184,2,38.9999988098145,0|0|0,0:0|0:0|0:0,0:0:0:0:
344,80,43432,5,2,0:0:0:0:
344,80,43562,1,0,0:0:0:0:
344,80,43691,1,0,0:0:0:0:
344,80,43820,1,2,0:0:0:0:
344,80,43949,1,0,0:0:0:0:
256,144,44079,2,0,P|208:160|192:160,2,38.9999988098145,4|0|0,0:0|0:0|0:0,0:0:0:0:
168,80,44337,2,0,P|128:80|72:120,1,77.999997619629
112,208,44596,2,0,P|96:256|88:264,2,38.9999988098145,4|0|0,0:0|0:0|0:0,0:0:0:0:
208,256,44855,2,0,P|240:296|280:304,1,77.999997619629,2|0,0:0|0:0,0:0:0:0:
368,264,45113,6,0,P|400:232|464:224,2,77.999997619629,8|0|0,0:0|0:0|0:0,0:0:0:0:
344,160,45501,2,0,P|360:112|392:88,1,77.999997619629,0|8,0:0|0:0,0:0:0:0:
272,96,45760,2,0,P|240:144|208:160,1,77.999997619629
144,80,46018,1,0,0:0:0:0:
152,192,46148,2,0,P|144:232|144:240,2,38.9999988098145,4|0|0,0:0|0:0|0:0,0:0:0:0:
216,280,46406,2,0,P|248:312|312:312,1,77.999997619629
384,280,46665,1,4,0:0:0:0:
384,280,46730,1,0,0:0:0:0:
384,280,46794,1,0,0:0:0:0:
416,168,46924,2,0,P|424:120|408:80,1,77.999997619629,2|0,0:0|0:0,0:0:0:0:
328,152,47182,6,0,P|320:104|312:96,2,38.9999988098145,10|0|0,0:0|0:0|0:0,0:0:0:0:
224,56,47441,1,0,0:0:0:0:
120,144,47570,1,0,0:0:0:0:
248,120,47699,1,8,0:0:0:0:
120,80,47829,1,0,0:0:0:0:
200,192,47958,2,0,P|184:240|184:272,1,77.999997619629,2|0,0:0|0:0,0:0:0:0:
296,248,48217,6,0,P|360:232|392:232,1,77.999997619629,8|0,0:0|0:0,0:0:0:0:
296,136,48475,2,0,P|360:152|392:152,1,77.999997619629,0|2,0:0|0:0,0:0:0:0:
216,136,48734,2,0,P|152:152|120:152,1,77.999997619629
216,248,48993,2,0,P|152:232|120:232,1,77.999997619629,2|0,0:0|0:0,0:0:0:0:
80,144,49251,5,0,0:0:0:0:
128,48,49380,1,0,0:0:0:0:
200,136,49510,1,0,0:0:0:0:
77,78,49639,5,2,0:0:0:0:
185,71,49768,1,0,0:0:0:0:
144,178,49898,1,0,0:0:0:0:
248,208,50027,2,0,P|320:216|344:240,1,77.999997619629,2|0,0:0|0:0,0:0:0:0:
392,128,50286,2,0,P|408:88|424:80,2,38.9999988098145,4|0|0,0:0|0:0|0:0,0:0:0:0:
392,240,50544,2,0,P|416:280|464:304,1,77.999997619629,0|2,0:0|0:0,0:0:0:0:
336,312,50803,2,0,P|288:320|272:328,2,38.9999988098145,4|0|0,0:0|0:0|0:0,0:0:0:0:
288,216,51062,5,2,0:0:0:0:
288,216,51191,1,0,0:0:0:0:
256,80,51320,1,10,0:0:0:0:
144,48,51449,1,0,0:0:0:0:
232,128,51579,1,2,0:0:0:0:
120,104,51708,1,2,0:0:0:0:
208,184,51837,2,0,B|216:232|136:240|144:344,2,155.999995239258,8|2|4,0:0|0:0|0:0,0:0:0:0:
208,184,52419,1,0,0:0:0:0:
208,184,52484,1,0,0:0:0:0:
320,160,52613,6,0,P|392:176|408:200,1,77.999997619629,0|2,0:0|0:0,0:0:0:0:
336,280,52872,2,0,P|288:304|272:320,2,38.9999988098145,4|0|0,0:0|0:0|0:0,0:0:0:0:
440,232,53130,2,0,P|464:168|448:128,1,77.999997619629,2|0,0:0|0:0,0:0:0:0:
360,104,53389,2,0,P|304:88|288:64,1,77.999997619629,8|0,0:0|0:0,0:0:0:0:
168,176,53648,2,0,P|224:152|240:128,1,77.999997619629,0|2,0:0|0:0,0:0:0:0:
296,240,53906,2,0,P|344:240|384:264,2,77.999997619629,8|2|2,0:0|0:0|0:0,0:0:0:0:
192,296,54294,1,0,0:0:0:0:
96,232,54424,5,4,0:0:0:0:
96,232,54488,1,0,0:0:0:0:
96,232,54553,1,0,0:0:0:0:
128,120,54682,2,0,P|152:72|152:40,1,77.999997619629
248,120,54941,2,0,P|280:88|288:88,2,38.9999988098145,4|0|0,0:0|0:0|0:0,0:0:0:0:
352,168,55199,2,0,P|400:200|416:248,1,77.999997619629,2|0,0:0|0:0,0:0:0:0:
320,296,55458,6,0,P|280:256|240:248,1,77.999997619629,8|0,0:0|0:0,0:0:0:0:
144,280,55717,2,0,P|160:208|152:176,1,77.999997619629,8|0,0:0|0:0,0:0:0:0:
272,168,55975,2,0,P|320:120|344:112,1,77.999997619629,8|0,0:0|0:0,0:0:0:0:
216,80,56234,1,8,0:0:0:0:
112,112,56363,1,8,0:0:0:0:
64,208,56493,1,8,0:0:0:0:
256,304,56751,6,0,P|304:264|312:240,1,77.999997619629
416,224,57010,2,0,P|376:176|376:136,1,77.999997619629
448,80,57268,1,0,0:0:0:0:
448,80,57398,1,0,0:0:0:0:
448,80,57527,2,0,P|400:72|368:40,1,77.999997619629
304,136,57786,2,0,P|264:176|216:184,1,77.999997619629
176,96,58044,5,2,0:0:0:0:
176,96,58174,1,2,0:0:0:0:
176,96,58303,1,2,0:0:0:0:
176,96,58432,1,2,0:0:0:0:
176,96,58562,1,4,0:0:0:0:
160,112,58626,1,0,0:0:0:0:
152,136,58691,1,0,0:0:0:0:
144,160,58755,1,0,0:0:0:0:
128,184,58820,2,0,P|80:192|56:184,2,38.9999988098145
136,208,59014,1,0,0:0:0:0:
152,232,59079,5,0,0:0:0:0:
176,248,59143,1,0,0:0:0:0:
200,256,59208,2,0,P|192:304|184:312,1,38.9999988098145
224,264,59337,2,0,P|240:216|240:200,1,38.9999988098145
248,272,59467,2,0,P|248:312|232:336,1,38.9999988098145
280,272,59596,1,4,0:0:0:0:
376,224,59725,2,0,P|416:216|424:216,2,38.9999988098145,4|0|0,0:0|0:0|0:0,0:0:0:0:
424,120,59984,5,2,0:0:0:0:
352,40,60113,1,8,0:0:0:0:
304,136,60243,1,2,0:0:0:0:
224,64,60372,2,0,P|176:56|160:64,2,38.9999988098145,4|0|2,0:0|0:0|0:0,0:0:0:0:
136,128,60630,2,0,P|88:136|72:136,1,38.9999988098145,8|0,0:0|0:0,0:0:0:0:
144,168,60760,2,0,P|96:184|88:184,1,38.9999988098145
160,200,60889,2,0,P|128:224|104:232,1,38.9999988098145
184,232,61018,1,2,0:0:0:0:
208,256,61083,1,0,0:0:0:0:
240,272,61148,5,8,0:0:0:0:
272,280,61212,2,0,P|272:320|264:336,2,38.9999988098145
304,280,61406,2,0,P|312:320|312:336,2,38.9999988098145,2|0|0,0:0|0:0|0:0,0:0:0:0:
336,272,61600,1,0,0:0:0:0:
360,256,61665,1,4,0:0:0:0:
368,144,61794,6,0,P|392:80|384:48,1,77.999997619629
280,48,62053,1,0,0:0:0:0:
240,152,62182,1,0,0:0:0:0:
168,64,62312,1,0,0:0:0:0:
112,160,62441,2,0,P|72:200|64:256,1,77.999997619629
160,280,62699,2,0,P|192:320|200:336,2,38.9999988098145
264,256,62958,1,0,0:0:0:0:
376,256,63087,6,0,B|432:208|432:184|432:184|448:192,2,77.999997619629
352,152,63475,1,0,0:0:0:0:
440,88,63605,1,0,0:0:0:0:
336,56,63734,2,0,P|288:72|232:64,1,77.999997619629
160,120,63993,1,0,0:0:0:0:
160,120,64057,1,0,0:0:0:0:
160,120,64122,1,0,0:0:0:0:
112,216,64251,2,0,P|96:264|56:312,1,77.999997619629
240,216,64510,2,0,P|256:264|296:312,1,77.999997619629
376,280,64768,6,0,P|408:328|432:336,1,77.999997619629
464,232,65027,2,0,P|408:168|408:144,1,77.999997619629
392,64,65286,1,0,0:0:0:0:
288,32,65415,1,0,0:0:0:0:
304,136,65544,1,0,0:0:0:0:
200,96,65674,2,0,P|144:112|96:104,2,77.999997619629
160,200,66062,2,0,P|120:248|80:264,1,77.999997619629
232,288,66320,2,0,P|296:272|328:280,1,77.999997619629
400,264,66579,2,0,P|384:200|392:168,1,77.999997619629
344,88,66837,5,0,0:0:0:0:
344,88,66902,1,0,0:0:0:0:
344,88,66967,1,0,0:0:0:0:
280,176,67096,2,0,P|280:232|304:272,1,77.999997619629
176,256,67355,2,0,P|128:264|120:272,2,38.9999988098145
160,152,67613,2,0,P|136:112|88:64,1,77.999997619629
224,56,67872,5,0,0:0:0:0:
224,56,67937,1,0,0:0:0:0:
224,56,68001,2,0,P|272:80|304:64,1,77.999997619629
400,104,68260,1,0,0:0:0:0:
416,216,68389,2,0,B|352:240|368:312|280:312,1,155.999995239258
120,176,68906,2,0,P|80:136|80:120,2,38.9999988098145
192,88,69165,2,0,P|256:104|288:96,1,77.999997619629
336,192,69424,5,0,0:0:0:0:
336,192,69488,1,0,0:0:0:0:
336,192,69553,1,0,0:0:0:0:
264,272,69682,2,0,P|224:296|200:320,1,77.999997619629
112,256,69941,1,0,0:0:0:0:
184,176,70070,1,0,0:0:0:0:
232,80,70199,1,0,0:0:0:0:
344,88,70329,2,0,P|400:72|416:40,1,77.999997619629
424,168,70587,2,0,P|416:216|432:256,1,77.999997619629
336,312,70846,1,0,0:0:0:0:
280,224,70975,6,0,P|256:192|240:184,2,38.9999988098145
168,240,71234,2,0,P|104:208|80:208,1,77.999997619629
128,104,71493,1,0,0:0:0:0:
128,104,71557,1,0,0:0:0:0:
128,104,71622,1,0,0:0:0:0:
232,88,71751,2,0,P|288:80|296:64,1,77.999997619629
384,128,72010,5,0,0:0:0:0:
440,224,72139,1,0,0:0:0:0:
440,104,72268,1,0,0:0:0:0:
384,200,72398,1,0,0:0:0:0:
296,264,72527,2,0,P|272:312|240:320,1,77.999997619629
208,216,72786,2,0,P|224:160|208:128,1,77.999997619629
112,168,73044,5,0,0:0:0:0:
112,168,73303,1,0,0:0:0:0:
112,168,73562,1,0,0:0:0:0:
112,168,73820,1,0,0:0:0:0:
112,168,74079,1,0,0:0:0:0:
112,168,74337,2,0,P|144:224|144:240,2,77.999997619629
272,160,74855,2,0,P|304:128|336:112,1,77.999997619629
376,216,75113,1,4,0:0:0:0:
80,56,81320,5,0,0:0:0:0:
176,96,81579,1,0,0:0:0:0:
280,96,81837,1,0,0:0:0:0:
328,104,81967,1,0,0:0:0:0:
400,176,82225,1,0,0:0:0:0:
336,256,82484,1,0,0:0:0:0:
288,264,82613,1,0,0:0:0:0:
240,240,82743,1,0,0:0:0:0:
192,224,82872,6,0,P|144:240|120:256,1,65
120,200,83130,2,0,P|72:176|48:144,1,65
136,104,83389,2,0,P|176:72|184:56,2,65
224,104,83777,2,0,P|272:88|312:88,1,65
368,128,84036,1,0,0:0:0:0:
424,200,84165,2,0,P|440:256|440:288,2,65
256,272,84682,1,0,0:0:0:0:
64,248,84941,6,0,P|112:224|136:192,2,65
248,232,85458,2,0,P|208:272|200:296,1,65
168,192,85717,2,0,P|176:136|168:104,1,65
264,128,85975,2,0,P|328:104|336:88,1,65
400,168,86234,6,0,P|392:200|408:232,1,65
336,288,86493,2,0,P|288:312|272:336,1,65
192,296,86751,1,0,0:0:0:0:
72,160,87010,2,0,P|120:120|96:56,1,130
288,72,87527,5,0,0:0:0:0:
288,72,87656,1,0,0:0:0:0:
288,72,87786,1,0,0:0:0:0:
288,72,87915,1,0,0:0:0:0:
288,72,88044,2,0,P|344:88|376:80,1,65
344,176,88303,2,0,P|320:216|328:248,2,65
160,192,88820,5,0,0:0:0:0:
312,288,89079,2,0,P|368:288|392:304,1,65
424,216,89337,2,0,P|424:168|440:144,1,65
376,80,89596,1,0,0:0:0:0:
288,112,89725,2,0,P|224:120|208:112,1,65
160,56,89984,2,0,P|96:80|88:152,1,130
136,208,90372,2,0,P|160:256|160:280,1,65
240,224,90630,6,0,P|312:192|360:224,1,130
384,128,91018,1,0,0:0:0:0:
440,200,91148,2,0,P|448:264|384:312,1,130
224,312,91665,5,0,0:0:0:0:
160,248,91794,1,0,0:0:0:0:
224,184,91924,1,0,0:0:0:0:
288,248,92053,1,0,0:0:0:0:
312,160,92182,2,0,P|304:120|320:88,1,65
224,72,92441,2,0,P|168:80|88:64,1,130
56,248,92958,5,0,0:0:0:0:
232,304,93217,2,0,P|288:296|312:312,1,65
368,248,93475,2,0,P|384:208|416:184,1,65
368,104,93734,1,0,0:0:0:0:
192,144,93993,1,0,0:0:0:0:
336,40,94251,1,0,0:0:0:0:
448,184,94510,2,0,P|440:240|448:264,1,65
360,208,94768,6,0,P|312:200|288:216,2,65
208,312,95286,2,0,P|216:256|160:200,1,130
312,88,95803,6,0,P|272:96|240:88,1,65
192,160,96062,1,0,0:0:0:0:
192,160,96191,1,0,0:0:0:0:
192,160,96320,2,0,P|224:192|312:208,2,130
72,296,97096,1,0,0:0:0:0:
256,288,97355,2,0,P|304:272|320:272,1,65
344,160,97613,2,0,P|320:128|328:88,1,65
232,120,97872,1,0,0:0:0:0:
72,216,98130,6,0,P|120:208|160:224,1,65
144,120,98389,2,0,P|112:88|104:64,1,65
192,48,98648,2,0,P|240:48|272:40,1,65
336,80,98906,1,0,0:0:0:0:
448,224,99165,1,0,0:0:0:0:
448,224,99294,2,0,P|400:248|376:328,1,130
352,296,99618,1,0,0:0:0:0:
328,280,99682,1,0,0:0:0:0:
296,272,99747,1,0,0:0:0:0:
264,272,99812,1,0,0:0:0:0:
232,280,99876,1,0,0:0:0:0:
208,296,99941,6,0,P|160:272|88:304,1,130
104,184,100458,2,0,P|136:144|112:72,1,130
232,64,100975,1,0,0:0:0:0:
336,112,101234,2,0,P|392:96|416:72,1,65
432,136,101493,2,0,P|408:176|416:208,1,65
360,224,101751,1,0,0:0:0:0:
248,264,102010,2,0,P|216:264|120:328,1,130
136,192,102527,2,0,P|168:144|152:64,2,130
248,152,103303,6,0,P|288:112|320:104,1,65
352,112,103562,2,0,P|416:88|432:32,2,130
424,200,104337,1,0,0:0:0:0:
320,256,104596,2,0,P|280:280|272:296,1,65
224,264,104855,2,0,P|208:224|184:208,2,65
112,288,105372,1,0,0:0:0:0:
56,184,105630,1,0,0:0:0:0:
136,96,105889,1,0,0:0:0:0:
248,136,106148,6,0,P|280:104|288:72,1,65
344,88,106406,2,0,P|384:72|408:72,1,65
424,128,106665,2,0,P|448:184|440:208,2,65
352,224,107182,2,0,P|312:248|304:272,1,65
256,232,107441,2,0,P|192:240|120:192,2,130
256,112,108217,6,0,P|320:96|360:40,2,130
144,144,108993,2,0,P|120:192|40:224,1,130
160,264,109510,2,0,P|208:272|224:288,1,65
256,240,109768,2,0,P|304:232|320:216,1,65
368,240,110027,1,0,0:0:0:0:
288,152,110286,2,0,P|224:112|216:48,1,130
328,72,110803,2,0,P|384:104|448:80,1,130
440,144,111191,2,0,P|440:184|448:208,1,65
424,256,111449,2,0,P|392:304|392:320,1,65
280,288,111837,5,0,0:0:0:0:
280,288,112096,1,0,0:0:0:0:
168,256,112355,1,0,0:0:0:0:
120,152,112613,1,0,0:0:0:0:
208,72,112872,1,0,0:0:0:0:
248,184,113130,1,0,0:0:0:0:
248,184,113260,1,0,0:0:0:0:
248,184,113389,6,0,P|280:160|312:152,1,65
336,104,113648,2,0,P|360:56|352:32,2,65
424,184,114165,1,0,0:0:0:0:
352,280,114424,2,0,P|312:296|296:320,1,65
240,296,114682,2,0,P|184:288|160:272,1,65
160,232,114941,2,0,P|128:200|96:184,1,65
144,144,115199,2,0,P|144:96|160:72,1,65
208,64,115458,5,0,0:0:0:0:
264,72,115587,1,0,0:0:0:0:
312,112,115717,1,0,0:0:0:0:
336,168,115846,1,0,0:0:0:0:
320,224,115975,1,4,0:0:0:0:
80,312,116493,5,0,0:0:0:0:
80,312,116557,1,0,0:0:0:0:
80,312,116622,1,0,0:0:0:0:
128,208,116751,2,0,P|144:160|128:104,1,84.4999961318971
240,184,117010,2,0,P|272:216|272:232,2,42.2499980659486
336,120,117268,2,0,P|400:96|424:72,1,84.4999961318971
440,200,117527,5,0,0:0:0:0:
360,288,117656,1,0,0:0:0:0:
440,200,117786,1,0,0:0:0:0:
360,288,117915,1,0,0:0:0:0:
440,200,118044,1,0,0:0:0:0:
360,288,118174,1,0,0:0:0:0:
240,272,118303,2,0,P|176:256|144:264,1,84.4999961318971
192,144,118562,2,0,P|168:104|168:96,2,42.2499980659486
304,104,118820,2,0,P|344:72|360:32,1,84.4999961318971
240,48,119079,5,0,0:0:0:0:
240,48,119143,1,0,0:0:0:0:
240,48,119208,1,0,0:0:0:0:
136,112,119337,2,0,P|96:144|48:160,1,84.4999961318971
112,264,119596,1,0,0:0:0:0:
216,320,119725,1,0,0:0:0:0:
208,200,119855,2,0,P|272:200|288:184,1,84.4999961318971
400,176,120113,2,0,P|416:224|456:240,1,84.4999961318971
472,120,120372,2,0,P|440:80|400:64,1,84.4999961318971
296,104,120630,5,0,0:0:0:0:
296,104,120695,1,0,0:0:0:0:
296,104,120760,1,0,0:0:0:0:
176,104,120889,2,0,P|128:96|96:80,1,84.4999961318971
88,200,121148,1,0,0:0:0:0:
88,200,121212,1,0,0:0:0:0:
88,200,121277,1,0,0:0:0:0:
192,256,121406,6,0,P|240:272|256:288,2,42.2499980659486
296,192,121665,2,0,P|336:176|352:176,2,42.2499980659486
368,96,121924,1,0,0:0:0:0:
456,176,122053,1,0,0:0:0:0:
432,296,122182,1,0,0:0:0:0:
320,336,122312,1,0,0:0:0:0:
216,272,122441,1,0,0:0:0:0:
168,160,122570,1,0,0:0:0:0:
72,88,122699,6,0,P|112:64|160:64,2,84.4999961318971
168,160,123087,1,0,0:0:0:0:
240,64,123217,1,0,0:0:0:0:
312,160,123346,1,0,0:0:0:0:
240,256,123475,1,0,0:0:0:0:
360,264,123605,2,0,P|400:240|456:232,1,84.4999961318971
440,112,123863,1,0,0:0:0:0:
344,40,123993,5,0,0:0:0:0:
416,136,124122,1,0,0:0:0:0:
320,72,124251,1,0,0:0:0:0:
400,160,124380,1,0,0:0:0:0:
304,96,124510,1,0,0:0:0:0:
288,216,124639,1,0,0:0:0:0:
176,256,124768,6,0,P|136:272|128:272,2,42.2499980659486
112,152,125027,2,0,P|72:120|32:112,1,84.4999961318971
144,56,125286,2,0,P|192:48|200:40,2,42.2499980659486
240,128,125544,1,0,0:0:0:0:
240,128,125674,1,0,0:0:0:0:
336,192,125803,5,0,0:0:0:0:
336,192,125932,1,0,0:0:0:0:
336,192,126062,1,0,0:0:0:0:
336,192,126191,1,0,0:0:0:0:
336,192,126320,2,0,P|376:160|384:120,1,84.4999961318971
408,248,126579,2,0,P|352:272|328:304,1,84.4999961318971
224,256,126837,5,0,0:0:0:0:
224,256,126902,1,0,0:0:0:0:
224,256,126967,1,0,0:0:0:0:
136,176,127096,2,0,P|88:144|48:152,1,84.4999961318971
152,64,127355,1,0,0:0:0:0:
152,64,127419,1,0,0:0:0:0:
152,64,127484,1,0,0:0:0:0:
264,96,127613,2,0,P|312:80|360:80,1,84.4999961318971
392,184,127872,6,0,P|424:224|464:232,1,84.4999961318971
344,280,128130,2,0,P|288:304|264:336,1,84.4999961318971
200,224,128389,2,0,P|144:240|104:280,1,84.4999961318971
72,144,128648,2,0,P|80:80|64:48,1,84.4999961318971
184,104,128906,1,0,0:0:0:0:
184,104,128971,1,0,0:0:0:0:
184,104,129036,1,0,0:0:0:0:
304,80,129165,6,0,B|368:80|376:64|376:64|392:72,1,84.4999961318971
440,176,129424,2,0,P|456:216|464:224,2,42.2499980659486
344,240,129682,1,0,2:0:0:0:
344,240,129812,1,0,2:0:0:0:
248,312,129941,1,8,2:0:0:0:
224,240,130070,1,8,2:0:0:0:
160,280,130199,1,8,2:0:0:0:
160,192,130329,1,8,2:0:0:0:
80,224,130458,5,8,2:0:0:0:
88,128,130587,1,8,2:0:0:0:
184,72,130717,1,8,2:0:0:0:
304,72,130846,1,8,2:0:0:0:
408,120,130975,1,4,2:0:0:0:
232,280,131234,5,0,0:0:0:0:
232,280,131493,2,0,P|288:272|336:288,1,84.4999961318971
432,264,131751,2,0,P|464:208|456:176,2,84.4999961318971
240,128,132268,2,0,P|288:160|336:152,1,84.4999961318971
360,48,132527,1,0,0:0:0:0:
360,48,132656,1,0,0:0:0:0:
360,48,132786,1,0,0:0:0:0:
360,48,132915,1,0,0:0:0:0:
360,48,133044,5,0,0:0:0:0:
376,72,133109,1,0,0:0:0:0:
392,88,133174,1,0,0:0:0:0:
416,104,133238,1,0,0:0:0:0:
424,128,133303,1,0,0:0:0:0:
424,152,133368,1,0,0:0:0:0:
432,176,133432,1,0,0:0:0:0:
424,200,133497,1,0,0:0:0:0:
432,224,133562,5,0,0:0:0:0:
416,248,133626,1,0,0:0:0:0:
392,256,133691,2,0,P|400:304|408:320,1,42.2499980659486
360,256,133820,2,0,P|344:312|336:320,1,42.2499980659486
328,256,133949,1,0,0:0:0:0:
232,184,134079,5,0,0:0:0:0:
232,184,134208,1,0,0:0:0:0:
128,128,134337,1,0,0:0:0:0:
232,184,134467,1,0,0:0:0:0:
232,184,134596,1,0,0:0:0:0:
128,128,134725,2,0,P|128:64|112:48,1,84.4999961318971
232,184,134984,2,0,P|232:264|256:296,1,84.4999961318971
200,280,135178,5,0,0:0:0:0:
184,264,135243,1,0,0:0:0:0:
176,240,135307,1,0,0:0:0:0:
176,216,135372,1,0,0:0:0:0:
184,192,135437,1,0,0:0:0:0:
200,176,135501,1,0,0:0:0:0:
224,160,135566,1,0,0:0:0:0:
240,144,135630,5,0,0:0:0:0:
256,120,135695,1,0,0:0:0:0:
256,96,135760,1,0,0:0:0:0:
240,72,135824,1,0,0:0:0:0:
216,56,135889,2,0,P|168:56|136:32,1,84.4999961318971
72,112,136148,5,0,0:0:0:0:
72,216,136277,1,0,0:0:0:0:
32,128,136406,1,0,0:0:0:0:
112,192,136536,1,0,0:0:0:0:
104,296,136665,2,0,P|160:320|176:344,1,84.4999961318971
264,296,136924,2,0,P|320:280|360:296,1,84.4999961318971
400,208,137182,5,0,0:0:0:0:
400,208,137247,1,0,0:0:0:0:
400,208,137312,1,0,0:0:0:0:
360,112,137441,2,0,P|376:56|408:32,1,84.4999961318971
296,48,137699,1,0,0:0:0:0:
184,80,137829,1,0,0:0:0:0:
288,128,137958,1,0,0:0:0:0:
184,176,138087,1,0,0:0:0:0:
120,280,138217,6,0,P|176:280|216:320,1,84.4999961318971
296,232,138475,1,0,0:0:0:0:
296,232,138540,1,0,0:0:0:0:
296,232,138605,1,0,0:0:0:0:
376,144,138734,1,0,0:0:0:0:
432,40,138863,1,0,0:0:0:0:
352,128,138993,1,0,0:0:0:0:
448,64,139122,1,0,0:0:0:0:
456,184,139251,6,0,P|440:256|448:288,1,84.4999961318971
336,312,139510,2,0,P|352:240|344:208,1,84.4999961318971
232,248,139768,1,0,0:0:0:0:
152,192,139898,1,0,0:0:0:0:
208,112,140027,1,0,0:0:0:0:
288,168,140156,1,0,0:0:0:0:
368,80,140286,6,0,P|416:104|464:88,1,84.4999961318971
368,208,140544,2,0,P|320:240|280:240,1,84.4999961318971
160,136,140803,2,0,P|224:152|248:144,1,84.4999961318971
120,264,141062,1,0,0:0:0:0:
72,104,141191,1,0,0:0:0:0:
168,48,141320,1,0,0:0:0:0:
168,48,141385,1,0,0:0:0:0:
168,48,141449,1,0,0:0:0:0:
272,88,141579,6,0,P|320:112|336:136,1,84.4999961318971
416,208,141837,2,0,P|464:224|480:216,2,42.2499980659486
336,280,142096,2,0,P|280:288|248:312,1,84.4999961318971
200,208,142355,1,0,0:0:0:0:
104,264,142484,1,0,0:0:0:0:
208,296,142613,1,0,0:0:0:0:
136,208,142743,1,0,0:0:0:0:
192,112,142872,2,0,P|272:120|328:56,1,168.999992263794
400,264,143389,6,0,P|448:288|456:304,2,42.2499980659486
440,160,143648,1,0,0:0:0:0:
440,160,143777,1,0,0:0:0:0:
352,96,143906,1,0,0:0:0:0:
352,96,143971,1,0,0:0:0:0:
352,96,144036,1,0,0:0:0:0:
288,184,144165,2,0,P|240:224|208:224,1,84.4999961318971
112,192,144424,5,0,0:0:0:0:
216,96,144553,1,0,0:0:0:0:
160,200,144682,1,0,0:0:0:0:
224,144,144812,1,0,0:0:0:0:
168,248,144941,1,0,0:0:0:0:
272,160,145070,1,0,0:0:0:0:
216,264,145199,1,0,0:0:0:0:
288,200,145329,1,0,0:0:0:0:
360,264,145458,5,0,0:0:0:0:
360,264,145523,1,0,0:0:0:0:
360,264,145587,1,0,0:0:0:0:
408,168,145717,2,0,P|464:136|496:144,1,84.4999961318971
400,64,145975,2,0,P|352:32|344:16,2,42.2499980659486
288,80,146234,2,0,P|240:64|192:72,1,84.4999961318971
128,144,146493,5,0,0:0:0:0:
128,144,146557,1,0,0:0:0:0:
128,144,146622,1,0,0:0:0:0:
248,224,146751,1,0,0:0:0:0:
184,96,146880,1,0,0:0:0:0:
184,240,147010,1,0,0:0:0:0:
248,112,147139,1,0,0:0:0:0:
136,200,147268,1,0,0:0:0:0:
272,160,147398,1,0,0:0:0:0:
368,208,147527,5,0,0:0:0:0:
368,208,147786,1,0,0:0:0:0:
368,208,148044,1,0,0:0:0:0:
368,208,148303,1,0,0:0:0:0:
368,208,148562,1,0,0:0:0:0:
256,192,148820,12,0,149596,0:0:0:0:
