osu file format v13

[General]
AudioFilename: Krewella - Alive.mp3
AudioLeadIn: 0
PreviewTime: 105000
Countdown: 1
SampleSet: Normal
StackLeniency: 0.7
Mode: 0
LetterboxInBreaks: 1
WidescreenStoryboard: 0

[Editor]
DistanceSpacing: 1.1
BeatDivisor: 4
GridSize: 16
TimelineZoom: 1

[Metadata]
Title:Alive
TitleUnicode:Alive
Artist:Krewella
ArtistUnicode:Krewella
Creator:GlennCampbell
Version:Insane
Source:
Tags:dubstep krewella alive
BeatmapID:387161
BeatmapSetID:158272

[Difficulty]
HPDrainRate:5
CircleSize:4
OverallDifficulty:6
ApproachRate:9
SliderMultiplier:2
SliderTickRate:2

[Events]
//Background and Video events
0,0,"ok34.png",0,0
//Break Periods
//Storyboard Layer 0 (Background)
//Storyboard Layer 1 (Fail)
//Storyboard Layer 2 (Pass)
//Storyboard Layer 3 (Foreground)
//Storyboard Sound Samples
//Background Colour Transformations
3,100,163,162,255

[TimingPoints]
0,468.75,4,1,0,100,1,0
30468,-100,4,2,0,30,0,0
45110,-100,4,1,0,80,0,0
60000,-100,4,1,0,100,0,0
75000,-66.6666666666667,4,1,0,100,0,0
90234,-66.6666666666667,4,2,0,20,0,0
101250,-66.6666666666667,4,3,0,100,0,1
105000,-66.6666666666667,4,1,0,100,0,0
135468,-100,4,1,0,100,0,0
150000,-80,4,1,0,100,0,0
153750,-66.6666666666667,4,1,0,100,0,0
167929,-50,4,1,0,100,0,0
170670,-66.6666666666667,4,1,0,100,0,0
183398,-50,4,1,0,100,0,1
184101,-66.6666666666667,4,1,0,100,0,1
196171,-100,4,1,0,100,0,0
198984,-50,4,1,0,100,0,0
214453,-66.6666666666667,4,1,0,100,0,0
221250,-50,4,1,0,100,0,0

[Colours]
Combo1 : 192,192,192
Combo2 : 255,0,128
Combo3 : 170,170,255
Combo4 : 0,0,255
Combo5 : 255,255,255

[HitObjects]
256,192,30234,5,0,0:0:0:0:
344,144,30703,1,0,0:0:0:0:
272,96,30937,1,0,0:0:0:0:
184,112,31171,1,0,0:0:0:0:
160,200,31406,1,0,0:0:0:0:
208,280,31640,1,0,0:0:0:0:
312,272,31875,1,0,0:0:0:0:
352,184,32109,1,0,0:0:0:0:
288,104,32343,1,0,0:0:0:0:
288,104,32578,1,0,0:0:0:0:
352,184,32812,1,0,0:0:0:0:
312,272,33046,1,0,0:0:0:0:
208,280,33281,1,0,0:0:0:0:
160,200,33515,1,0,0:0:0:0:
192,112,33750,1,0,0:0:0:0:
256,192,33984,5,0,0:0:0:0:
312,272,34218,1,0,0:0:0:0:
408,328,34453,1,0,0:0:0:0:
504,272,34687,1,0,0:0:0:0:
504,160,34921,1,0,0:0:0:0:
432,80,35156,1,0,0:0:0:0:
328,112,35390,1,0,0:0:0:0:
232,160,35625,1,0,0:0:0:0:
152,232,35859,1,0,0:0:0:0:
96,328,36093,1,0,0:0:0:0:
8,264,36328,1,0,0:0:0:0:
8,152,36562,1,0,0:0:0:0:
72,64,36796,1,0,0:0:0:0:
168,120,37031,1,0,0:0:0:0:
256,192,37265,1,0,0:0:0:0:
472,40,37500,6,0,L|376:144,1,100
320,184,37968,2,0,L|240:256,1,100
152,304,38437,2,0,L|64:232,1,100
24,144,38906,2,0,L|112:64,1,100
200,120,39375,2,0,L|288:192,1,100
344,272,39843,2,0,L|456:328,1,100
464,208,40312,2,0,L|424:88,1,100
352,40,40781,2,0,L|264:112,1,100
208,192,41250,2,0,L|112:272,1,100
32,216,41718,5,0,0:0:0:0:
80,120,41953,1,0,0:0:0:0:
176,72,42187,1,0,0:0:0:0:
256,144,42421,1,0,0:0:0:0:
328,224,42656,1,0,0:0:0:0:
432,264,42890,1,0,0:0:0:0:
432,264,43125,1,0,0:0:0:0:
328,224,43359,1,0,0:0:0:0:
256,144,43593,1,0,0:0:0:0:
168,72,43828,1,0,0:0:0:0:
88,152,44062,1,0,0:0:0:0:
64,256,44296,1,0,0:0:0:0:
152,328,44531,1,0,0:0:0:0:
256,280,44765,1,0,0:0:0:0:
296,176,45000,1,0,0:0:0:0:
160,192,45234,6,0,P|192:112|224:112,1,100
192,112,45585,1,0,0:0:0:0:
240,176,45937,1,0,0:0:0:0:
304,128,46171,2,0,P|408:184|312:184,1,300
232,256,47109,1,0,0:0:0:0:
136,304,47578,1,0,0:0:0:0:
136,208,48046,1,0,0:0:0:0:
144,120,48515,2,0,B|176:88|224:88|256:112,5,100
328,48,50625,5,0,0:0:0:0:
408,112,50859,1,0,0:0:0:0:
440,216,51093,1,0,0:0:0:0:
400,304,51328,2,0,L|304:368,1,100
160,304,51796,2,0,L|256:368,1,100
286,246,52265,1,0,0:0:0:0:
160,128,52734,5,0,0:0:0:0:
215,67,52968,2,0,P|119:51|87:163,1,200
112,208,53671,2,0,P|224:192|224:96,1,200
320,32,54609,2,0,P|400:144|464:112,1,200
400,64,55546,1,0,0:0:0:0:
352,256,56015,1,0,0:0:0:0:
352,256,56250,1,0,0:0:0:0:
352,256,56484,2,0,B|288:256|256:336|192:240|128:336|80:192|16:320,1,350
64,176,58125,5,0,0:0:0:0:
128,128,58359,1,0,0:0:0:0:
192,176,58593,1,0,0:0:0:0:
256,128,58828,1,0,0:0:0:0:
320,176,59062,1,0,0:0:0:0:
384,128,59296,1,0,0:0:0:0:
480,32,59531,1,0,0:0:0:0:
480,32,59648,1,0,0:0:0:0:
480,32,59765,1,0,0:0:0:0:
368,32,60234,2,0,L|320:64|256:64,1,100
277,64,60585,2,0,L|224:32|128:32,1,150
48,16,61171,6,0,B|48:88|48:88|112:112|112:112|112:176|112:176,1,200
248,144,62109,2,0,B|248:220|248:220|160:220|160:220,1,150
328,144,62812,2,0,B|328:220|328:220|433:221|433:221,2,150
408,144,63750,5,0,0:0:0:0:
464,288,63984,2,0,B|408:240|408:240|328:240|328:240,1,150
384,320,64687,1,0,0:0:0:0:
304,320,64921,1,0,0:0:0:0:
224,320,65273,6,0,B|176:288|176:288|176:192|176:192|176:192|176:192|176:192,1,150
256,240,65859,1,0,0:0:0:0:
96,240,66210,1,0,0:0:0:0:
16,112,66562,2,0,B|64:160|64:160|112:160|112:160,1,100
176,160,67031,2,0,B|224:160|224:160|272:80|272:80|352:80|352:80|352:80|352:80,1,200
400,32,67734,5,0,0:0:0:0:
448,80,67968,2,0,L|448:160,1,50
352,144,68437,1,0,0:0:0:0:
448,240,68671,2,0,P|368:240|336:304,1,150
336,294,69140,1,0,0:0:0:0:
416,320,69375,1,0,0:0:0:0:
256,352,69609,2,0,B|256:288|256:288|224:224|224:224|224:160,1,200
352,144,70312,1,0,0:0:0:0:
448,32,70546,2,0,B|416:48|416:48|384:16|384:16|352:48|352:48|320:16|320:16|288:48|288:48|288:48|288:48|288:48,1,200
256,112,71250,5,0,0:0:0:0:
208,32,71484,2,0,B|160:48|160:48|96:32|96:32,1,100
112,32,71835,1,0,0:0:0:0:
64,128,72187,1,0,0:0:0:0:
144,128,72421,2,0,L|256:128,1,100
192,208,72773,1,0,0:0:0:0:
64,336,73125,5,0,0:0:0:0:
192,336,73359,1,0,0:0:0:0:
304,336,73710,2,0,B|304:256|304:256|240:208|240:208|240:208,1,150
64,256,74296,2,0,B|112:192|112:192|208:192|208:128,1,200
464,32,75234,6,0,B|496:96|496:96|384:96|448:192|352:192,1,250
384,48,75937,1,0,0:0:0:0:
320,112,76171,1,0,0:0:0:0:
256,16,77109,5,0,0:0:0:0:
256,16,77343,1,0,0:0:0:0:
384,128,77578,1,0,0:0:0:0:
384,128,77812,1,0,0:0:0:0:
160,192,78046,1,0,0:0:0:0:
160,192,78281,1,0,0:0:0:0:
240,112,78515,2,0,B|272:192|272:192|352:240|352:240,1,150.000005722046
64,336,78984,2,0,B|176:224|304:352|304:352,1,225.000008583069
400,320,79687,1,0,0:0:0:0:
336,240,79921,2,0,B|336:176|336:128|336:128|272:160|272:160|224:128|224:128|224:64,1,300.000011444092
80,32,80859,6,0,L|224:144,1,150.000005722046
448,336,81328,6,0,L|288:224,1,150.000005722046,0|0,0:0|0:0,0:0:0:0:
64,336,81796,6,0,L|208:240,1,150.000005722046
416,32,82265,6,0,L|288:160,1,150.000005722046
80,176,82734,2,0,B|48:96|80:16|80:16|144:32|144:32,1,225.000008583069
160,112,83437,1,0,0:0:0:0:
208,16,83671,2,0,B|272:32|272:32|224:64|224:64|288:96|288:96|240:128|240:128|304:192|304:192,1,300.000011444092
336,336,84609,1,0,0:0:0:0:
336,336,84843,1,0,0:0:0:0:
176,240,85078,1,0,0:0:0:0:
176,240,85312,1,0,0:0:0:0:
384,192,85546,1,0,0:0:0:0:
384,192,85781,1,0,0:0:0:0:
256,48,86015,2,0,L|256:208,1,150.000005722046
160,32,86484,5,0,0:0:0:0:
160,32,86718,1,0,0:0:0:0:
352,112,86953,1,0,0:0:0:0:
352,112,87187,1,0,0:0:0:0:
160,128,87421,2,0,P|96:224|160:352,1,225.000008583069
192,240,87890,1,0,0:0:0:0:
432,336,88359,6,0,L|304:224,1,150.000005722046
208,144,88828,6,0,L|80:32,1,150.000005722046
80,336,89296,6,0,L|240:208,1,150.000005722046
304,144,89765,6,0,L|448:16,1,150.000005722046
448,128,90234,1,0,0:0:0:0:
368,208,90585,1,0,0:0:0:0:
448,304,90937,1,0,0:0:0:0:
304,304,91406,1,0,0:0:0:0:
304,144,91640,1,0,0:0:0:0:
112,192,91875,1,0,0:0:0:0:
192,272,92109,1,0,0:0:0:0:
208,128,92460,1,0,0:0:0:0:
352,224,92812,1,0,0:0:0:0:
400,64,93281,5,0,0:0:0:0:
272,32,93515,1,0,0:0:0:0:
240,128,93750,1,0,0:0:0:0:
160,304,93984,1,0,0:0:0:0:
96,64,94335,1,0,0:0:0:0:
128,192,94687,1,0,0:0:0:0:
384,336,95156,1,0,0:0:0:0:
336,176,95390,1,0,0:0:0:0:
288,336,95625,1,0,0:0:0:0:
464,240,95859,1,0,0:0:0:0:
288,64,96210,5,0,0:0:0:0:
128,144,96562,1,0,0:0:0:0:
128,320,97031,1,0,0:0:0:0:
256,192,97265,1,0,0:0:0:0:
256,192,97500,1,0,0:0:0:0:
256,192,98085,12,0,101250,0:0:0:0:
256,192,101484,6,0,L|368:192,16,75.0000028610231
208,160,103476,2,8,L|144:160,16,50
96,112,105234,5,0,0:0:0:0:
176,192,105585,1,0,0:0:0:0:
176,32,105937,1,0,0:0:0:0:
176,112,106289,2,0,L|352:112,1,150.000005722046
326,113,106640,1,0,0:0:0:0:
325,31,106875,1,0,0:0:0:0:
325,190,107109,1,0,0:0:0:0:
400,112,107460,1,0,0:0:0:0:
256,192,107812,2,0,L|256:368,1,150.000005722046
48,176,108281,2,0,B|80:224|144:224|176:176,2,150
256,272,108984,5,0,0:0:0:0:
256,112,109335,1,0,0:0:0:0:
256,192,109687,1,0,0:0:0:0:
128,32,110156,2,0,P|48:112|16:64,1,150.000005722046
384,32,110625,2,0,P|464:112|496:64,1,150.000005722046
199,222,111210,2,0,P|263:302|311:222,1,225.000008583069
112,288,112031,1,0,0:0:0:0:
256,144,112265,1,0,0:0:0:0:
400,288,112500,1,0,0:0:0:0:
416,112,112734,5,0,0:0:0:0:
336,192,113085,1,0,0:0:0:0:
336,32,113437,1,0,0:0:0:0:
336,112,113789,2,0,L|160:112,1,150.000005722046
186,113,114140,1,0,0:0:0:0:
187,31,114375,1,0,0:0:0:0:
187,190,114609,1,0,0:0:0:0:
112,112,114960,1,0,0:0:0:0:
256,192,115312,2,0,L|256:368,1,150.000005722046
464,176,115781,2,0,B|432:224|368:224|336:176,2,150
256,112,116484,5,0,0:0:0:0:
256,272,116835,1,0,0:0:0:0:
256,192,117187,1,0,0:0:0:0:
384,32,117656,2,0,P|464:112|496:64,1,150.000005722046
128,32,118125,2,0,P|48:112|16:64,1,150.000005722046
313,222,118710,2,0,P|249:302|201:222,1,225.000008583069
400,288,119531,1,0,0:0:0:0:
256,144,119765,1,0,0:0:0:0:
112,288,120000,1,0,0:0:0:0:
112,80,120234,5,0,0:0:0:0:
400,288,120468,2,8,L|400:208,1,75.0000028610231
256,32,120937,1,0,0:0:0:0:
256,336,121406,1,0,0:0:0:0:
400,80,121640,1,0,0:0:0:0:
112,288,121875,1,0,0:0:0:0:
416,192,122109,2,8,L|336:192,1,75.0000028610231
64,192,122460,1,0,0:0:0:0:
368,288,122812,1,0,0:0:0:0:
112,64,123281,5,0,0:0:0:0:
256,304,123515,1,0,0:0:0:0:
256,80,123750,1,0,0:0:0:0:
112,192,123984,2,8,L|112:288,1,75.0000028610231
384,192,124335,1,0,0:0:0:0:
256,192,124687,1,0,0:0:0:0:
128,32,125156,2,0,P|64:80|64:144,1,150.000005722046
144,112,125625,1,0,0:0:0:0:
144,304,125859,2,8,L|208:256,1,75.0000028610231
64,256,126210,2,0,P|96:368|208:368,1,225.000008583069
192,32,126914,6,8,L|192:208,1,150.000005722046,0|8,0:0|0:0,0:0:0:0:
320,176,127265,2,8,L|320:16,1,150.000005722046,0|8,0:0|0:0,0:0:0:0:
256,256,127734,5,0,0:0:0:0:
448,336,128085,2,8,L|528:336,1,75.0000028610231
400,176,128437,1,0,0:0:0:0:
96,176,128906,1,0,0:0:0:0:
64,336,129140,1,0,0:0:0:0:
368,272,129375,1,0,0:0:0:0:
160,272,129609,2,8,L|256:272,1,75.0000028610231
256,32,129960,5,0,0:0:0:0:
256,320,130312,1,0,0:0:0:0:
192,144,130781,2,0,B|224:195|304:195|337:115,2,150.000005722046
48,288,131484,2,4,P|144:224|208:272,1,150.000005722046
256,32,131835,2,8,L|256:112,1,75.0000028610231
128,304,132187,1,0,0:0:0:0:
400,39,132656,2,0,B|445:82|445:130|403:176,2,150.000005722046
320,240,133359,2,8,L|240:240,1,75.0000028610231
128,80,133710,1,0,0:0:0:0:
400,320,134062,1,0,0:0:0:0:
256,192,134296,12,0,135234,0:0:0:0:
80,32,138984,6,0,B|112:96|176:32|224:128,1,150
112,160,139687,1,0,0:0:0:0:
256,32,140156,1,0,0:0:0:0:
256,32,140390,1,0,0:0:0:0:
256,176,140859,1,0,0:0:0:0:
352,32,141093,2,0,L|480:32,1,100
448,112,141562,2,0,L|336:112,1,100
400,224,142031,1,0,0:0:0:0:
256,176,142265,1,0,0:0:0:0:
80,320,142734,2,0,L|80:160,1,150
256,32,143437,2,0,P|128:32|128:80,1,200
256,112,144375,2,0,P|384:112|384:160,1,200
128,224,145312,2,0,B|224:208|224:208|256:240|256:240|288:208|288:208|416:224,1,300
176,80,146484,2,0,L|224:64|288:80,1,100
240,192,146953,1,0,0:0:0:0:
336,224,147187,2,0,L|368:176|336:112,1,100
256,224,148125,5,0,0:0:0:0:
256,128,148359,2,0,L|256:16,1,100
160,112,148828,1,0,0:0:0:0:
144,16,149062,2,0,B|96:32|96:32|64:80,1,100
64,160,149531,1,0,0:0:0:0:
144,208,149765,1,0,0:0:0:0:
64,304,150234,6,0,B|144:272|192:368|320:240,1,250
298,259,150937,2,0,P|384:272|448:64,1,312.5
112,32,151875,2,0,L|240:112,1,125
112,128,152343,2,0,L|16:224,1,125
480,336,152812,2,0,B|448:288|448:288|480:256|480:256|432:240|432:240|480:208|480:208|352:160|432:96|432:48,1,375
192,128,153750,5,0,0:0:0:0:
320,128,153984,1,0,0:0:0:0:
320,256,154218,1,0,0:0:0:0:
192,256,154453,1,0,0:0:0:0:
192,64,154687,1,0,0:0:0:0:
384,128,154921,1,0,0:0:0:0:
320,320,155156,1,0,0:0:0:0:
128,256,155390,1,0,0:0:0:0:
384,256,155625,1,0,0:0:0:0:
256,64,155859,1,0,0:0:0:0:
128,256,156093,1,0,0:0:0:0:
384,192,156328,1,0,0:0:0:0:
128,192,156562,1,0,0:0:0:0:
256,320,156796,1,0,0:0:0:0:
352,112,157031,1,0,0:0:0:0:
160,112,157265,1,0,0:0:0:0:
256,192,157734,5,0,0:0:0:0:
256,192,157968,1,0,0:0:0:0:
144,192,158203,1,0,0:0:0:0:
144,192,158437,1,0,0:0:0:0:
256,304,158671,1,0,0:0:0:0:
256,304,158906,1,0,0:0:0:0:
368,192,159140,1,0,0:0:0:0:
368,192,159375,1,0,0:0:0:0:
256,80,159609,1,0,0:0:0:0:
256,80,159843,1,0,0:0:0:0:
144,192,160078,1,0,0:0:0:0:
144,192,160312,1,0,0:0:0:0:
368,192,160546,1,0,0:0:0:0:
368,192,160781,1,0,0:0:0:0:
320,128,161484,6,0,L|448:0,1,150.000005722046
192,128,161953,2,0,L|64:0,1,150.000005722046
192,256,162421,2,0,L|64:384,1,150.000005722046
320,256,162890,2,0,L|448:384,1,150.000005722046
256,160,163359,2,0,L|224:96|256:0,1,150.000005722046
192,192,163828,2,0,L|128:224|32:192,1,150.000005722046
320,192,164296,2,0,L|384:160|480:192,1,150.000005722046
320,128,165234,6,0,P|256:128|192:192,1,150.000005722046
192,256,165703,2,0,P|128:256|64:192,1,150.000005722046
320,256,166171,2,0,P|384:256|448:320,1,150.000005722046
192,128,166640,2,0,P|256:128|320:64,1,150.000005722046
80,352,167109,5,0,0:0:0:0:
432,352,167578,1,0,0:0:0:0:
248,344,168046,2,2,B|224:304|224:304|264:296|264:296|224:288|224:288|264:280|264:280|224:272|224:272|264:264|264:264|224:256|224:256|264:248|264:248|224:208|224:160|192:128|192:64|208:32|208:-16,1,600
336,152,168984,1,0,0:0:0:0:
256,112,169687,1,0,0:0:0:0:
256,112,169921,1,0,0:0:0:0:
64,80,170859,6,2,B|64:128|64:128|96:176|96:176|192:208,1,150.000005722046,8|0,0:0|0:0,0:0:0:0:
192,128,171328,1,8,0:0:0:0:
48,240,171562,1,0,0:0:0:0:
128,32,171796,1,8,0:0:0:0:
208,240,172031,1,0,0:0:0:0:
304,64,172265,2,2,P|416:112|464:192,1,150.000005722046,8|0,0:0|0:0,0:0:0:0:
311,255,172734,6,0,B|311:351|311:351|199:351|199:351|199:255,1,300.000011444092,8|0,0:0|0:0,0:0:0:0:
400,192,173437,1,8,0:0:0:0:
448,112,173671,1,2,0:0:0:0:
176,112,173906,2,0,L|272:80,4,75.0000028610231,0|8|0|8|0,0:0|0:0|0:0|0:0|0:0,0:0:0:0:
320,80,174609,1,8,0:0:0:0:
208,192,174843,1,2,0:0:0:0:
240,16,175078,1,8,0:0:0:0:
112,64,175312,1,0,0:0:0:0:
304,160,175546,1,8,0:0:0:0:
112,160,175781,1,2,0:0:0:0:
160,16,176015,1,8,0:0:0:0:
416,32,176484,6,2,B|416:96|416:96|352:96|352:192|352:192|288:208,1,225.000008583069
448,176,177187,1,8,0:0:0:0:
192,176,177421,2,2,B|192:112|336:112|336:0,1,225.000008583069
112,192,178359,2,0,B|112:256|160:304|224:320,1,150.000005722046,8|0,0:0|0:0,0:0:0:0:
224,208,178828,1,8,0:0:0:0:
64,320,179062,1,2,0:0:0:0:
144,112,179296,1,8,0:0:0:0:
224,352,179531,1,2,0:0:0:0:
32,192,179765,1,8,0:0:0:0:
464,48,180234,6,4,P|464:176|416:192,1,150.000005722046
462,176,180703,2,4,P|384:144|320:208,1,150.000005722046
334,174,181171,2,4,P|256:240|192:192,1,150.000005722046
220,228,181640,2,8,P|128:176|64:240,1,150.000005722046
304,320,182109,6,0,B|368:304|400:256|400:192,1,150.000005722046
288,192,182578,1,8,0:0:0:0:
464,320,182812,1,0,0:0:0:0:
208,336,183046,1,8,0:0:0:0:
448,160,183281,1,0,0:0:0:0:
384,352,183515,2,2,B|352:304|352:304|336:320|336:320|336:304|336:304|320:320|320:320|320:304|320:304|224:288|160:96,1,400
496,96,184335,5,0,0:0:0:0:
320,128,184687,1,0,0:0:0:0:
416,48,185156,2,0,P|416:144|464:176,2,150.000005722046
320,224,185859,1,8,0:0:0:0:
320,224,185976,1,8,0:0:0:0:
448,224,186210,1,8,0:0:0:0:
448,224,186327,1,8,0:0:0:0:
384,352,186562,1,8,0:0:0:0:
384,352,186679,1,8,0:0:0:0:
96,48,187031,6,0,P|96:144|48:176,2,150.000005722046
192,224,187734,1,8,0:0:0:0:
192,224,187851,1,8,0:0:0:0:
64,224,188085,1,8,0:0:0:0:
64,224,188203,1,8,0:0:0:0:
128,352,188437,1,8,0:0:0:0:
128,352,188554,1,8,0:0:0:0:
190,137,188906,6,0,P|238:105|334:153,2,150.000005722046
256,192,189609,1,8,0:0:0:0:
256,192,189726,1,8,0:0:0:0:
256,192,189843,1,8,0:0:0:0:
256,192,189960,2,4,L|256:288,1,75.0000028610231
256,352,190312,1,0,0:0:0:0:
160,32,190781,1,0,0:0:0:0:
256,80,191015,1,0,0:0:0:0:
352,32,191250,1,0,0:0:0:0:
432,96,191484,6,8,P|432:192|368:208,1,150.000005722046
80,96,191835,2,8,P|80:192|144:208,1,150.000005722046
256,304,192187,2,4,L|256:144,1,150.000005722046
352,352,192656,1,0,0:0:0:0:
256,304,192890,1,0,0:0:0:0:
160,352,193125,1,0,0:0:0:0:
256,160,193359,2,0,L|176:160,2,75.0000028610231,0|8|0,0:0|0:0|0:0,0:0:0:0:
256,160,193710,2,0,L|256:64,2,75.0000028610231,0|8|0,0:0|0:0|0:0,0:0:0:0:
256,160,194062,2,0,L|384:160,2,75.0000028610231,0|8|0,0:0|0:0|0:0,0:0:0:0:
190,247,194531,2,4,P|238:279|334:231,2,150.000005722046
224,32,195234,5,8,0:0:0:0:
208,32,195351,1,4,0:0:0:0:
288,80,195586,1,8,0:0:0:0:
304,80,195703,1,4,0:0:0:0:
224,128,195936,1,8,0:0:0:0:
208,128,196054,1,4,0:0:0:0:
400,176,196406,6,8,L|400:256,1,50
112,192,196640,6,8,L|112:96,1,50
272,192,196875,6,8,L|336:192,1,50
208,256,197109,6,8,L|144:256,1,50
336,256,197460,5,0,0:0:0:0:
160,128,197812,1,0,0:0:0:0:
256,192,198281,1,0,0:0:0:0:
256,192,198515,1,0,0:0:0:0:
256,192,198750,1,0,0:0:0:0:
48,80,198984,6,2,B|96:160|96:160|48:224|0:288|192:368,1,300
176,192,199687,1,8,0:0:0:0:
224,272,199921,1,8,0:0:0:0:
400,208,200859,2,2,P|288:160|224:64,1,200
352,96,201328,1,8,0:0:0:0:
256,240,201562,1,2,0:0:0:0:
192,32,201796,1,8,0:0:0:0:
464,32,202031,1,4,0:0:0:0:
176,160,202265,1,8,0:0:0:0:
224,224,202734,2,2,P|160:288|-16:176,1,300
112,208,203437,1,8,0:0:0:0:
128,64,203671,2,2,P|240:96|144:16,1,300
304,304,204609,5,8,0:0:0:0:
352,112,204843,1,2,0:0:0:0:
416,256,205078,1,8,0:0:0:0:
224,224,205312,1,2,0:0:0:0:
448,128,205546,1,8,0:0:0:0:
448,336,205781,1,2,0:0:0:0:
336,208,206015,2,10,P|256:96|112:64,1,200
464,64,206484,2,2,P|384:16|464:48,1,300,0|4,0:0|0:0,0:0:0:0:
464,192,207187,1,8,0:0:0:0:
64,16,207421,2,2,B|48:64|48:64|80:80|80:80|48:112|48:112|80:128|80:128|48:144|48:144|80:160|80:160|112:240|224:256,1,400
304,192,208359,1,8,0:0:0:0:
192,16,208593,1,8,0:0:0:0:
192,144,208828,6,2,P|400:112|448:160,1,200
464,96,209296,1,8,0:0:0:0:
416,192,209531,1,2,0:0:0:0:
464,304,209765,1,2,0:0:0:0:
144,320,210234,1,8,0:0:0:0:
144,320,210468,1,2,0:0:0:0:
320,224,210703,1,8,0:0:0:0:
320,224,210937,1,2,0:0:0:0:
192,192,211171,2,10,P|96:112|96:32,1,200
192,80,211640,1,4,0:0:0:0:
96,224,212109,5,2,0:0:0:0:
128,288,212343,1,8,0:0:0:0:
192,288,212578,1,2,0:0:0:0:
224,224,212812,1,8,0:0:0:0:
192,160,213046,1,2,0:0:0:0:
128,160,213281,1,8,0:0:0:0:
432,336,213515,2,2,B|416:288|416:288|448:240|448:240|416:208|416:208|448:176|448:176|416:144|416:144|448:96|448:96|416:80|416:80|432:48|432:16,1,400
256,336,214921,5,0,0:0:0:0:
256,336,215038,1,0,0:0:0:0:
256,336,215156,2,0,P|144:304|96:224,1,150.000005722046
48,192,215859,5,0,0:0:0:0:
48,192,215976,1,0,0:0:0:0:
48,192,216093,2,0,P|48:80|128:32,1,150.000005722046
256,32,216796,5,0,0:0:0:0:
256,32,216913,1,0,0:0:0:0:
256,32,217031,2,0,P|368:64|416:144,1,150.000005722046
464,192,217734,5,0,0:0:0:0:
464,192,217851,1,0,0:0:0:0:
464,192,217968,2,0,P|464:304|384:352,1,150.000005722046
256,192,218671,5,0,0:0:0:0:
256,192,218788,1,0,0:0:0:0:
256,192,218906,2,0,P|368:160|416:80,1,150.000005722046
256,192,219609,5,0,0:0:0:0:
256,192,219726,1,0,0:0:0:0:
256,192,219843,2,0,P|256:304|336:352,1,150.000005722046
256,192,220546,5,0,0:0:0:0:
256,192,220663,1,0,0:0:0:0:
256,192,220781,2,0,P|144:224|96:304,1,150.000005722046
256,192,221484,12,0,225000,0:0:0:0:
208,112,225234,6,0,L|320:112,15,100
304,112,227109,6,0,L|304:208,20,66.6666666666667
