osu file format v9

[General]
AudioFilename: Kraster - WishStar SYA MEI MARU.mp3
AudioLeadIn: 2000
PreviewTime: 60508
Countdown: 0
SampleSet: Soft
StackLeniency: 0.7
Mode: 0
LetterboxInBreaks: 1

[Editor]
DistanceSpacing: 0.8
BeatDivisor: 4
GridSize: 8

[Metadata]
Title:WishStar SYA MEI MARU
Artist:Kraster
Creator:Mercurius
Version:Normal
Source:Touhou
Tags:ZUN Syameimaru Aya Autumn Fall Mountain Faith

[Difficulty]
HPDrainRate:2
CircleSize:3
OverallDifficulty:3
ApproachRate:4
SliderMultiplier:0.7
SliderTickRate:1

[Events]
//Background and Video events
0,0,"BG1.jpg"
//Break Periods
2,21549,31398
2,83445,84451
2,96076,105925
2,137761,146346
//Storyboard Layer 0 (Background)
//Storyboard Layer 1 (Fail)
//Storyboard Layer 2 (Pass)
//Storyboard Layer 3 (Foreground)
//Storyboard Sound Samples
//Background Colour Transformations
3,100,255,128,0

[TimingPoints]
1140,315.789473684211,4,2,0,30,1,0
5955,-100,4,2,0,60,0,0
9903,-100,4,2,0,80,0,0
11166,-100,4,2,0,100,0,0
63034,-100,4,2,0,100,0,1
83245,-100,4,2,0,100,0,0
107166,-200,4,2,0,40,0,0
114271,-100,4,2,0,100,0,0
157771,-100,4,2,0,100,0,1
175455,-100,4,2,0,100,0,0
177982,-100,4,2,0,100,0,1
198508,-100,4,2,0,100,0,0

[Colours]
Combo1 : 249,124,0
Combo2 : 221,0,0
Combo3 : 255,119,119

[HitObjects]
112,32,1139,1,0
312,32,2245,1,0
384,248,3508,1,0
160,248,4771,1,0
352,128,6034,6,0,B|352:80,1,35
256,264,7297,2,0,B|256:304,1,35
168,120,8561,2,0,B|168:72,1,35
368,192,9982,5,4
312,192,10297,1,4
256,192,10613,1,4
192,96,11245,6,0,B|272:96,1,70,2|0
320,96,11876,1,8
256,192,12508,2,0,B|184:192,1,70,2|0
128,192,13140,1,8
40,264,13771,2,0,B|40:192,1,70,2|0
40,136,14403,1,8
128,72,15034,2,0,B|208:72,2,70
128,128,15982,6,8,B|128:168,1,35,8|4
256,352,17403,1,4
384,168,18666,1,4
176,72,19929,1,4
224,200,20718,2,0,B|256:224|288:200,2,70,2|2|4
248,48,32718,5,0
328,128,33350,1,8
336,240,33982,2,0,B|248:240|224:160,1,140,0|8
128,112,35245,1,0
48,192,35876,1,8
128,264,36508,2,0,B|200:248,1,70,2|8
200,304,37140,2,8,B|280:288,1,70,2|8
320,280,37771,5,0
392,192,38403,1,8
336,96,39034,1,0
288,64,39350,1,0
240,96,39666,1,8
104,104,40297,5,4
40,160,40771,1,4
120,192,41245,1,4
120,272,41718,2,0,B|120:312,2,35
120,272,42192,2,0,B|200:272,1,70
248,272,42824,5,0
328,192,43455,1,8
248,112,44087,1,0
160,40,44718,1,8
48,48,45350,2,0,B|48:128|136:152,1,140,0|8
240,152,46613,2,0,B|288:224|232:288,1,140,0|8
125,281,47876,5,0
237,281,48508,1,8
352,280,49140,2,2,B|432:280,1,70
424,224,49771,2,2,B|448:200,2,35
256,192,50403,12,4,52297
376,160,52929,6,0,B|376:80,1,70,0|8
320,88,53561,2,0,B|264:24,1,70,0|8
232,72,54192,2,0,B|152:72,1,70,0|8
105,72,54824,1,0
105,72,55140,1,8
72,112,55455,2,0,B|48:160|72:216|136:224,3,140
234,221,57982,5,0
234,221,58297,1,8
290,221,58613,1,0
290,221,58929,1,8
346,221,59245,1,4
425,300,59876,1,4
312,328,60508,2,2,B|232:352|168:304|96:336,1,210
104,280,61771,2,0,B|136:232|104:176,1,105,2|2
368,96,63034,5,0
256,72,63666,1,0
144,72,64297,2,0,B|136:112|176:144,1,70,0|8
200,184,64929,2,0,B|232:208|224:256,1,70,0|8
224,304,65561,2,0,B|280:312|328:288|344:232,3,140
192,96,68087,6,0,B|112:96,1,70,0|8
88,144,68718,2,0,B|168:144,1,70,0|8
192,192,69350,1,0
240,168,69666,1,8
296,192,69982,1,0
344,168,70297,1,8
392,200,70613,6,0,B|376:248|408:256|392:312,1,105,4|4
336,304,71403,1,0
280,304,71718,1,0
280,304,71876,2,0,B|208:328|160:296|104:312,1,175,4|4
136,232,73140,6,0,B|88:168|144:88,1,140
224,168,74403,2,0,B|304:168,2,70,0|8|0
184,128,75350,1,8
136,96,75666,2,0,B|112:136|136:168,1,70,0|8
112,216,76297,2,0,B|128:256|176:256,1,70,0|8
224,256,76929,2,0,B|264:240|304:256,1,70,0|8
352,256,77561,1,0
352,256,77876,1,8
376,208,78192,6,4,B|360:136|288:160|272:104,1,140,4|0
248,72,79140,1,4
216,120,79455,2,0,B|176:120|136:144,1,70,0|0
96,160,80087,1,0
256,192,80718,12,0,83245
168,112,85771,5,0
256,48,86403,1,8
344,112,87034,2,0,B|392:176|344:240,1,140,0|8
408,336,88297,2,0,B|344:384|280:336,1,140,0|8
344,240,89561,2,2,B|272:240,1,70
272,184,90192,2,2,B|232:176,2,35
256,240,90824,6,0,B|216:304|296:304|256:376,1,140,4|0
208,192,92087,2,0,B|144:152|144:232|72:192,1,140,4|0
304,192,93350,2,0,B|368:232|368:152|440:192,1,140,4|0
256,272,94613,5,0
256,192,94929,1,0
256,112,95245,1,8
216,40,95561,1,8
296,40,95876,1,12
160,56,107245,6,0,B|160:128,1,70,0|2
160,184,108508,2,0,B|232:184,1,70,0|2
288,184,109771,1,0
336,216,110403,1,2
384,184,111034,1,0
432,216,111666,1,2
488,216,112297,6,0,B|488:288,1,70,0|2
448,320,113561,2,0,B|384:320,1,61.25,0|2
264,320,114824,5,4
264,240,115297,1,4
264,152,115771,1,4
176,152,116245,2,0,B|176:192,2,35
176,152,116718,2,0,B|96:152,1,70,0|0
104,264,117666,5,4
200,320,118297,1,4
312,320,118929,1,4
408,264,119561,1,4
408,152,120192,1,4
312,216,120824,1,4
200,216,121455,1,4
104,152,122087,1,4
128,104,122403,6,0,B|152:56|240:128|264:80,1,140
320,176,123666,2,0,B|264:208|224:152|184:184,1,140
256,192,124929,12,4,126824
376,224,127455,6,0,B|376:304,1,70,0|8
320,288,128087,2,0,B|264:344,1,70,0|8
248,288,128718,2,0,B|168:288,1,70,0|8
120,288,129350,1,0
120,232,129666,1,8
120,176,129982,2,0,B|120:128|152:80|208:80,3,140,2|2|2|2
312,80,132508,5,0
336,128,132824,1,8
312,176,133140,1,0
336,224,133455,1,8
320,280,133771,1,4
272,176,134403,1,4
232,88,135034,2,2,B|104:88|104:224,1,210
104,272,136297,2,0,B|144:288|168:264|208:280,1,105,2|2
256,152,137561,5,4
368,192,147666,5,0
256,192,148297,1,8
208,88,148929,2,2,B|256:64|312:88,2,105
152,88,150192,5,0
72,168,150824,1,8
152,248,151455,2,0,B|224:248,1,70,0|8
264,216,152087,2,0,B|280:256|264:288,1,70,0|8
256,192,152718,12,4,154929
256,112,155245,5,4
256,224,155876,1,4
200,320,156508,2,0,B|224:368|288:368|312:320,1,140,4|4
408,264,157771,5,0
408,152,158403,1,8
296,152,159034,2,0,B|288:112|320:80,3,70,0|8|0|8
312,32,160297,5,0
200,32,160929,1,8
88,56,161561,2,0,B|96:104|136:120,1,70,2|2
128,168,162192,2,0,B|120:208|80:224,1,70,2|2
88,280,162824,6,0,B|112:304|200:248|232:288,1,140,0|8
224,224,163771,1,0
224,168,164087,2,0,B|256:152|312:184|376:160,1,140,0|8
256,72,165350,5,4
56,192,165982,1,4
256,312,166613,1,4
456,192,167245,1,4
344,192,167876,6,0,B|320:120|240:112,1,140,0|8
128,120,169139,2,0,B|144:200|224:224,1,140,0|8
256,264,170087,1,0
256,320,170403,5,0
360,288,171034,1,8
360,176,171666,2,0,B|288:160,1,70,2|2
288,104,172297,2,0,B|360:120,1,70,2|2
256,192,172929,12,0,175139
256,232,175455,5,0
216,192,175771,1,8
256,152,176087,1,0
296,192,176403,1,8
336,152,176718,2,0,B|384:152|424:176|448:224,1,140,2|2
368,304,177982,5,0
256,280,178613,1,8
144,272,179245,2,0,B|144:232|184:200,1,70,0|8
176,152,179876,2,0,B|208:144|224:104,1,70,0|8
224,48,180508,2,0,B|272:24|328:48|344:104,3,140
408,184,183034,6,0,B|336:184,1,70,0|8
336,240,183666,2,0,B|264:240,1,70,0|8
208,240,184297,1,0
160,264,184613,1,8
104,240,184929,1,0
56,264,185245,1,8
56,208,185561,6,0,B|56:160|80:120|136:104,1,140,4|4
192,104,186508,1,0
248,104,186824,2,0,B|288:136|360:64|416:120,1,175,4|4
408,200,188087,6,2,B|344:160|272:200,1,140
344,288,189350,2,0,B|344:368,2,70,0|8|0
288,288,190297,1,0
232,288,190613,2,0,B|192:272|192:224,1,70,0|8
192,176,191245,2,0,B|192:136|232:112,1,70,0|8
272,88,191876,2,0,B|304:72|344:80,1,70,0|8
392,88,192508,1,0
392,88,192824,1,8
416,136,193139,6,4,B|384:208|352:168|312:248,1,140,4|0
320,288,194087,1,4
264,288,194403,2,0,B|224:288|184:272,1,70,0|0
136,272,195034,1,0
256,192,195666,12,0,198508
387,193,200718,1,4
112,192,199455,6,0,B|256:88|256:288|400:184,1,300
