osu file format v8

[General]
AudioFilename: Space Rainbow(Vo.Ne;on)Kraster.mp3
AudioLeadIn: 0
PreviewTime: 60820
Countdown: 0
SampleSet: Normal
StackLeniency: 0.7
Mode: 0
LetterboxInBreaks: 1

[Editor]
Bookmarks: 82908,90490
DistanceSpacing: 0.800000011920929
BeatDivisor: 4
GridSize: 16

[Metadata]
Title:Space Rainbow
Artist:Kraster
Creator:lovetouhou
Version:Insane
Source:Scarlet Lover
Tags:

[Difficulty]
HPDrainRate:6
CircleSize:4
OverallDifficulty:8
ApproachRate:7
SliderMultiplier:2.2
SliderTickRate:0.5

[Events]
//Background and Video events
0,0,"0111.JPG"
//Break Periods
//Storyboard Layer 0 (Background)
//Storyboard Layer 1 (Fail)
//Storyboard Layer 2 (Pass)
//Storyboard Layer 3 (Foreground)
//Storyboard Sound Samples
//Background Colour Transformations
3,100,255,0,0

[TimingPoints]
2139,659.340659340659,4,1,1,70,1,0
12689,-100,4,1,1,70,0,1
12853,329.67032967033,4,1,1,70,1,0
14007,329.67032967033,4,1,1,70,1,0
19199,-200,4,1,1,70,0,0
24446,-100,4,1,1,70,0,0
48210,-50,4,1,1,70,0,0
48622,-100,4,1,1,70,0,0
50023,-200,4,1,1,70,0,0
58017,-100,4,1,1,70,0,0
68567,-50,4,1,1,70,0,0
70050,-100,4,1,1,70,0,0

[Colours]
Combo1 : 255,0,0
Combo2 : 255,255,0
Combo3 : 255,128,0

[HitObjects]
128,192,3457,1,0
256,192,4117,1,0
384,192,4776,1,0
384,32,6095,6,0,B|480:144|368:256,2,220
128,352,8732,6,0,B|32:240|144:128,2,220
304,320,10710,1,0
224,160,11369,1,0
48,112,12029,1,0
48,192,12689,6,0,B|80:288|192:272,1,165
256,272,13347,1,0
336,304,13512,1,0
416,272,13677,2,0,B|480:208|400:144|432:160,1,110
352,32,14007,6,0,B|272:112,1,110
256,48,14336,2,0,B|160:144,1,110
160,64,14666,2,0,B|64:160,1,110
32,192,14996,2,0,B|128:304,1,110
304,288,15325,5,0
256,208,15490,1,0
256,208,15655,2,0,B|320:208|352:128,1,110
256,208,15985,2,0,B|224:144|144:192,1,110
256,208,16314,2,0,B|240:272|320:304,1,110
256,48,16644,6,0,B|256:160,1,110
256,320,16974,2,0,B|256:208,1,110
400,192,17303,2,0,B|272:192,1,110
112,192,17633,2,0,B|224:192,1,110
256,192,17963,1,0
32,144,19281,6,0,B|144:48|256:160,2,220
480,240,21919,6,0,B|368:336|256:224,2,220
432,160,23457,1,0
352,112,23677,1,0
160,112,23897,5,0
80,160,24117,1,0
35,243,24336,1,0
182,318,24556,6,0,B|252:368|320:320,2,146.666666666667
256,160,25215,2,0,B|256:0,2,146.666666666667
256,272,25875,5,0
176,192,26094,2,0,B|16:192,1,146.666666666667
256,112,26534,1,0
336,192,26754,2,0,B|496:192,1,146.666666666667
256,192,27193,1,0
256,192,27413,1,0
256,192,27633,1,0
189,263,27853,2,0,B|258:343|333:247,2,146.666666666667
144,64,29171,6,0,B|32:208|240:320,1,220
336,256,29831,2,0,B|448:176,1,110
432,112,30160,1,0
272,64,30490,2,0,B|128:64,2,110
272,240,31149,2,0,B|432:240,1,110
384,336,31479,2,0,B|256:336,1,110
96,192,31809,5,0
416,192,32138,1,0
256,192,32468,2,0,B|256:48,2,110
256,192,33127,2,0,B|256:336,2,110
80,192,33787,1,0
80,96,33952,1,0
160,96,34116,1,0
208,96,34199,1,0
256,96,34281,1,0
256,304,34446,5,0
256,96,34775,1,0
112,192,35105,2,0,B|288:192,2,110
400,192,35765,2,0,B|256:192,2,110
336,304,36259,5,0
336,80,36754,1,0
192,48,37083,2,0,B|32:192|192:336,1,330
400,272,38402,6,0,B|400:160,1,110
320,160,38732,2,0,B|320:272,1,110
240,272,39062,1,0
208,272,39144,1,0
176,272,39227,1,0
96,272,39391,1,0
96,240,39474,1,0
96,208,39556,1,0
48,64,39721,5,0
208,64,40050,1,0
112,176,40380,1,0
192,176,40545,1,0
272,176,40710,1,0
464,320,41039,5,0
304,320,41368,1,0
400,208,41698,1,0
352,208,41781,1,0
304,208,41863,1,0
256,208,41946,1,0
208,208,42028,1,0
176,64,42358,5,0
48,144,42688,1,0
96,288,43017,2,0,B|192:400|400:288,1,220
400,208,43677,5,0
400,128,43842,1,0
256,64,44171,2,0,B|128:96|64:240,1,220
112,272,44666,1,0
192,272,44831,1,0
272,272,44996,1,0
432,112,45490,1,0
352,64,45655,2,0,B|304:32,2,55
352,144,45985,2,0,B|304:176,2,55
48,272,46314,5,0
176,272,46644,2,0,B|176:160,1,110
128,112,46974,2,0,B|80:80,2,55
224,112,47303,2,0,B|272:80,2,55
368,32,47633,5,0
480,144,47963,1,0
407,310,48292,2,0,B|279:294|199:214,1,220
208,224,48787,2,0,B|329:120|315:-25|178:-51|153:54|153:54|150:70|119:-17|-32:0|-1:101|25:201|116:228|211:232,1,770
448,192,50270,6,0,B|320:192,1,110
64,192,50930,2,0,B|192:192,1,110
256,320,51589,1,0
448,192,51919,1,0
368,112,52083,1,0
256,64,52248,1,0
64,192,52578,1,0
128,64,52908,5,0
368,64,53237,1,0
368,320,53567,1,0
128,320,53896,1,0
144,192,54226,2,0,B|208:144|272:256|368:192,1,220
192,192,55545,5,0
256,128,55875,1,0
320,192,56204,1,0
256,256,56534,1,0
256,336,56864,5,0
336,272,57028,1,0
400,192,57193,1,0
256,48,57523,1,0
112,192,57853,1,0
320,192,58182,5,0
256,128,58347,2,0,B|256:64,2,55
192,192,58677,2,0,B|128:192,2,55
256,256,59007,2,0,B|256:320,2,55
320,192,59336,2,0,B|384:192,2,55
256,80,59831,6,0,B|352:-16|464:96,2,220
256,304,60820,6,0,B|160:400|48:288,1,220
64,224,61479,2,0,B|160:128|272:240,1,220
352,240,61974,1,0
432,192,62138,1,0
432,192,62221,1,0
432,192,62303,2,0,B|512:256|384:304,2,110
368,128,62798,2,0,B|304:32|176:32,1,220
64,176,63457,6,0,B|192:176,1,110
240,240,63787,2,0,B|112:240,1,110
192,304,64116,2,0,B|304:304,1,110
384,304,64446,2,0,B|464:224,1,110
416,144,64776,1,0
352,80,64941,1,0
304,80,65023,1,0
256,80,65105,1,0
160,144,65270,5,0
208,144,65353,1,0
256,144,65435,1,0
352,208,65600,5,0
304,208,65682,1,0
256,208,65765,1,0
256,272,65930,6,0,B|128:272,2,110
256,272,66424,1,0
432,272,66754,5,0
368,112,67083,2,0,B|224:112,1,110
176,112,67413,1,0
128,176,67578,1,0
176,240,67743,1,0
256,240,67908,1,0
320,304,68072,1,0
256,368,68237,1,0
208,368,68320,1,0
160,368,68402,1,0
32,112,68732,6,0,B|128:16|240:128,1,220
480,272,69061,2,0,B|384:368|272:256,1,220
285,114,69391,2,0,B|384:16|480:112,1,220
226,269,69720,2,0,B|128:368|32:272,1,220
256,192,70050,12,0,70710
192,32,70875,5,0
160,64,70957,1,0
128,96,71039,1,0
96,128,71122,1,0
64,160,71204,1,0
144,272,71369,5,0
224,304,71534,2,0,B|336:304,1,110
416,256,71864,1,0
464,176,72028,1,0
448,96,72193,1,0
368,48,72358,6,0,B|224:48,1,110
192,112,72688,2,0,B|320:112,1,110
240,176,73017,2,0,B|96:176,1,110
64,240,73347,2,0,B|192:240,1,110
256,240,73677,1,0
256,240,73759,1,0
256,240,73842,1,0
432,192,74007,6,0,B|336:96,1,110
432,192,74336,2,0,B|320:160,1,110
432,192,74666,2,0,B|320:224,1,110
432,192,74996,2,0,B|352:272,1,110
144,272,75325,5,0
80,208,75490,2,0,B|16:144,2,55
144,160,75820,2,0,B|144:80,2,55
208,208,76149,2,0,B|272:144,2,55
272,272,76479,1,0
320,272,76561,1,0
368,272,76644,1,0
448,128,76809,5,0
384,64,76974,2,0,B|336:0|240:32,1,110
208,48,77303,2,0,B|144:48,2,55
224,128,77633,2,0,B|272:106|320:170,1,110
320,256,77963,2,0,B|271:277|223:213,1,110
144,208,78292,2,0,B|80:160|160:96,2,110
192,288,78787,2,0,B|320:288,1,110
416,160,79281,5,0
352,112,79446,1,0
272,112,79611,2,0,B|272:0,2,110
192,112,80105,1,0
128,160,80270,2,0,B|128:272,2,110
256,192,80765,12,0,82908
