osu file format v12

[General]
AudioFilename: 08 Perfect Cherry Blossom..mp3
AudioLeadIn: 0
PreviewTime: 487763
Countdown: 0
SampleSet: Normal
StackLeniency: 0.7
Mode: 1
LetterboxInBreaks: 0
WidescreenStoryboard: 0

[Editor]
Bookmarks: 32100,134612,379382
DistanceSpacing: 0.8
BeatDivisor: 4
GridSize: 32

[Metadata]
Title:Perfect Cherry Blossom.
TitleUnicode:Perfect Cherry Blossom.
Artist:Kraster
ArtistUnicode:Kraster
Creator:inaba-tan
Version:Sakura
Source:Ouki-Roukaku
Tags:Touhou Taiko
BeatmapID:173310
BeatmapSetID:57499

[Difficulty]
HPDrainRate:5
CircleSize:5
OverallDifficulty:6
ApproachRate:5
SliderMultiplier:1.4
SliderTickRate:1

[Events]
//Background and Video events
0,0,"galleryimage-toho-1-1.jpg",0,0
//Break Periods
2,379636,401273
2,445918,451148
2,713484,715070
//Storyboard Layer 0 (Background)
//Storyboard Layer 1 (Fail)
//Storyboard Layer 2 (Pass)
//Storyboard Layer 3 (Foreground)
//Storyboard Sound Samples
//Background Colour Transformations
3,100,163,162,255

[TimingPoints]
1048,517.241379310345,4,1,0,100,1,0
27066,517.241379310345,4,1,0,100,1,0
31950,300,4,1,0,100,1,0
37954,300,4,1,0,100,1,0
39921,292.682926829268,4,1,0,100,1,0
40817,307.692307692308,4,1,0,100,1,0
41875,300,4,1,0,100,1,0
42950,301.507537688442,4,1,0,100,1,0
91195,-100,4,1,0,100,0,1
107924,-100,4,1,0,100,0,0
214511,-133.333333333333,4,1,0,100,0,0
223858,-100,4,1,0,100,0,0
233506,-100,4,1,0,100,0,1
254009,-100,4,1,0,100,0,0
293502,-200,4,1,0,100,0,0
293804,603.015075376884,4,1,0,100,1,0
313098,301.053687907677,4,1,0,100,1,0
327570,301.204819277108,4,1,0,100,1,0
351666,301.810865191147,4,1,0,100,1,0
379436,662.983425414365,4,1,0,100,1,0
379436,-50,4,1,0,100,0,0
379601,-100,4,1,0,100,0,0
399656,662.983425414365,4,1,0,100,1,0
402307,-100,4,2,0,50,0,0
402473,331.491712707182,4,1,0,50,1,0
402473,-133.333333333333,4,2,0,50,0,0
403288,331.491712707182,4,1,0,100,1,0
403288,-133.333333333333,4,2,0,50,0,0
452348,662.983425414365,4,1,0,100,1,0
452348,-66.6666666666667,4,1,0,100,0,0
453995,301.507537688442,4,1,0,100,1,0
487763,301.507537688442,4,1,0,100,1,1
487763,-100,4,1,0,100,0,1
487763,-100,4,1,0,100,0,1
523793,-100,4,1,0,100,0,0
572788,-100,4,1,0,100,0,1
602951,333.333333333333,4,1,0,100,1,1
604284,-100,4,1,0,100,0,0
660284,-100,4,1,0,100,0,1
682950,-100,4,1,0,100,0,0
711950,-125,4,1,0,100,0,0
712367,-153.846153846153,4,1,0,100,0,0
713200,-200,4,1,0,100,0,0
716270,454.545454545455,4,1,0,100,1,0
716270,-76.9230769230769,4,1,0,100,0,0
776269,-76.9230769230769,4,1,0,100,0,1
805360,-76.9230769230769,4,1,0,100,0,0

[HitObjects]
256,192,32100,5,8,0:0:0:0:
256,192,32250,5,0,0:0:0:0:
256,192,32325,1,0,0:0:0:0:
256,192,32400,5,8,0:0:0:0:
256,192,32550,5,0,0:0:0:0:
256,192,32625,1,0,0:0:0:0:
256,192,32700,5,8,0:0:0:0:
256,192,32850,1,0,0:0:0:0:
256,192,33000,1,8,0:0:0:0:
256,192,33150,5,4,0:0:0:0:
256,192,33600,1,0,0:0:0:0:
256,192,33900,1,0,0:0:0:0:
256,192,34200,1,0,0:0:0:0:
256,192,34500,1,0,0:0:0:0:
256,192,34800,1,0,0:0:0:0:
256,192,35100,1,0,0:0:0:0:
256,192,35250,5,8,0:0:0:0:
256,192,35400,5,0,0:0:0:0:
256,192,35550,1,4,0:0:0:0:
256,192,36000,1,0,0:0:0:0:
256,192,36300,1,0,0:0:0:0:
256,192,36600,1,0,0:0:0:0:
256,192,36900,1,0,0:0:0:0:
256,192,37200,1,0,0:0:0:0:
256,192,37500,1,0,0:0:0:0:
256,192,37650,5,8,0:0:0:0:
256,192,37954,5,4,0:0:0:0:
256,192,38404,1,0,0:0:0:0:
256,192,38704,1,0,0:0:0:0:
256,192,39004,1,0,0:0:0:0:
256,192,39304,1,0,0:0:0:0:
256,192,39604,1,0,0:0:0:0:
256,192,39921,1,0,0:0:0:0:
256,192,40067,5,8,0:0:0:0:
256,192,40213,5,0,0:0:0:0:
256,192,40360,1,4,0:0:0:0:
256,192,40817,5,8,0:0:0:0:
256,192,41124,5,0,0:0:0:0:
256,192,41278,5,8,0:0:0:0:
256,192,41432,5,0,0:0:0:0:
256,192,41586,5,12,0:0:0:0:
256,192,41875,1,8,0:0:0:0:
256,192,41950,1,8,0:0:0:0:
256,192,42025,1,8,0:0:0:0:
256,192,42175,1,8,0:0:0:0:
256,192,42250,1,8,0:0:0:0:
256,192,42325,1,8,0:0:0:0:
256,192,42475,1,8,0:0:0:0:
256,192,42625,1,8,0:0:0:0:
256,192,42775,5,4,0:0:0:0:
256,192,43100,1,0,0:0:0:0:
256,192,43251,5,8,0:0:0:0:
256,192,43402,1,8,0:0:0:0:
256,192,43553,5,0,0:0:0:0:
256,192,43703,1,0,0:0:0:0:
256,192,43854,5,8,0:0:0:0:
256,192,44005,1,8,0:0:0:0:
256,192,44306,1,8,0:0:0:0:
256,192,44608,1,8,0:0:0:0:
256,192,44909,1,8,0:0:0:0:
256,192,45060,1,8,0:0:0:0:
256,192,45211,5,4,0:0:0:0:
256,192,45512,1,0,0:0:0:0:
256,192,45663,5,8,0:0:0:0:
256,192,45814,5,0,0:0:0:0:
256,192,45965,5,8,0:0:0:0:
256,192,46115,1,8,0:0:0:0:
256,192,46266,5,0,0:0:0:0:
256,192,46417,5,8,0:0:0:0:
256,192,46718,1,8,0:0:0:0:
256,192,47020,1,8,0:0:0:0:
256,192,47321,1,8,0:0:0:0:
256,192,47472,1,8,0:0:0:0:
256,192,47623,5,4,0:0:0:0:
256,192,47924,1,0,0:0:0:0:
256,192,48075,5,8,0:0:0:0:
256,192,48226,5,0,0:0:0:0:
256,192,48377,5,8,0:0:0:0:
256,192,48527,1,8,0:0:0:0:
256,192,48678,5,0,0:0:0:0:
256,192,48829,5,8,0:0:0:0:
256,192,49130,1,8,0:0:0:0:
256,192,49432,1,8,0:0:0:0:
256,192,49733,5,0,0:0:0:0:
256,192,49884,5,8,0:0:0:0:
256,192,50035,5,4,0:0:0:0:
256,192,50336,1,0,0:0:0:0:
256,192,50487,5,8,0:0:0:0:
256,192,50638,5,0,0:0:0:0:
256,192,50789,5,12,0:0:0:0:
256,192,50939,5,0,0:0:0:0:
256,192,51090,1,0,0:0:0:0:
256,192,51241,5,12,0:0:0:0:
256,192,51392,5,0,0:0:0:0:
256,192,51542,5,8,0:0:0:0:
256,192,51618,1,8,0:0:0:0:
256,192,51693,1,8,0:0:0:0:
256,192,51844,1,8,0:0:0:0:
256,192,51919,1,8,0:0:0:0:
256,192,51995,1,8,0:0:0:0:
256,192,52145,1,8,0:0:0:0:
256,192,52296,5,0,0:0:0:0:
256,192,52447,1,0,0:0:0:0:
256,192,52598,1,4,0:0:0:0:
256,192,52748,5,8,0:0:0:0:
256,192,52899,1,8,0:0:0:0:
256,192,53050,5,0,0:0:0:0:
256,192,53201,5,8,0:0:0:0:
256,192,53352,1,8,0:0:0:0:
256,192,53502,5,0,0:0:0:0:
256,192,53653,5,8,0:0:0:0:
256,192,53804,1,8,0:0:0:0:
256,192,53955,5,0,0:0:0:0:
256,192,54105,5,8,0:0:0:0:
256,192,54256,1,8,0:0:0:0:
256,192,54407,5,0,0:0:0:0:
256,192,54558,5,8,0:0:0:0:
256,192,54708,1,8,0:0:0:0:
256,192,54859,1,8,0:0:0:0:
256,192,55010,5,0,0:0:0:0:
256,192,55161,5,8,0:0:0:0:
256,192,55311,1,8,0:0:0:0:
256,192,55462,5,0,0:0:0:0:
256,192,55613,5,8,0:0:0:0:
256,192,55764,1,8,0:0:0:0:
256,192,55914,5,0,0:0:0:0:
256,192,56065,5,8,0:0:0:0:
256,192,56216,1,8,0:0:0:0:
256,192,56517,1,8,0:0:0:0:
256,192,56668,5,0,0:0:0:0:
256,192,56819,5,8,0:0:0:0:
256,192,56970,1,8,0:0:0:0:
256,192,57120,5,0,0:0:0:0:
256,192,57422,5,8,0:0:0:0:
256,192,57573,1,8,0:0:0:0:
256,192,57723,5,0,0:0:0:0:
256,192,57874,5,8,0:0:0:0:
256,192,58025,1,8,0:0:0:0:
256,192,58176,5,0,0:0:0:0:
256,192,58326,5,8,0:0:0:0:
256,192,58477,1,8,0:0:0:0:
256,192,58628,5,0,0:0:0:0:
256,192,58779,5,8,0:0:0:0:
256,192,58929,1,8,0:0:0:0:
256,192,59080,5,0,0:0:0:0:
256,192,59231,5,8,0:0:0:0:
256,192,59382,1,8,0:0:0:0:
256,192,59532,1,8,0:0:0:0:
256,192,59683,1,8,0:0:0:0:
256,192,59834,5,0,0:0:0:0:
256,192,59985,5,8,0:0:0:0:
256,192,60135,1,0,0:0:0:0:
256,192,60286,5,8,0:0:0:0:
256,192,60437,5,8,0:0:0:0:
256,192,60588,1,0,0:0:0:0:
256,192,60738,5,8,0:0:0:0:
256,192,60889,5,0,0:0:0:0:
256,192,61040,1,8,0:0:0:0:
256,192,61341,1,8,0:0:0:0:
256,192,61492,1,8,0:0:0:0:
256,192,61568,1,8,0:0:0:0:
256,192,61643,1,8,0:0:0:0:
256,192,61794,1,8,0:0:0:0:
256,192,61944,1,8,0:0:0:0:
256,192,62095,1,8,0:0:0:0:
256,192,62246,5,4,0:0:0:0:
256,192,62397,1,0,0:0:0:0:
256,192,62547,5,8,0:0:0:0:
256,192,62698,5,0,0:0:0:0:
256,192,62849,1,0,0:0:0:0:
256,192,63000,5,8,0:0:0:0:
256,192,63151,5,0,0:0:0:0:
256,192,63301,1,0,0:0:0:0:
256,192,63452,5,8,0:0:0:0:
256,192,63603,5,0,0:0:0:0:
256,192,63754,1,8,0:0:0:0:
256,192,63904,5,8,0:0:0:0:
256,192,64055,5,0,0:0:0:0:
256,192,64206,5,0,0:0:0:0:
256,192,64357,1,8,0:0:0:0:
256,192,64507,1,8,0:0:0:0:
256,192,64658,5,0,0:0:0:0:
256,192,64809,1,0,0:0:0:0:
256,192,64960,5,8,0:0:0:0:
256,192,65110,5,0,0:0:0:0:
256,192,65261,5,8,0:0:0:0:
256,192,65412,1,8,0:0:0:0:
256,192,65563,5,0,0:0:0:0:
256,192,65713,5,8,0:0:0:0:
256,192,65864,5,0,0:0:0:0:
256,192,66166,5,8,0:0:0:0:
256,192,66316,5,0,0:0:0:0:
256,192,66392,5,8,0:0:0:0:
256,192,66467,5,0,0:0:0:0:
256,192,66618,1,0,0:0:0:0:
256,192,66769,5,8,0:0:0:0:
256,192,67070,5,4,0:0:0:0:
256,192,67221,5,8,0:0:0:0:
256,192,67372,1,8,0:0:0:0:
256,192,67522,5,0,0:0:0:0:
256,192,67673,5,8,0:0:0:0:
256,192,67824,1,8,0:0:0:0:
256,192,67975,1,0,0:0:0:0:
256,192,68125,1,8,0:0:0:0:
256,192,68276,5,0,0:0:0:0:
256,192,68427,5,8,0:0:0:0:
256,192,68578,5,0,0:0:0:0:
256,192,68728,5,8,0:0:0:0:
256,192,68879,1,8,0:0:0:0:
256,192,69030,5,0,0:0:0:0:
256,192,69181,5,8,0:0:0:0:
256,192,69331,1,8,0:0:0:0:
256,192,69482,5,4,0:0:0:0:
256,192,69633,5,8,0:0:0:0:
256,192,69708,1,8,0:0:0:0:
256,192,69784,5,0,0:0:0:0:
256,192,69934,1,0,0:0:0:0:
256,192,70085,5,8,0:0:0:0:
256,192,70311,1,8,0:0:0:0:
256,192,70537,1,8,0:0:0:0:
256,192,70688,5,4,0:0:0:0:
256,192,70990,5,8,0:0:0:0:
256,192,71291,1,8,0:0:0:0:
256,192,71593,1,8,0:0:0:0:
256,192,71668,1,8,0:0:0:0:
256,192,71743,1,8,0:0:0:0:
256,192,71894,5,4,0:0:0:0:
256,192,72196,5,8,0:0:0:0:
256,192,72346,5,0,0:0:0:0:
256,192,72648,1,0,0:0:0:0:
256,192,72799,5,8,0:0:0:0:
256,192,73100,5,0,0:0:0:0:
256,192,73251,1,0,0:0:0:0:
256,192,73402,5,8,0:0:0:0:
256,192,73553,1,8,0:0:0:0:
256,192,73703,5,0,0:0:0:0:
256,192,73854,1,0,0:0:0:0:
256,192,74005,5,8,0:0:0:0:
256,192,74306,5,0,0:0:0:0:
256,192,74457,5,8,0:0:0:0:
256,192,74608,1,8,0:0:0:0:
256,192,74759,5,0,0:0:0:0:
256,192,74909,5,8,0:0:0:0:
256,192,75211,1,8,0:0:0:0:
256,192,75362,5,0,0:0:0:0:
256,192,75663,5,8,0:0:0:0:
256,192,75814,1,8,0:0:0:0:
256,192,76115,5,0,0:0:0:0:
256,192,76266,1,0,0:0:0:0:
256,192,76417,5,8,0:0:0:0:
256,192,76718,5,4,0:0:0:0:
256,192,77020,5,8,0:0:0:0:
256,192,77171,5,0,0:0:0:0:
256,192,77321,5,8,0:0:0:0:
256,192,77472,1,8,0:0:0:0:
256,192,77623,5,0,0:0:0:0:
256,192,77774,1,0,0:0:0:0:
256,192,77924,5,8,0:0:0:0:
256,192,78226,1,8,0:0:0:0:
256,192,78377,5,0,0:0:0:0:
256,192,78527,1,0,0:0:0:0:
256,192,78829,5,8,0:0:0:0:
256,192,79130,5,0,0:0:0:0:
256,192,79281,5,8,0:0:0:0:
256,192,79357,1,8,0:0:0:0:
256,192,79432,1,8,0:0:0:0:
256,192,79583,5,0,0:0:0:0:
256,192,79733,5,8,0:0:0:0:
256,192,79809,1,8,0:0:0:0:
256,192,79884,1,8,0:0:0:0:
256,192,80035,5,0,0:0:0:0:
256,192,80186,5,8,0:0:0:0:
256,192,80487,1,8,0:0:0:0:
256,192,80789,1,8,0:0:0:0:
256,192,80864,1,8,0:0:0:0:
256,192,80939,1,8,0:0:0:0:
256,192,81090,1,8,0:0:0:0:
256,192,81241,5,0,0:0:0:0:
256,192,81392,1,0,0:0:0:0:
256,192,81542,1,4,0:0:0:0:
256,192,81844,5,8,0:0:0:0:
256,192,82145,5,0,0:0:0:0:
256,192,82296,1,0,0:0:0:0:
256,192,82447,5,8,0:0:0:0:
256,192,82748,5,0,0:0:0:0:
256,192,82899,1,0,0:0:0:0:
256,192,83050,5,8,0:0:0:0:
256,192,83201,5,0,0:0:0:0:
256,192,83352,1,0,0:0:0:0:
256,192,83502,1,0,0:0:0:0:
256,192,83653,5,8,0:0:0:0:
256,192,83955,5,0,0:0:0:0:
256,192,84256,5,8,0:0:0:0:
256,192,84407,1,8,0:0:0:0:
256,192,84558,5,0,0:0:0:0:
256,192,84859,1,0,0:0:0:0:
256,192,85010,5,12,0:0:0:0:
256,192,85311,5,0,0:0:0:0:
256,192,85462,1,0,0:0:0:0:
256,192,85613,5,12,0:0:0:0:
256,192,85914,1,0,0:0:0:0:
256,192,86065,5,0,0:0:0:0:
256,192,86367,5,12,0:0:0:0:
256,192,86517,5,0,0:0:0:0:
256,192,86668,5,8,0:0:0:0:
256,192,86819,5,0,0:0:0:0:
256,192,86970,5,8,0:0:0:0:
256,192,87120,5,0,0:0:0:0:
256,192,87271,5,8,0:0:0:0:
256,192,87422,5,0,0:0:0:0:
256,192,87573,5,8,0:0:0:0:
256,192,87723,5,0,0:0:0:0:
256,192,87874,5,8,0:0:0:0:
256,192,88025,5,0,0:0:0:0:
256,192,88176,5,8,0:0:0:0:
256,192,88326,5,0,0:0:0:0:
256,192,88477,5,8,0:0:0:0:
256,192,88628,5,0,0:0:0:0:
256,192,88779,5,12,0:0:0:0:
256,192,88929,1,8,0:0:0:0:
256,192,89005,1,8,0:0:0:0:
256,192,89080,5,0,0:0:0:0:
256,192,89231,1,4,0:0:0:0:
256,192,89382,5,8,0:0:0:0:
256,192,89457,1,8,0:0:0:0:
256,192,89532,5,0,0:0:0:0:
256,192,89683,5,12,0:0:0:0:
256,192,89834,5,0,0:0:0:0:
256,192,89909,1,0,0:0:0:0:
256,192,89985,1,0,0:0:0:0:
256,192,90135,5,12,0:0:0:0:
256,192,90286,1,8,0:0:0:0:
256,192,90362,1,8,0:0:0:0:
256,192,90437,5,0,0:0:0:0:
256,192,90588,1,4,0:0:0:0:
256,192,90738,5,8,0:0:0:0:
256,192,90889,1,8,0:0:0:0:
256,192,91040,1,8,0:0:0:0:
256,192,91191,5,4,0:0:0:0:
256,192,91492,5,8,0:0:0:0:
256,192,91568,1,8,0:0:0:0:
256,192,91643,5,0,0:0:0:0:
256,192,91794,1,0,0:0:0:0:
256,192,91944,5,8,0:0:0:0:
256,192,92020,1,8,0:0:0:0:
256,192,92095,1,8,0:0:0:0:
256,192,92246,5,4,0:0:0:0:
256,192,92547,5,8,0:0:0:0:
256,192,92623,1,8,0:0:0:0:
256,192,92698,5,0,0:0:0:0:
256,192,92849,1,0,0:0:0:0:
256,192,92924,1,0,0:0:0:0:
256,192,93000,5,8,0:0:0:0:
256,192,93151,5,0,0:0:0:0:
256,192,93301,5,8,0:0:0:0:
256,192,93452,5,4,0:0:0:0:
256,192,93754,5,8,0:0:0:0:
256,192,93829,1,8,0:0:0:0:
256,192,93904,5,0,0:0:0:0:
256,192,94055,1,0,0:0:0:0:
256,192,94206,5,8,0:0:0:0:
256,192,94281,5,0,0:0:0:0:
256,192,94357,1,0,0:0:0:0:
256,192,94432,1,0,0:0:0:0:
256,192,94507,5,8,0:0:0:0:
256,192,94658,5,4,0:0:0:0:
256,192,94960,5,8,0:0:0:0:
256,192,95110,1,8,0:0:0:0:
256,192,95261,5,4,0:0:0:0:
256,192,95563,5,8,0:0:0:0:
256,192,95713,5,0,0:0:0:0:
256,192,95789,1,0,0:0:0:0:
256,192,95864,5,8,0:0:0:0:
256,192,96015,5,4,0:0:0:0:
256,192,96316,5,8,0:0:0:0:
256,192,96392,1,8,0:0:0:0:
256,192,96467,5,0,0:0:0:0:
256,192,96618,1,0,0:0:0:0:
256,192,96769,5,8,0:0:0:0:
256,192,96844,5,0,0:0:0:0:
256,192,96919,5,8,0:0:0:0:
256,192,97070,5,4,0:0:0:0:
256,192,97372,1,0,0:0:0:0:
256,192,97447,1,0,0:0:0:0:
256,192,97522,5,8,0:0:0:0:
256,192,97673,1,0,0:0:0:0:
256,192,97824,5,8,0:0:0:0:
256,192,97975,1,0,0:0:0:0:
256,192,98050,1,0,0:0:0:0:
256,192,98125,5,8,0:0:0:0:
256,192,98276,5,4,0:0:0:0:
256,192,98578,1,0,0:0:0:0:
256,192,98653,1,0,0:0:0:0:
256,192,98728,5,8,0:0:0:0:
256,192,98879,1,0,0:0:0:0:
256,192,98955,1,0,0:0:0:0:
256,192,99030,5,8,0:0:0:0:
256,192,99181,1,0,0:0:0:0:
256,192,99256,1,0,0:0:0:0:
256,192,99331,5,8,0:0:0:0:
256,192,99482,5,4,0:0:0:0:
256,192,99784,1,0,0:0:0:0:
256,192,99934,5,8,0:0:0:0:
256,192,100085,5,0,0:0:0:0:
256,192,100161,1,0,0:0:0:0:
256,192,100236,5,8,0:0:0:0:
256,192,100387,1,8,0:0:0:0:
256,192,100537,1,8,0:0:0:0:
256,192,100688,1,8,0:0:0:0:
256,192,100839,5,4,0:0:0:0:
256,192,101140,5,8,0:0:0:0:
256,192,101291,5,0,0:0:0:0:
256,192,101367,1,0,0:0:0:0:
256,192,101442,5,8,0:0:0:0:
256,192,101593,5,0,0:0:0:0:
256,192,101668,1,0,0:0:0:0:
256,192,101743,5,8,0:0:0:0:
256,192,101894,5,4,0:0:0:0:
256,192,102196,1,0,0:0:0:0:
256,192,102271,1,0,0:0:0:0:
256,192,102346,5,8,0:0:0:0:
256,192,102497,1,8,0:0:0:0:
256,192,102648,5,0,0:0:0:0:
256,192,102799,1,0,0:0:0:0:
256,192,102874,1,0,0:0:0:0:
256,192,102949,5,8,0:0:0:0:
256,192,103100,5,4,0:0:0:0:
256,192,103402,1,0,0:0:0:0:
256,192,103477,1,0,0:0:0:0:
256,192,103553,5,8,0:0:0:0:
256,192,103703,1,0,0:0:0:0:
256,192,103854,1,8,0:0:0:0:
256,192,104005,1,8,0:0:0:0:
256,192,104080,1,8,0:0:0:0:
256,192,104156,5,0,0:0:0:0:
256,192,104306,1,4,0:0:0:0:
256,192,104608,1,0,0:0:0:0:
256,192,104683,1,0,0:0:0:0:
256,192,104759,5,8,0:0:0:0:
256,192,104909,5,4,0:0:0:0:
256,192,105060,5,8,0:0:0:0:
256,192,105211,5,0,0:0:0:0:
256,192,105362,5,8,0:0:0:0:
256,192,105512,1,8,0:0:0:0:
256,192,105663,5,4,0:0:0:0:
256,192,105965,5,8,0:0:0:0:
256,192,106115,5,4,0:0:0:0:
256,192,106417,1,0,0:0:0:0:
256,192,106568,5,8,0:0:0:0:
256,192,106718,5,4,0:0:0:0:
256,192,107171,1,0,0:0:0:0:
256,192,107321,5,12,0:0:0:0:
256,192,107623,1,12,0:0:0:0:
256,192,107924,5,4,0:0:0:0:
256,192,108226,1,0,0:0:0:0:
256,192,108377,5,8,0:0:0:0:
256,192,108678,5,0,0:0:0:0:
256,192,108829,1,0,0:0:0:0:
256,192,108980,5,8,0:0:0:0:
256,192,109130,5,4,0:0:0:0:
256,192,109432,1,0,0:0:0:0:
256,192,109583,5,8,0:0:0:0:
256,192,109884,5,0,0:0:0:0:
256,192,110035,1,0,0:0:0:0:
256,192,110186,5,8,0:0:0:0:
256,192,110336,5,4,0:0:0:0:
256,192,110638,1,0,0:0:0:0:
256,192,110789,5,8,0:0:0:0:
256,192,111090,1,8,0:0:0:0:
256,192,111392,1,8,0:0:0:0:
256,192,111542,1,8,0:0:0:0:
256,192,111693,5,0,0:0:0:0:
256,192,111995,5,8,0:0:0:0:
256,192,112145,5,4,0:0:0:0:
256,192,112447,1,4,0:0:0:0:
256,192,112748,5,12,0:0:0:0:
256,192,113050,5,0,0:0:0:0:
256,192,113201,5,8,0:0:0:0:
256,192,113502,5,0,0:0:0:0:
256,192,113653,1,0,0:0:0:0:
256,192,113804,5,8,0:0:0:0:
256,192,113955,5,4,0:0:0:0:
256,192,114256,1,0,0:0:0:0:
256,192,114407,5,8,0:0:0:0:
256,192,114708,5,0,0:0:0:0:
256,192,115010,5,8,0:0:0:0:
256,192,115161,5,4,0:0:0:0:
256,192,115462,1,0,0:0:0:0:
256,192,115613,5,8,0:0:0:0:
256,192,115914,5,0,0:0:0:0:
256,192,116065,1,0,0:0:0:0:
256,192,116216,5,8,0:0:0:0:
256,192,116367,5,0,0:0:0:0:
256,192,116517,1,4,0:0:0:0:
256,192,116819,1,0,0:0:0:0:
256,192,116970,5,8,0:0:0:0:
256,192,117045,1,8,0:0:0:0:
256,192,117120,1,8,0:0:0:0:
256,192,117271,1,8,0:0:0:0:
256,192,117422,5,0,0:0:0:0:
256,192,117573,1,0,0:0:0:0:
256,192,117723,1,4,0:0:0:0:
256,192,118025,5,8,0:0:0:0:
256,192,118176,5,0,0:0:0:0:
256,192,118326,1,0,0:0:0:0:
256,192,118477,1,0,0:0:0:0:
256,192,118628,5,8,0:0:0:0:
256,192,118779,5,4,0:0:0:0:
256,192,119080,1,0,0:0:0:0:
256,192,119231,5,8,0:0:0:0:
256,192,119532,5,0,0:0:0:0:
256,192,119683,1,0,0:0:0:0:
256,192,119834,5,8,0:0:0:0:
256,192,119985,5,4,0:0:0:0:
256,192,120286,1,0,0:0:0:0:
256,192,120437,5,8,0:0:0:0:
256,192,120738,5,0,0:0:0:0:
256,192,120939,1,0,0:0:0:0:
256,192,121140,1,0,0:0:0:0:
256,192,121341,1,4,0:0:0:0:
256,192,121643,5,8,0:0:0:0:
256,192,121794,5,0,0:0:0:0:
256,192,122095,1,0,0:0:0:0:
256,192,122246,5,8,0:0:0:0:
256,192,122321,1,8,0:0:0:0:
256,192,122397,5,0,0:0:0:0:
256,192,122547,1,4,0:0:0:0:
256,192,122849,5,8,0:0:0:0:
256,192,123151,5,0,0:0:0:0:
256,192,123301,1,0,0:0:0:0:
256,192,123452,5,8,0:0:0:0:
256,192,123603,5,4,0:0:0:0:
256,192,123904,1,0,0:0:0:0:
256,192,124055,5,8,0:0:0:0:
256,192,124206,5,4,0:0:0:0:
256,192,124507,1,0,0:0:0:0:
256,192,124658,5,8,0:0:0:0:
256,192,124809,5,4,0:0:0:0:
256,192,125261,1,0,0:0:0:0:
256,192,125563,1,0,0:0:0:0:
256,192,125864,1,0,0:0:0:0:
256,192,126166,1,0,0:0:0:0:
256,192,126467,1,0,0:0:0:0:
256,192,126769,5,8,0:0:0:0:
256,192,126844,5,0,0:0:0:0:
256,192,126919,5,8,0:0:0:0:
256,192,126995,1,8,0:0:0:0:
256,192,127070,5,0,0:0:0:0:
256,192,127221,1,4,0:0:0:0:
256,192,127673,1,0,0:0:0:0:
256,192,127975,1,0,0:0:0:0:
256,192,128276,1,0,0:0:0:0:
256,192,128578,5,8,0:0:0:0:
256,192,128653,5,0,0:0:0:0:
256,192,128728,5,8,0:0:0:0:
256,192,128804,1,8,0:0:0:0:
256,192,128879,5,0,0:0:0:0:
256,192,129030,1,0,0:0:0:0:
256,192,129181,5,8,0:0:0:0:
256,192,129331,5,0,0:0:0:0:
256,192,129482,1,8,0:0:0:0:
256,192,129633,1,4,0:0:0:0:
256,192,129934,1,0,0:0:0:0:
256,192,130010,1,0,0:0:0:0:
256,192,130085,5,8,0:0:0:0:
256,192,130236,5,0,0:0:0:0:
256,192,130387,1,0,0:0:0:0:
256,192,130537,1,0,0:0:0:0:
256,192,130688,5,8,0:0:0:0:
256,192,130839,5,0,0:0:0:0:
256,192,130990,1,0,0:0:0:0:
256,192,131140,1,0,0:0:0:0:
256,192,131291,5,8,0:0:0:0:
256,192,131442,5,0,0:0:0:0:
256,192,131593,1,0,0:0:0:0:
256,192,131743,1,0,0:0:0:0:
256,192,131894,5,8,0:0:0:0:
256,192,132045,5,4,0:0:0:0:
256,192,132497,1,0,0:0:0:0:
256,192,132648,5,8,0:0:0:0:
256,192,132799,5,0,0:0:0:0:
256,192,132949,5,8,0:0:0:0:
256,192,133100,5,0,0:0:0:0:
256,192,133251,5,8,0:0:0:0:
256,192,133402,1,12,0:0:0:0:
256,192,133703,5,0,0:0:0:0:
256,192,133854,5,12,0:0:0:0:
256,192,134156,1,8,0:0:0:0:
256,192,134306,5,4,0:0:0:0:
256,192,134608,1,4,0:0:0:0:
256,192,134909,5,8,0:0:0:0:
256,192,135060,5,0,0:0:0:0:
256,192,135211,5,8,0:0:0:0:
256,192,135362,1,8,0:0:0:0:
256,192,135512,5,0,0:0:0:0:
256,192,135663,5,8,0:0:0:0:
256,192,135814,5,0,0:0:0:0:
256,192,136115,5,8,0:0:0:0:
256,192,136266,1,8,0:0:0:0:
256,192,136417,5,0,0:0:0:0:
256,192,136568,1,0,0:0:0:0:
256,192,136718,5,8,0:0:0:0:
256,192,137020,5,0,0:0:0:0:
256,192,137321,5,8,0:0:0:0:
256,192,137472,5,0,0:0:0:0:
256,192,137623,5,8,0:0:0:0:
256,192,137774,5,0,0:0:0:0:
256,192,137924,5,8,0:0:0:0:
256,192,138075,1,8,0:0:0:0:
256,192,138226,5,0,0:0:0:0:
256,192,138527,5,8,0:0:0:0:
256,192,138829,5,0,0:0:0:0:
256,192,138904,5,8,0:0:0:0:
256,192,138980,5,0,0:0:0:0:
256,192,139130,5,8,0:0:0:0:
256,192,139432,5,4,0:0:0:0:
256,192,139733,5,8,0:0:0:0:
256,192,139884,5,0,0:0:0:0:
256,192,140035,5,8,0:0:0:0:
256,192,140186,1,8,0:0:0:0:
256,192,140336,5,0,0:0:0:0:
256,192,140487,5,8,0:0:0:0:
256,192,140638,5,0,0:0:0:0:
256,192,140939,5,8,0:0:0:0:
256,192,141090,1,8,0:0:0:0:
256,192,141241,5,0,0:0:0:0:
256,192,141392,1,0,0:0:0:0:
256,192,141542,5,8,0:0:0:0:
256,192,141844,1,8,0:0:0:0:
256,192,141995,5,0,0:0:0:0:
256,192,142070,1,0,0:0:0:0:
256,192,142145,5,8,0:0:0:0:
256,192,142296,1,8,0:0:0:0:
256,192,142447,5,0,0:0:0:0:
256,192,142522,1,0,0:0:0:0:
256,192,142598,5,8,0:0:0:0:
256,192,142748,5,8,0:0:0:0:
256,192,142899,5,0,0:0:0:0:
256,192,143050,1,12,0:0:0:0:
256,192,143201,1,8,0:0:0:0:
256,192,143352,5,0,0:0:0:0:
256,192,143502,1,0,0:0:0:0:
256,192,143578,5,8,0:0:0:0:
256,192,143653,5,0,0:0:0:0:
256,192,143804,1,0,0:0:0:0:
256,192,143955,1,0,0:0:0:0:
256,192,144030,1,0,0:0:0:0:
256,192,144105,1,0,0:0:0:0:
256,192,144181,1,0,0:0:0:0:
256,192,144256,1,0,0:0:0:0:
256,192,144558,5,8,0:0:0:0:
256,192,144708,5,0,0:0:0:0:
256,192,144859,1,0,0:0:0:0:
256,192,145010,5,8,0:0:0:0:
256,192,145161,1,8,0:0:0:0:
256,192,145311,5,0,0:0:0:0:
256,192,145462,5,8,0:0:0:0:
256,192,145613,5,0,0:0:0:0:
256,192,145764,5,8,0:0:0:0:
256,192,145914,1,8,0:0:0:0:
256,192,146065,5,0,0:0:0:0:
256,192,146216,1,0,0:0:0:0:
256,192,146367,5,8,0:0:0:0:
256,192,146517,1,8,0:0:0:0:
256,192,146668,5,0,0:0:0:0:
256,192,146743,1,0,0:0:0:0:
256,192,146819,5,8,0:0:0:0:
256,192,146970,5,8,0:0:0:0:
256,192,147120,5,8,0:0:0:0:
256,192,147271,5,0,0:0:0:0:
256,192,147346,1,0,0:0:0:0:
256,192,147422,5,8,0:0:0:0:
256,192,147573,1,8,0:0:0:0:
256,192,147723,5,0,0:0:0:0:
256,192,147874,5,8,0:0:0:0:
256,192,148176,1,8,0:0:0:0:
256,192,148326,5,0,0:0:0:0:
256,192,148477,1,0,0:0:0:0:
256,192,148628,1,0,0:0:0:0:
256,192,148779,5,8,0:0:0:0:
256,192,149080,5,4,0:0:0:0:
256,192,149382,5,8,0:0:0:0:
256,192,149532,5,0,0:0:0:0:
256,192,149683,1,0,0:0:0:0:
256,192,149834,5,8,0:0:0:0:
256,192,149985,5,0,0:0:0:0:
256,192,150135,5,8,0:0:0:0:
256,192,150286,1,8,0:0:0:0:
256,192,150362,1,8,0:0:0:0:
256,192,150437,5,0,0:0:0:0:
256,192,150588,5,8,0:0:0:0:
256,192,150663,1,8,0:0:0:0:
256,192,150738,1,0,0:0:0:0:
256,192,150889,5,0,0:0:0:0:
256,192,151040,1,0,0:0:0:0:
256,192,151191,5,8,0:0:0:0:
256,192,151341,1,8,0:0:0:0:
256,192,151492,5,4,0:0:0:0:
256,192,151794,5,8,0:0:0:0:
256,192,151944,1,8,0:0:0:0:
256,192,152095,5,4,0:0:0:0:
256,192,152397,5,8,0:0:0:0:
256,192,152547,1,8,0:0:0:0:
256,192,152698,5,4,0:0:0:0:
256,192,153000,5,8,0:0:0:0:
256,192,153151,1,8,0:0:0:0:
256,192,153226,1,8,0:0:0:0:
256,192,153301,5,0,0:0:0:0:
256,192,153452,1,0,0:0:0:0:
256,192,153603,1,0,0:0:0:0:
256,192,153754,1,0,0:0:0:0:
256,192,153904,1,4,0:0:0:0:
256,192,154206,5,8,0:0:0:0:
256,192,154507,5,0,0:0:0:0:
256,192,154658,1,0,0:0:0:0:
256,192,154809,5,8,0:0:0:0:
256,192,155110,5,0,0:0:0:0:
256,192,155261,1,0,0:0:0:0:
256,192,155412,5,8,0:0:0:0:
256,192,155563,5,0,0:0:0:0:
256,192,155713,1,0,0:0:0:0:
256,192,156015,5,8,0:0:0:0:
256,192,156166,1,0,0:0:0:0:
256,192,156316,5,0,0:0:0:0:
256,192,156467,1,8,0:0:0:0:
256,192,156769,5,8,0:0:0:0:
256,192,156919,5,0,0:0:0:0:
256,192,157070,1,0,0:0:0:0:
256,192,157221,5,8,0:0:0:0:
256,192,157372,1,8,0:0:0:0:
256,192,157522,5,0,0:0:0:0:
256,192,157673,1,8,0:0:0:0:
256,192,157824,5,8,0:0:0:0:
256,192,157975,5,0,0:0:0:0:
256,192,158125,1,0,0:0:0:0:
256,192,158427,5,8,0:0:0:0:
256,192,158728,5,4,0:0:0:0:
256,192,159030,5,8,0:0:0:0:
256,192,159331,5,0,0:0:0:0:
256,192,159482,1,0,0:0:0:0:
256,192,159633,5,8,0:0:0:0:
256,192,159934,5,0,0:0:0:0:
256,192,160085,1,0,0:0:0:0:
256,192,160236,5,8,0:0:0:0:
256,192,160387,5,0,0:0:0:0:
256,192,160537,1,0,0:0:0:0:
256,192,160688,1,0,0:0:0:0:
256,192,160839,5,8,0:0:0:0:
256,192,161140,5,0,0:0:0:0:
256,192,161291,1,0,0:0:0:0:
256,192,161442,5,8,0:0:0:0:
256,192,161743,5,0,0:0:0:0:
256,192,161894,1,0,0:0:0:0:
256,192,162045,5,8,0:0:0:0:
256,192,162196,5,0,0:0:0:0:
256,192,162346,5,12,0:0:0:0:
256,192,162648,5,0,0:0:0:0:
256,192,162799,5,12,0:0:0:0:
256,192,163100,5,0,0:0:0:0:
256,192,163251,1,0,0:0:0:0:
256,192,163553,1,4,0:0:0:0:
256,192,163854,5,8,0:0:0:0:
256,192,164156,5,0,0:0:0:0:
256,192,164306,1,0,0:0:0:0:
256,192,164457,5,8,0:0:0:0:
256,192,164759,5,0,0:0:0:0:
256,192,164909,1,0,0:0:0:0:
256,192,165060,5,8,0:0:0:0:
256,192,165211,1,8,0:0:0:0:
256,192,165362,5,0,0:0:0:0:
256,192,165512,1,0,0:0:0:0:
256,192,165663,5,8,0:0:0:0:
256,192,165965,5,0,0:0:0:0:
256,192,166115,1,0,0:0:0:0:
256,192,166266,5,8,0:0:0:0:
256,192,166417,1,8,0:0:0:0:
256,192,166568,5,0,0:0:0:0:
256,192,166718,1,0,0:0:0:0:
256,192,166869,5,8,0:0:0:0:
256,192,167020,1,0,0:0:0:0:
256,192,167171,1,8,0:0:0:0:
256,192,167472,1,8,0:0:0:0:
256,192,167623,1,8,0:0:0:0:
256,192,167774,5,0,0:0:0:0:
256,192,168075,5,12,0:0:0:0:
256,192,168377,5,4,0:0:0:0:
256,192,168527,1,0,0:0:0:0:
256,192,168678,5,8,0:0:0:0:
256,192,168829,1,8,0:0:0:0:
256,192,168980,5,0,0:0:0:0:
256,192,169281,5,8,0:0:0:0:
256,192,169432,5,0,0:0:0:0:
256,192,169733,5,8,0:0:0:0:
256,192,169884,1,8,0:0:0:0:
256,192,170035,5,0,0:0:0:0:
256,192,170186,5,8,0:0:0:0:
256,192,170336,5,0,0:0:0:0:
256,192,170487,5,8,0:0:0:0:
256,192,170638,1,8,0:0:0:0:
256,192,170789,5,0,0:0:0:0:
256,192,171090,5,8,0:0:0:0:
256,192,171241,5,0,0:0:0:0:
256,192,171392,5,8,0:0:0:0:
256,192,171542,5,0,0:0:0:0:
256,192,171693,5,8,0:0:0:0:
256,192,171844,1,8,0:0:0:0:
256,192,171995,5,4,0:0:0:0:
256,192,172296,1,4,0:0:0:0:
256,192,172598,1,0,0:0:0:0:
256,192,172748,5,8,0:0:0:0:
256,192,172824,1,8,0:0:0:0:
256,192,172899,5,0,0:0:0:0:
256,192,173201,1,4,0:0:0:0:
256,192,173502,5,8,0:0:0:0:
256,192,173653,5,0,0:0:0:0:
256,192,173955,1,0,0:0:0:0:
256,192,174105,5,8,0:0:0:0:
256,192,174407,1,8,0:0:0:0:
256,192,174633,5,0,0:0:0:0:
256,192,174859,5,8,0:0:0:0:
256,192,175161,1,8,0:0:0:0:
256,192,175236,1,8,0:0:0:0:
256,192,175311,1,8,0:0:0:0:
256,192,175462,1,8,0:0:0:0:
256,192,175613,5,4,0:0:0:0:
256,192,175914,1,0,0:0:0:0:
256,192,176216,1,0,0:0:0:0:
256,192,176517,1,0,0:0:0:0:
256,192,176819,1,0,0:0:0:0:
256,192,177120,1,0,0:0:0:0:
256,192,177422,1,0,0:0:0:0:
256,192,177723,1,0,0:0:0:0:
256,192,177874,5,8,0:0:0:0:
256,192,178025,5,0,0:0:0:0:
256,192,178326,1,0,0:0:0:0:
256,192,178628,1,0,0:0:0:0:
256,192,178929,1,0,0:0:0:0:
256,192,179231,1,0,0:0:0:0:
256,192,179532,1,0,0:0:0:0:
256,192,179834,1,0,0:0:0:0:
256,192,180135,1,0,0:0:0:0:
256,192,180286,5,8,0:0:0:0:
256,192,180437,5,4,0:0:0:0:
256,192,180738,1,0,0:0:0:0:
256,192,181040,1,0,0:0:0:0:
256,192,181341,1,0,0:0:0:0:
256,192,181643,1,0,0:0:0:0:
256,192,181944,1,0,0:0:0:0:
256,192,182246,1,0,0:0:0:0:
256,192,182547,1,0,0:0:0:0:
256,192,182698,5,8,0:0:0:0:
256,192,182849,5,0,0:0:0:0:
256,192,183151,1,0,0:0:0:0:
256,192,183452,1,0,0:0:0:0:
256,192,183754,1,0,0:0:0:0:
256,192,184055,1,0,0:0:0:0:
256,192,184357,1,0,0:0:0:0:
256,192,184658,1,0,0:0:0:0:
256,192,184809,5,8,0:0:0:0:
256,192,184884,1,8,0:0:0:0:
256,192,184960,5,0,0:0:0:0:
256,192,185110,5,8,0:0:0:0:
256,192,185261,5,4,0:0:0:0:
256,192,185563,5,8,0:0:0:0:
256,192,185713,5,0,0:0:0:0:
256,192,185864,1,0,0:0:0:0:
256,192,186015,1,0,0:0:0:0:
256,192,186166,5,8,0:0:0:0:
256,192,186316,5,0,0:0:0:0:
256,192,186467,5,8,0:0:0:0:
256,192,186542,1,8,0:0:0:0:
256,192,186618,5,0,0:0:0:0:
256,192,186769,5,8,0:0:0:0:
256,192,186919,1,8,0:0:0:0:
256,192,186995,1,8,0:0:0:0:
256,192,187070,5,0,0:0:0:0:
256,192,187221,5,8,0:0:0:0:
256,192,187372,1,8,0:0:0:0:
256,192,187447,1,8,0:0:0:0:
256,192,187522,5,0,0:0:0:0:
256,192,187673,1,4,0:0:0:0:
256,192,187975,5,8,0:0:0:0:
256,192,188125,5,0,0:0:0:0:
256,192,188276,1,0,0:0:0:0:
256,192,188427,1,0,0:0:0:0:
256,192,188578,5,8,0:0:0:0:
256,192,188728,5,0,0:0:0:0:
256,192,188879,5,8,0:0:0:0:
256,192,188955,1,8,0:0:0:0:
256,192,189030,5,0,0:0:0:0:
256,192,189181,5,8,0:0:0:0:
256,192,189331,1,8,0:0:0:0:
256,192,189407,1,8,0:0:0:0:
256,192,189482,5,0,0:0:0:0:
256,192,189633,5,8,0:0:0:0:
256,192,189784,1,8,0:0:0:0:
256,192,189859,1,8,0:0:0:0:
256,192,189934,5,0,0:0:0:0:
256,192,190085,1,4,0:0:0:0:
256,192,190387,5,8,0:0:0:0:
256,192,190537,5,0,0:0:0:0:
256,192,190688,1,0,0:0:0:0:
256,192,190839,1,0,0:0:0:0:
256,192,190990,5,8,0:0:0:0:
256,192,191140,5,0,0:0:0:0:
256,192,191291,5,8,0:0:0:0:
256,192,191367,1,8,0:0:0:0:
256,192,191442,5,0,0:0:0:0:
256,192,191593,5,8,0:0:0:0:
256,192,191743,1,8,0:0:0:0:
256,192,191819,1,8,0:0:0:0:
256,192,191894,5,0,0:0:0:0:
256,192,192045,5,8,0:0:0:0:
256,192,192196,1,8,0:0:0:0:
256,192,192271,1,8,0:0:0:0:
256,192,192346,5,0,0:0:0:0:
256,192,192497,1,4,0:0:0:0:
256,192,192799,5,8,0:0:0:0:
256,192,192950,5,0,0:0:0:0:
256,192,193100,1,0,0:0:0:0:
256,192,193251,1,0,0:0:0:0:
256,192,193402,5,8,0:0:0:0:
256,192,193553,5,0,0:0:0:0:
256,192,193703,5,8,0:0:0:0:
256,192,193854,1,8,0:0:0:0:
256,192,193929,1,8,0:0:0:0:
256,192,194005,1,8,0:0:0:0:
256,192,194080,1,8,0:0:0:0:
256,192,194156,1,8,0:0:0:0:
256,192,194231,1,8,0:0:0:0:
256,192,194306,5,0,0:0:0:0:
256,192,194382,1,0,0:0:0:0:
256,192,194457,1,0,0:0:0:0:
256,192,194532,1,0,0:0:0:0:
256,192,194608,1,0,0:0:0:0:
256,192,194683,1,0,0:0:0:0:
256,192,194759,1,0,0:0:0:0:
256,192,194834,1,0,0:0:0:0:
256,192,194909,1,0,0:0:0:0:
256,192,195211,5,8,0:0:0:0:
256,192,195512,5,0,0:0:0:0:
256,192,195663,1,0,0:0:0:0:
256,192,195814,5,8,0:0:0:0:
256,192,195965,5,0,0:0:0:0:
256,192,196266,1,0,0:0:0:0:
256,192,196417,5,8,0:0:0:0:
256,192,196718,5,0,0:0:0:0:
256,192,196869,1,0,0:0:0:0:
256,192,197020,5,8,0:0:0:0:
256,192,197171,5,0,0:0:0:0:
256,192,197472,1,0,0:0:0:0:
256,192,197623,5,8,0:0:0:0:
256,192,197924,5,0,0:0:0:0:
256,192,198075,1,0,0:0:0:0:
256,192,198226,5,8,0:0:0:0:
256,192,198377,5,0,0:0:0:0:
256,192,198678,1,0,0:0:0:0:
256,192,198829,5,8,0:0:0:0:
256,192,199130,1,8,0:0:0:0:
256,192,199281,5,0,0:0:0:0:
256,192,199432,5,8,0:0:0:0:
256,192,199583,1,8,0:0:0:0:
256,192,199733,5,4,0:0:0:0:
256,192,200035,5,8,0:0:0:0:
256,192,200336,5,0,0:0:0:0:
256,192,200487,1,0,0:0:0:0:
256,192,200638,5,8,0:0:0:0:
256,192,200789,5,0,0:0:0:0:
256,192,201090,1,0,0:0:0:0:
256,192,201241,5,8,0:0:0:0:
256,192,201542,5,0,0:0:0:0:
256,192,201693,1,0,0:0:0:0:
256,192,201844,5,8,0:0:0:0:
256,192,201995,5,0,0:0:0:0:
256,192,202296,1,0,0:0:0:0:
256,192,202447,5,8,0:0:0:0:
256,192,202748,1,12,0:0:0:0:
256,192,202899,1,8,0:0:0:0:
256,192,202975,1,8,0:0:0:0:
256,192,203050,5,0,0:0:0:0:
256,192,203201,5,12,0:0:0:0:
256,192,203502,1,0,0:0:0:0:
256,192,203653,5,0,0:0:0:0:
256,192,203804,5,12,0:0:0:0:
256,192,204105,1,8,0:0:0:0:
256,192,204181,1,8,0:0:0:0:
256,192,204256,5,0,0:0:0:0:
256,192,204407,5,8,0:0:0:0:
256,192,204558,5,4,0:0:0:0:
256,192,204859,5,8,0:0:0:0:
256,192,205010,1,8,0:0:0:0:
256,192,205161,5,0,0:0:0:0:
256,192,205311,1,0,0:0:0:0:
256,192,205462,5,8,0:0:0:0:
256,192,205613,5,0,0:0:0:0:
256,192,205914,1,0,0:0:0:0:
256,192,206065,5,8,0:0:0:0:
256,192,206367,5,0,0:0:0:0:
256,192,206517,1,0,0:0:0:0:
256,192,206668,5,8,0:0:0:0:
256,192,206819,5,0,0:0:0:0:
256,192,206970,1,0,0:0:0:0:
256,192,207271,5,8,0:0:0:0:
256,192,207573,1,8,0:0:0:0:
256,192,207723,5,0,0:0:0:0:
256,192,207874,5,8,0:0:0:0:
256,192,208025,5,0,0:0:0:0:
256,192,208326,5,8,0:0:0:0:
256,192,208477,1,8,0:0:0:0:
256,192,208628,5,0,0:0:0:0:
256,192,208779,5,8,0:0:0:0:
256,192,208929,5,0,0:0:0:0:
256,192,209080,5,8,0:0:0:0:
256,192,209231,1,8,0:0:0:0:
256,192,209382,5,4,0:0:0:0:
256,192,209683,5,8,0:0:0:0:
256,192,209985,5,0,0:0:0:0:
256,192,210286,5,8,0:0:0:0:
256,192,210437,5,0,0:0:0:0:
256,192,210738,1,0,0:0:0:0:
256,192,210889,5,8,0:0:0:0:
256,192,211191,5,0,0:0:0:0:
256,192,211492,5,8,0:0:0:0:
256,192,211643,5,0,0:0:0:0:
256,192,211944,1,0,0:0:0:0:
256,192,212095,5,8,0:0:0:0:
256,192,212397,1,8,0:0:0:0:
256,192,212623,1,8,0:0:0:0:
256,192,212849,5,4,0:0:0:0:
256,192,213301,1,0,0:0:0:0:
256,192,213452,5,8,0:0:0:0:
256,192,213527,1,8,0:0:0:0:
256,192,213603,1,8,0:0:0:0:
256,192,213754,1,8,0:0:0:0:
256,192,213904,1,8,0:0:0:0:
256,192,214055,1,8,0:0:0:0:
256,192,214206,5,4,0:0:0:0:
256,192,214658,1,0,0:0:0:0:
256,192,214809,5,8,0:0:0:0:
256,192,215110,5,0,0:0:0:0:
256,192,215412,1,0,0:0:0:0:
256,192,215563,5,8,0:0:0:0:
256,192,215713,1,0,0:0:0:0:
256,192,216015,1,8,0:0:0:0:
256,192,216316,5,0,0:0:0:0:
256,192,216618,1,0,0:0:0:0:
256,192,217221,5,8,0:0:0:0:
256,192,217824,5,0,0:0:0:0:
256,192,217975,5,8,0:0:0:0:
256,192,218125,1,8,0:0:0:0:
256,192,218427,1,8,0:0:0:0:
256,192,218578,1,8,0:0:0:0:
256,192,218728,5,0,0:0:0:0:
256,192,218879,1,0,0:0:0:0:
256,192,219030,1,4,0:0:0:0:
256,192,219482,1,0,0:0:0:0:
256,192,219633,5,8,0:0:0:0:
256,192,219934,1,0,0:0:0:0:
256,192,220236,5,0,0:0:0:0:
256,192,220387,5,8,0:0:0:0:
256,192,220537,5,0,0:0:0:0:
256,192,220839,5,8,0:0:0:0:
256,192,221140,5,0,0:0:0:0:
256,192,221442,1,4,0:0:0:0:
256,192,221894,1,0,0:0:0:0:
256,192,222045,1,4,0:0:0:0:
256,192,222271,1,4,0:0:0:0:
256,192,222497,1,4,0:0:0:0:
256,192,222950,5,8,0:0:0:0:
256,192,223100,1,8,0:0:0:0:
256,192,223251,1,8,0:0:0:0:
256,192,223402,1,8,0:0:0:0:
256,192,223477,1,8,0:0:0:0:
256,192,223553,5,0,0:0:0:0:
256,192,223703,1,0,0:0:0:0:
256,192,223854,1,4,0:0:0:0:
256,192,224156,5,8,0:0:0:0:
256,192,224306,1,8,0:0:0:0:
256,192,224457,5,0,0:0:0:0:
256,192,224683,1,0,0:0:0:0:
256,192,224909,1,0,0:0:0:0:
256,192,225211,1,0,0:0:0:0:
256,192,225286,1,0,0:0:0:0:
256,192,225362,5,8,0:0:0:0:
256,192,225512,1,8,0:0:0:0:
256,192,225663,5,0,0:0:0:0:
256,192,225814,1,0,0:0:0:0:
256,192,225965,5,8,0:0:0:0:
256,192,226115,5,0,0:0:0:0:
256,192,226266,5,12,0:0:0:0:
256,192,226417,1,0,0:0:0:0:
256,192,226492,1,0,0:0:0:0:
256,192,226568,5,0,0:0:0:0:
256,192,226718,1,0,0:0:0:0:
256,192,226869,5,12,0:0:0:0:
256,192,227171,5,0,0:0:0:0:
256,192,227321,5,12,0:0:0:0:
256,192,227774,1,8,0:0:0:0:
256,192,228075,5,0,0:0:0:0:
256,192,228226,1,0,0:0:0:0:
256,192,228377,5,8,0:0:0:0:
256,192,228678,1,12,0:0:0:0:
256,192,228829,5,0,0:0:0:0:
256,192,228904,1,0,0:0:0:0:
256,192,228980,5,8,0:0:0:0:
256,192,229130,5,0,0:0:0:0:
256,192,229281,5,8,0:0:0:0:
256,192,229432,5,0,0:0:0:0:
256,192,229507,1,0,0:0:0:0:
256,192,229583,5,8,0:0:0:0:
256,192,229733,1,8,0:0:0:0:
256,192,229884,5,8,0:0:0:0:
256,192,230035,1,0,0:0:0:0:
256,192,230186,5,8,0:0:0:0:
256,192,230261,5,0,0:0:0:0:
256,192,230336,5,8,0:0:0:0:
256,192,230487,1,8,0:0:0:0:
256,192,230563,1,8,0:0:0:0:
256,192,230638,5,0,0:0:0:0:
256,192,230789,5,8,0:0:0:0:
256,192,230864,5,0,0:0:0:0:
256,192,230939,5,8,0:0:0:0:
256,192,231090,1,12,0:0:0:0:
256,192,231392,5,0,0:0:0:0:
256,192,231542,5,12,0:0:0:0:
256,192,231844,5,0,0:0:0:0:
256,192,231995,5,12,0:0:0:0:
256,192,232296,1,8,0:0:0:0:
256,192,232598,5,0,0:0:0:0:
256,192,232748,5,12,0:0:0:0:
256,192,233502,1,4,0:0:0:0:
256,192,233653,5,0,0:0:0:0:
256,192,233728,1,0,0:0:0:0:
256,192,233804,5,8,0:0:0:0:
256,192,233955,5,0,0:0:0:0:
256,192,234105,5,8,0:0:0:0:
256,192,234181,1,8,0:0:0:0:
256,192,234256,5,0,0:0:0:0:
256,192,234407,5,8,0:0:0:0:
256,192,234482,1,8,0:0:0:0:
256,192,234558,5,0,0:0:0:0:
256,192,234708,5,8,0:0:0:0:
256,192,234784,1,8,0:0:0:0:
256,192,234859,5,0,0:0:0:0:
256,192,234934,1,0,0:0:0:0:
256,192,235010,5,8,0:0:0:0:
256,192,235161,1,8,0:0:0:0:
256,192,235311,5,0,0:0:0:0:
256,192,235387,1,0,0:0:0:0:
256,192,235462,5,8,0:0:0:0:
256,192,235613,1,8,0:0:0:0:
256,192,235764,1,8,0:0:0:0:
256,192,235914,5,0,0:0:0:0:
256,192,235990,1,0,0:0:0:0:
256,192,236065,5,8,0:0:0:0:
256,192,236216,1,8,0:0:0:0:
256,192,236367,5,8,0:0:0:0:
256,192,236442,1,8,0:0:0:0:
256,192,236517,1,8,0:0:0:0:
256,192,236593,5,0,0:0:0:0:
256,192,236668,1,8,0:0:0:0:
256,192,236819,5,8,0:0:0:0:
256,192,236970,1,0,0:0:0:0:
256,192,237120,1,8,0:0:0:0:
256,192,237271,1,0,0:0:0:0:
256,192,237346,1,0,0:0:0:0:
256,192,237422,5,8,0:0:0:0:
256,192,237573,1,0,0:0:0:0:
256,192,237723,5,8,0:0:0:0:
256,192,238025,5,8,0:0:0:0:
256,192,238176,1,8,0:0:0:0:
256,192,238326,5,4,0:0:0:0:
256,192,238477,1,0,0:0:0:0:
256,192,238553,1,0,0:0:0:0:
256,192,238628,5,8,0:0:0:0:
256,192,238779,5,0,0:0:0:0:
256,192,238854,1,0,0:0:0:0:
256,192,238929,5,8,0:0:0:0:
256,192,239005,1,0,0:0:0:0:
256,192,239080,5,8,0:0:0:0:
256,192,239231,5,8,0:0:0:0:
256,192,239382,5,0,0:0:0:0:
256,192,239532,5,8,0:0:0:0:
256,192,239608,1,8,0:0:0:0:
256,192,239683,5,0,0:0:0:0:
256,192,239834,5,8,0:0:0:0:
256,192,239985,5,0,0:0:0:0:
256,192,240060,1,0,0:0:0:0:
256,192,240135,1,0,0:0:0:0:
256,192,240286,1,0,0:0:0:0:
256,192,240362,1,0,0:0:0:0:
256,192,240437,5,8,0:0:0:0:
256,192,240588,1,8,0:0:0:0:
256,192,240738,1,8,0:0:0:0:
256,192,240814,5,0,0:0:0:0:
256,192,240889,1,0,0:0:0:0:
256,192,240965,1,0,0:0:0:0:
256,192,241040,5,8,0:0:0:0:
256,192,241191,1,8,0:0:0:0:
256,192,241266,1,8,0:0:0:0:
256,192,241341,5,0,0:0:0:0:
256,192,241492,1,0,0:0:0:0:
256,192,241568,1,0,0:0:0:0:
256,192,241643,5,8,0:0:0:0:
256,192,241794,1,8,0:0:0:0:
256,192,241944,5,4,0:0:0:0:
256,192,242246,5,8,0:0:0:0:
256,192,242397,1,8,0:0:0:0:
256,192,242472,1,8,0:0:0:0:
256,192,242547,5,0,0:0:0:0:
256,192,242698,5,0,0:0:0:0:
256,192,242849,1,8,0:0:0:0:
256,192,243000,1,8,0:0:0:0:
256,192,243151,1,4,0:0:0:0:
256,192,243301,1,0,0:0:0:0:
256,192,243377,5,0,0:0:0:0:
256,192,243452,5,8,0:0:0:0:
256,192,243603,1,8,0:0:0:0:
256,192,243678,5,0,0:0:0:0:
256,192,243754,5,8,0:0:0:0:
256,192,243904,1,8,0:0:0:0:
256,192,244055,1,8,0:0:0:0:
256,192,244130,1,8,0:0:0:0:
256,192,244206,5,0,0:0:0:0:
256,192,244281,1,0,0:0:0:0:
256,192,244357,5,8,0:0:0:0:
256,192,244507,5,0,0:0:0:0:
256,192,244583,1,0,0:0:0:0:
256,192,244658,1,8,0:0:0:0:
256,192,244733,1,0,0:0:0:0:
256,192,244884,1,0,0:0:0:0:
256,192,244960,5,0,0:0:0:0:
256,192,245110,1,0,0:0:0:0:
256,192,245186,1,0,0:0:0:0:
256,192,245261,5,8,0:0:0:0:
256,192,245412,1,8,0:0:0:0:
256,192,245563,5,0,0:0:0:0:
256,192,245638,1,0,0:0:0:0:
256,192,245713,1,0,0:0:0:0:
256,192,245789,1,0,0:0:0:0:
256,192,245864,5,8,0:0:0:0:
256,192,246015,5,0,0:0:0:0:
256,192,246090,1,0,0:0:0:0:
256,192,246166,5,8,0:0:0:0:
256,192,246316,5,0,0:0:0:0:
256,192,246392,1,0,0:0:0:0:
256,192,246467,5,8,0:0:0:0:
256,192,246618,5,0,0:0:0:0:
256,192,246769,5,8,0:0:0:0:
256,192,246844,1,8,0:0:0:0:
256,192,246919,5,0,0:0:0:0:
256,192,247070,5,8,0:0:0:0:
256,192,247221,5,0,0:0:0:0:
256,192,247372,5,8,0:0:0:0:
256,192,247447,1,8,0:0:0:0:
256,192,247522,5,0,0:0:0:0:
256,192,247673,5,12,0:0:0:0:
256,192,247975,5,4,0:0:0:0:
256,192,248125,1,0,0:0:0:0:
256,192,248201,1,0,0:0:0:0:
256,192,248276,5,8,0:0:0:0:
256,192,248427,1,8,0:0:0:0:
256,192,248578,5,0,0:0:0:0:
256,192,248728,5,8,0:0:0:0:
256,192,248804,1,8,0:0:0:0:
256,192,248879,5,0,0:0:0:0:
256,192,249030,5,8,0:0:0:0:
256,192,249181,1,8,0:0:0:0:
256,192,249256,1,8,0:0:0:0:
256,192,249331,1,8,0:0:0:0:
256,192,249407,5,0,0:0:0:0:
256,192,249482,5,8,0:0:0:0:
256,192,249633,1,8,0:0:0:0:
256,192,249784,5,0,0:0:0:0:
256,192,249934,1,0,0:0:0:0:
256,192,250085,5,8,0:0:0:0:
256,192,250161,1,8,0:0:0:0:
256,192,250236,1,8,0:0:0:0:
256,192,250387,5,4,0:0:0:0:
256,192,250537,1,0,0:0:0:0:
256,192,250688,5,8,0:0:0:0:
256,192,250839,5,0,0:0:0:0:
256,192,251140,1,0,0:0:0:0:
256,192,251291,1,0,0:0:0:0:
256,192,251442,1,0,0:0:0:0:
256,192,251593,1,4,0:0:0:0:
256,192,251894,1,0,0:0:0:0:
256,192,252045,5,8,0:0:0:0:
256,192,252346,5,0,0:0:0:0:
256,192,252497,1,0,0:0:0:0:
256,192,252799,1,0,0:0:0:0:
256,192,252950,5,8,0:0:0:0:
256,192,253251,5,0,0:0:0:0:
256,192,253402,5,8,0:0:0:0:
256,192,253553,5,0,0:0:0:0:
256,192,253703,1,0,0:0:0:0:
256,192,253854,1,0,0:0:0:0:
256,192,254005,1,0,0:0:0:0:
256,192,254306,1,0,0:0:0:0:
256,192,254457,5,8,0:0:0:0:
256,192,254759,5,0,0:0:0:0:
256,192,254909,1,0,0:0:0:0:
256,192,255211,1,0,0:0:0:0:
256,192,255362,5,8,0:0:0:0:
256,192,255663,5,0,0:0:0:0:
256,192,255814,5,8,0:0:0:0:
256,192,255965,1,8,0:0:0:0:
256,192,256040,1,8,0:0:0:0:
256,192,256115,1,8,0:0:0:0:
256,192,256266,1,8,0:0:0:0:
256,192,256417,5,4,0:0:0:0:
256,192,256718,1,0,0:0:0:0:
256,192,256869,5,8,0:0:0:0:
256,192,257171,5,0,0:0:0:0:
256,192,257321,1,0,0:0:0:0:
256,192,257623,1,0,0:0:0:0:
256,192,257774,5,8,0:0:0:0:
256,192,258075,5,0,0:0:0:0:
256,192,258226,5,8,0:0:0:0:
256,192,258527,1,8,0:0:0:0:
256,192,258678,5,0,0:0:0:0:
256,192,258829,5,12,0:0:0:0:
256,192,259130,5,0,0:0:0:0:
256,192,259281,5,12,0:0:0:0:
256,192,259583,5,0,0:0:0:0:
256,192,259733,5,12,0:0:0:0:
256,192,260035,5,0,0:0:0:0:
256,192,260186,5,12,0:0:0:0:
256,192,260487,5,0,0:0:0:0:
256,192,260638,5,8,0:0:0:0:
256,192,260789,1,8,0:0:0:0:
256,192,260864,1,8,0:0:0:0:
256,192,260939,1,8,0:0:0:0:
256,192,261015,1,8,0:0:0:0:
256,192,261090,1,8,0:0:0:0:
256,192,261166,1,8,0:0:0:0:
256,192,261241,5,0,0:0:0:0:
256,192,262447,1,0,0:0:0:0:
256,192,262899,1,0,0:0:0:0:
256,192,263653,1,0,0:0:0:0:
256,192,264256,1,0,0:0:0:0:
256,192,264859,1,0,0:0:0:0:
256,192,265311,1,0,0:0:0:0:
256,192,265764,1,0,0:0:0:0:
256,192,266065,1,0,0:0:0:0:
256,192,267271,1,0,0:0:0:0:
256,192,267723,1,0,0:0:0:0:
256,192,268326,1,0,0:0:0:0:
256,192,268929,1,0,0:0:0:0:
256,192,269382,1,0,0:0:0:0:
256,192,269683,5,8,0:0:0:0:
256,192,269834,1,8,0:0:0:0:
256,192,269985,5,0,0:0:0:0:
256,192,270135,1,0,0:0:0:0:
256,192,270286,5,8,0:0:0:0:
256,192,270437,5,0,0:0:0:0:
256,192,270588,1,0,0:0:0:0:
256,192,270663,1,0,0:0:0:0:
256,192,270738,1,0,0:0:0:0:
256,192,270814,1,0,0:0:0:0:
256,192,270889,1,0,0:0:0:0:
256,192,271191,1,0,0:0:0:0:
256,192,271492,5,8,0:0:0:0:
256,192,271794,5,0,0:0:0:0:
256,192,272095,1,0,0:0:0:0:
256,192,272246,5,8,0:0:0:0:
256,192,272397,5,0,0:0:0:0:
256,192,272698,5,8,0:0:0:0:
256,192,273000,5,0,0:0:0:0:
256,192,273301,1,0,0:0:0:0:
256,192,273452,5,8,0:0:0:0:
256,192,273527,5,0,0:0:0:0:
256,192,273603,1,0,0:0:0:0:
256,192,273904,5,8,0:0:0:0:
256,192,274206,5,0,0:0:0:0:
256,192,274507,1,0,0:0:0:0:
256,192,274658,5,8,0:0:0:0:
256,192,274809,5,0,0:0:0:0:
256,192,275110,5,8,0:0:0:0:
256,192,275261,1,0,0:0:0:0:
256,192,275412,5,0,0:0:0:0:
256,192,275563,1,0,0:0:0:0:
256,192,275713,1,4,0:0:0:0:
256,192,276015,1,0,0:0:0:0:
256,192,276316,5,8,0:0:0:0:
256,192,276618,5,0,0:0:0:0:
256,192,276919,1,0,0:0:0:0:
256,192,277070,5,8,0:0:0:0:
256,192,277221,5,0,0:0:0:0:
256,192,277522,5,8,0:0:0:0:
256,192,277824,5,0,0:0:0:0:
256,192,278125,1,0,0:0:0:0:
256,192,278276,5,8,0:0:0:0:
256,192,278427,5,0,0:0:0:0:
256,192,278728,5,8,0:0:0:0:
256,192,279030,5,0,0:0:0:0:
256,192,279331,5,12,0:0:0:0:
256,192,279482,1,8,0:0:0:0:
256,192,279633,5,0,0:0:0:0:
256,192,279934,5,12,0:0:0:0:
256,192,280085,1,8,0:0:0:0:
256,192,280161,1,8,0:0:0:0:
256,192,280236,1,8,0:0:0:0:
256,192,280387,1,8,0:0:0:0:
256,192,280537,5,4,0:0:0:0:
256,192,280839,5,8,0:0:0:0:
256,192,280990,5,0,0:0:0:0:
256,192,281140,1,0,0:0:0:0:
256,192,281291,1,0,0:0:0:0:
256,192,281442,5,8,0:0:0:0:
256,192,281743,1,8,0:0:0:0:
256,192,281894,5,0,0:0:0:0:
256,192,282045,5,8,0:0:0:0:
256,192,282196,1,8,0:0:0:0:
256,192,282346,5,0,0:0:0:0:
256,192,282497,1,0,0:0:0:0:
256,192,282648,5,8,0:0:0:0:
256,192,282799,5,0,0:0:0:0:
256,192,282950,1,0,0:0:0:0:
256,192,283251,5,8,0:0:0:0:
256,192,283402,1,8,0:0:0:0:
256,192,283553,5,0,0:0:0:0:
256,192,283703,1,0,0:0:0:0:
256,192,283854,5,8,0:0:0:0:
256,192,284005,5,0,0:0:0:0:
256,192,284156,5,8,0:0:0:0:
256,192,284231,1,8,0:0:0:0:
256,192,284306,1,8,0:0:0:0:
256,192,284382,5,0,0:0:0:0:
256,192,284457,5,8,0:0:0:0:
256,192,284532,1,8,0:0:0:0:
256,192,284608,1,8,0:0:0:0:
256,192,284683,5,0,0:0:0:0:
256,192,284759,5,8,0:0:0:0:
256,192,284834,1,8,0:0:0:0:
256,192,284909,1,8,0:0:0:0:
256,192,284985,5,0,0:0:0:0:
256,192,285060,5,8,0:0:0:0:
256,192,285135,5,0,0:0:0:0:
256,192,285211,5,8,0:0:0:0:
256,192,285286,1,8,0:0:0:0:
256,192,285362,5,0,0:0:0:0:
256,192,285663,5,8,0:0:0:0:
256,192,285814,5,0,0:0:0:0:
256,192,285965,1,0,0:0:0:0:
256,192,286266,5,8,0:0:0:0:
256,192,286568,1,8,0:0:0:0:
256,192,286718,5,0,0:0:0:0:
256,192,286869,5,8,0:0:0:0:
256,192,287020,1,8,0:0:0:0:
256,192,287171,5,0,0:0:0:0:
256,192,287321,5,8,0:0:0:0:
256,192,287472,1,8,0:0:0:0:
256,192,287623,1,8,0:0:0:0:
256,192,287774,5,0,0:0:0:0:
256,192,287924,5,8,0:0:0:0:
256,192,288075,1,0,0:0:0:0:
256,192,288226,5,0,0:0:0:0:
256,192,288377,5,8,0:0:0:0:
256,192,288527,1,8,0:0:0:0:
256,192,288603,1,8,0:0:0:0:
256,192,288678,5,0,0:0:0:0:
256,192,288829,1,0,0:0:0:0:
256,192,288980,21,4,0:0:0:0:
256,192,289181,5,8,0:0:0:0:
256,192,289382,1,8,0:0:0:0:
256,192,289583,5,4,0:0:0:0:
256,192,289784,5,8,0:0:0:0:
256,192,289985,1,8,0:0:0:0:
256,192,290186,5,4,0:0:0:0:
256,192,290387,5,8,0:0:0:0:
256,192,290588,1,8,0:0:0:0:
256,192,290789,5,4,0:0:0:0:
256,192,290990,5,8,0:0:0:0:
256,192,291191,1,8,0:0:0:0:
256,192,291392,1,12,0:0:0:0:
256,192,293653,1,0,0:0:0:0:
256,192,293804,1,4,0:0:0:0:
256,192,296061,5,8,0:0:0:0:
256,192,296136,1,8,0:0:0:0:
256,192,296212,1,8,0:0:0:0:
256,192,298477,1,8,0:0:0:0:
256,192,300885,1,8,0:0:0:0:
256,192,301036,1,8,0:0:0:0:
256,192,303297,5,0,0:0:0:0:
256,192,303448,1,4,0:0:0:0:
256,192,305709,5,8,0:0:0:0:
256,192,305785,1,8,0:0:0:0:
256,192,305860,1,8,0:0:0:0:
256,192,307824,1,8,0:0:0:0:
256,192,308276,1,0,0:0:0:0:
256,192,309482,1,0,0:0:0:0:
256,192,309934,1,0,0:0:0:0:
256,192,310386,1,8,0:0:0:0:
256,192,310688,5,0,0:0:0:0:
256,192,311291,1,0,0:0:0:0:
256,192,311894,1,0,0:0:0:0:
256,192,312195,1,0,0:0:0:0:
256,192,312346,1,0,0:0:0:0:
256,192,312497,1,0,0:0:0:0:
256,192,312648,1,0,0:0:0:0:
256,192,312798,1,0,0:0:0:0:
256,192,312949,1,0,0:0:0:0:
256,192,313098,5,4,0:0:0:0:
256,192,313549,1,0,0:0:0:0:
256,192,313700,5,8,0:0:0:0:
256,192,314001,5,0,0:0:0:0:
256,192,314151,1,0,0:0:0:0:
256,192,314452,5,8,0:0:0:0:
256,192,314603,5,0,0:0:0:0:
256,192,314904,5,8,0:0:0:0:
256,192,315205,5,0,0:0:0:0:
256,192,315506,1,0,0:0:0:0:
256,192,315807,1,0,0:0:0:0:
256,192,315958,1,0,0:0:0:0:
256,192,316108,5,8,0:0:0:0:
256,192,316409,5,0,0:0:0:0:
256,192,316560,1,0,0:0:0:0:
256,192,316710,1,0,0:0:0:0:
256,192,316861,5,8,0:0:0:0:
256,192,316936,1,8,0:0:0:0:
256,192,317011,5,0,0:0:0:0:
256,192,317312,5,8,0:0:0:0:
256,192,317613,5,0,0:0:0:0:
256,192,317764,1,0,0:0:0:0:
256,192,317914,1,0,0:0:0:0:
256,192,318366,1,0,0:0:0:0:
256,192,318516,5,8,0:0:0:0:
256,192,318818,5,0,0:0:0:0:
256,192,318968,1,0,0:0:0:0:
256,192,319269,5,8,0:0:0:0:
256,192,319570,5,0,0:0:0:0:
256,192,319721,5,8,0:0:0:0:
256,192,320022,5,0,0:0:0:0:
256,192,320323,1,0,0:0:0:0:
256,192,320624,1,0,0:0:0:0:
256,192,320774,1,0,0:0:0:0:
256,192,320925,5,8,0:0:0:0:
256,192,321226,5,0,0:0:0:0:
256,192,321376,1,0,0:0:0:0:
256,192,321678,5,8,0:0:0:0:
256,192,321979,5,0,0:0:0:0:
256,192,322054,1,0,0:0:0:0:
256,192,322129,5,8,0:0:0:0:
256,192,322280,5,0,0:0:0:0:
256,192,322430,1,0,0:0:0:0:
256,192,322731,1,4,0:0:0:0:
256,192,323183,1,0,0:0:0:0:
256,192,323333,5,8,0:0:0:0:
256,192,323634,5,0,0:0:0:0:
256,192,323785,1,0,0:0:0:0:
256,192,324086,5,8,0:0:0:0:
256,192,324387,5,0,0:0:0:0:
256,192,324538,5,8,0:0:0:0:
256,192,324839,5,0,0:0:0:0:
256,192,325140,1,0,0:0:0:0:
256,192,325441,1,0,0:0:0:0:
256,192,325591,1,0,0:0:0:0:
256,192,325742,5,8,0:0:0:0:
256,192,326043,5,0,0:0:0:0:
256,192,326344,1,0,0:0:0:0:
256,192,326494,5,8,0:0:0:0:
256,192,326795,5,0,0:0:0:0:
256,192,326871,1,0,0:0:0:0:
256,192,326946,5,8,0:0:0:0:
256,192,327096,1,8,0:0:0:0:
256,192,327247,5,0,0:0:0:0:
256,192,327570,1,4,0:0:0:0:
256,192,328021,1,0,0:0:0:0:
256,192,328172,5,8,0:0:0:0:
256,192,328473,5,0,0:0:0:0:
256,192,328624,5,8,0:0:0:0:
256,192,328774,5,0,0:0:0:0:
256,192,328925,5,8,0:0:0:0:
256,192,329226,5,0,0:0:0:0:
256,192,329377,5,8,0:0:0:0:
256,192,329678,5,8,0:0:0:0:
256,192,329979,1,4,0:0:0:0:
256,192,330130,5,8,0:0:0:0:
256,192,330205,1,8,0:0:0:0:
256,192,330280,1,8,0:0:0:0:
256,192,330431,1,8,0:0:0:0:
256,192,330582,1,8,0:0:0:0:
256,192,330732,1,8,0:0:0:0:
256,192,330883,1,8,0:0:0:0:
256,192,331033,1,8,0:0:0:0:
256,192,331184,1,8,0:0:0:0:
256,192,331259,5,0,0:0:0:0:
256,192,331335,1,0,0:0:0:0:
256,192,331410,1,0,0:0:0:0:
256,192,331485,1,0,0:0:0:0:
256,192,331560,1,0,0:0:0:0:
256,192,331636,1,0,0:0:0:0:
256,192,331711,1,0,0:0:0:0:
256,192,331786,5,8,0:0:0:0:
256,192,331862,5,0,0:0:0:0:
256,192,331937,1,0,0:0:0:0:
256,192,332012,1,0,0:0:0:0:
256,192,332088,1,0,0:0:0:0:
256,192,332163,1,0,0:0:0:0:
256,192,332238,1,0,0:0:0:0:
256,192,332313,1,0,0:0:0:0:
256,192,332389,5,8,0:0:0:0:
256,192,332690,1,8,0:0:0:0:
256,192,332841,5,0,0:0:0:0:
256,192,332991,1,0,0:0:0:0:
256,192,333066,1,0,0:0:0:0:
256,192,333142,1,0,0:0:0:0:
256,192,333292,5,8,0:0:0:0:
256,192,333443,5,0,0:0:0:0:
256,192,333594,5,8,0:0:0:0:
256,192,333669,1,8,0:0:0:0:
256,192,333744,5,0,0:0:0:0:
256,192,333895,5,8,0:0:0:0:
256,192,334045,1,8,0:0:0:0:
256,192,334121,1,8,0:0:0:0:
256,192,334196,5,0,0:0:0:0:
256,192,334347,1,0,0:0:0:0:
256,192,334497,5,8,0:0:0:0:
256,192,334648,5,4,0:0:0:0:
256,192,334949,1,0,0:0:0:0:
256,192,335100,5,8,0:0:0:0:
256,192,335250,5,0,0:0:0:0:
256,192,335401,5,8,0:0:0:0:
256,192,335551,5,0,0:0:0:0:
256,192,335627,1,0,0:0:0:0:
256,192,335702,5,8,0:0:0:0:
256,192,335853,5,0,0:0:0:0:
256,192,336003,5,8,0:0:0:0:
256,192,336079,1,8,0:0:0:0:
256,192,336154,5,0,0:0:0:0:
256,192,336304,5,8,0:0:0:0:
256,192,336455,1,8,0:0:0:0:
256,192,336530,1,8,0:0:0:0:
256,192,336606,5,0,0:0:0:0:
256,192,336756,1,0,0:0:0:0:
256,192,336907,5,8,0:0:0:0:
256,192,337057,5,4,0:0:0:0:
256,192,337359,1,0,0:0:0:0:
256,192,337509,5,8,0:0:0:0:
256,192,337660,5,0,0:0:0:0:
256,192,337810,1,0,0:0:0:0:
256,192,337961,1,0,0:0:0:0:
256,192,338036,1,0,0:0:0:0:
256,192,338112,5,8,0:0:0:0:
256,192,338262,1,8,0:0:0:0:
256,192,338413,1,8,0:0:0:0:
256,192,338488,1,8,0:0:0:0:
256,192,338563,5,0,0:0:0:0:
256,192,338714,5,8,0:0:0:0:
256,192,338865,1,8,0:0:0:0:
256,192,338940,1,8,0:0:0:0:
256,192,339015,5,0,0:0:0:0:
256,192,339166,1,0,0:0:0:0:
256,192,339316,5,8,0:0:0:0:
256,192,339467,5,4,0:0:0:0:
256,192,339768,1,0,0:0:0:0:
256,192,339919,5,8,0:0:0:0:
256,192,340070,5,0,0:0:0:0:
256,192,340220,1,0,0:0:0:0:
256,192,340371,1,0,0:0:0:0:
256,192,340446,1,0,0:0:0:0:
256,192,340521,5,8,0:0:0:0:
256,192,340672,5,0,0:0:0:0:
256,192,340823,5,12,0:0:0:0:
256,192,340973,1,8,0:0:0:0:
256,192,341048,1,8,0:0:0:0:
256,192,341124,1,8,0:0:0:0:
256,192,341274,1,8,0:0:0:0:
256,192,341350,1,8,0:0:0:0:
256,192,341425,1,8,0:0:0:0:
256,192,341500,1,8,0:0:0:0:
256,192,341576,5,0,0:0:0:0:
256,192,341726,1,0,0:0:0:0:
256,192,341877,1,0,0:0:0:0:
256,192,342027,1,4,0:0:0:0:
256,192,342329,5,8,0:0:0:0:
256,192,342630,5,0,0:0:0:0:
256,192,342780,1,0,0:0:0:0:
256,192,342931,5,8,0:0:0:0:
256,192,343082,5,0,0:0:0:0:
256,192,343383,1,0,0:0:0:0:
256,192,343533,5,8,0:0:0:0:
256,192,343835,5,0,0:0:0:0:
256,192,343985,1,0,0:0:0:0:
256,192,344136,5,8,0:0:0:0:
256,192,344437,5,0,0:0:0:0:
256,192,344588,1,0,0:0:0:0:
256,192,344738,5,8,0:0:0:0:
256,192,344889,5,0,0:0:0:0:
256,192,345190,1,0,0:0:0:0:
256,192,345341,5,8,0:0:0:0:
256,192,345642,5,0,0:0:0:0:
256,192,345792,1,0,0:0:0:0:
256,192,345943,5,8,0:0:0:0:
256,192,346244,5,0,0:0:0:0:
256,192,346395,1,0,0:0:0:0:
256,192,346545,5,8,0:0:0:0:
256,192,346696,5,4,0:0:0:0:
256,192,346997,1,0,0:0:0:0:
256,192,347148,5,8,0:0:0:0:
256,192,347449,5,0,0:0:0:0:
256,192,347600,1,0,0:0:0:0:
256,192,347750,5,8,0:0:0:0:
256,192,347901,5,0,0:0:0:0:
256,192,348202,1,0,0:0:0:0:
256,192,348353,5,8,0:0:0:0:
256,192,348654,5,0,0:0:0:0:
256,192,348804,1,0,0:0:0:0:
256,192,348955,5,8,0:0:0:0:
256,192,349256,5,0,0:0:0:0:
256,192,349407,1,0,0:0:0:0:
256,192,349557,5,8,0:0:0:0:
256,192,349708,5,0,0:0:0:0:
256,192,350009,1,0,0:0:0:0:
256,192,350160,5,8,0:0:0:0:
256,192,350461,5,0,0:0:0:0:
256,192,350612,1,0,0:0:0:0:
256,192,350762,5,8,0:0:0:0:
256,192,350913,5,0,0:0:0:0:
256,192,351063,5,8,0:0:0:0:
256,192,351214,5,0,0:0:0:0:
256,192,351289,1,0,0:0:0:0:
256,192,351365,1,0,0:0:0:0:
256,192,351666,1,4,0:0:0:0:
256,192,351967,5,8,0:0:0:0:
256,192,352269,5,0,0:0:0:0:
256,192,352420,1,0,0:0:0:0:
256,192,352571,5,8,0:0:0:0:
256,192,352873,5,0,0:0:0:0:
256,192,353024,1,0,0:0:0:0:
256,192,353175,5,8,0:0:0:0:
256,192,353325,1,8,0:0:0:0:
256,192,353476,1,8,0:0:0:0:
256,192,353627,5,0,0:0:0:0:
256,192,353778,5,8,0:0:0:0:
256,192,353929,1,8,0:0:0:0:
256,192,354080,5,0,0:0:0:0:
256,192,354382,5,8,0:0:0:0:
256,192,354533,1,8,0:0:0:0:
256,192,354684,5,0,0:0:0:0:
256,192,354835,5,8,0:0:0:0:
256,192,354985,5,0,0:0:0:0:
256,192,355136,5,8,0:0:0:0:
256,192,355287,1,8,0:0:0:0:
256,192,355438,1,8,0:0:0:0:
256,192,355589,5,0,0:0:0:0:
256,192,355740,5,8,0:0:0:0:
256,192,355891,5,0,0:0:0:0:
256,192,356193,5,8,0:0:0:0:
256,192,356344,1,8,0:0:0:0:
256,192,356494,5,4,0:0:0:0:
256,192,356796,5,8,0:0:0:0:
256,192,357098,5,0,0:0:0:0:
256,192,357249,1,0,0:0:0:0:
256,192,357400,5,8,0:0:0:0:
256,192,357702,5,0,0:0:0:0:
256,192,357853,5,0,0:0:0:0:
256,192,358004,5,8,0:0:0:0:
256,192,358154,5,8,0:0:0:0:
256,192,358305,1,0,0:0:0:0:
256,192,358456,1,8,0:0:0:0:
256,192,358607,5,0,0:0:0:0:
256,192,358758,1,0,0:0:0:0:
256,192,358909,5,12,0:0:0:0:
256,192,359060,5,0,0:0:0:0:
256,192,359211,5,8,0:0:0:0:
256,192,359362,5,0,0:0:0:0:
256,192,359513,5,8,0:0:0:0:
256,192,359663,5,0,0:0:0:0:
256,192,359814,5,8,0:0:0:0:
256,192,359965,5,0,0:0:0:0:
256,192,360116,5,8,0:0:0:0:
256,192,360267,1,8,0:0:0:0:
256,192,360343,1,8,0:0:0:0:
256,192,360418,1,8,0:0:0:0:
256,192,360569,1,8,0:0:0:0:
256,192,360644,1,8,0:0:0:0:
256,192,360720,1,8,0:0:0:0:
256,192,360795,1,8,0:0:0:0:
256,192,360871,5,0,0:0:0:0:
256,192,360946,1,0,0:0:0:0:
256,192,361022,5,8,0:0:0:0:
256,192,361097,5,0,0:0:0:0:
256,192,361173,5,8,0:0:0:0:
256,192,361323,5,4,0:0:0:0:
256,192,361625,1,4,0:0:0:0:
256,192,361927,1,4,0:0:0:0:
256,192,362229,1,8,0:0:0:0:
256,192,362380,1,4,0:0:0:0:
256,192,362833,1,4,0:0:0:0:
256,192,363134,1,4,0:0:0:0:
256,192,363436,1,0,0:0:0:0:
256,192,363587,5,12,0:0:0:0:
256,192,363889,5,0,0:0:0:0:
256,192,364040,5,8,0:0:0:0:
256,192,364191,5,0,0:0:0:0:
256,192,364342,5,8,0:0:0:0:
256,192,364492,1,8,0:0:0:0:
256,192,364643,5,0,0:0:0:0:
256,192,364794,5,8,0:0:0:0:
256,192,364945,1,8,0:0:0:0:
256,192,365021,1,8,0:0:0:0:
256,192,365096,5,0,0:0:0:0:
256,192,365247,5,8,0:0:0:0:
256,192,365322,1,8,0:0:0:0:
256,192,365398,5,0,0:0:0:0:
256,192,365549,5,8,0:0:0:0:
256,192,365624,1,8,0:0:0:0:
256,192,365700,5,0,0:0:0:0:
256,192,365851,5,8,0:0:0:0:
256,192,366002,5,0,0:0:0:0:
256,192,366152,1,4,0:0:0:0:
256,192,366454,1,4,0:0:0:0:
256,192,366756,1,4,0:0:0:0:
256,192,367058,1,8,0:0:0:0:
256,192,367209,1,4,0:0:0:0:
256,192,367661,1,4,0:0:0:0:
256,192,367963,1,4,0:0:0:0:
256,192,368265,1,0,0:0:0:0:
256,192,368416,5,12,0:0:0:0:
256,192,368718,1,8,0:0:0:0:
256,192,368869,1,8,0:0:0:0:
256,192,369020,5,0,0:0:0:0:
256,192,369171,5,8,0:0:0:0:
256,192,369321,5,0,0:0:0:0:
256,192,369472,5,8,0:0:0:0:
256,192,369623,1,8,0:0:0:0:
256,192,369774,5,0,0:0:0:0:
256,192,369925,5,8,0:0:0:0:
256,192,370076,1,8,0:0:0:0:
256,192,370227,1,8,0:0:0:0:
256,192,370378,1,0,0:0:0:0:
256,192,370529,1,8,0:0:0:0:
256,192,370680,1,8,0:0:0:0:
256,192,370755,1,8,0:0:0:0:
256,192,370830,1,8,0:0:0:0:
256,192,370981,5,4,0:0:0:0:
256,192,371283,1,4,0:0:0:0:
256,192,371585,1,4,0:0:0:0:
256,192,371887,1,8,0:0:0:0:
256,192,372038,1,4,0:0:0:0:
256,192,372490,1,4,0:0:0:0:
256,192,372792,1,4,0:0:0:0:
256,192,373094,1,0,0:0:0:0:
256,192,373245,5,12,0:0:0:0:
256,192,373547,5,0,0:0:0:0:
256,192,373698,5,8,0:0:0:0:
256,192,373773,1,8,0:0:0:0:
256,192,373849,5,0,0:0:0:0:
256,192,374000,5,8,0:0:0:0:
256,192,374075,1,8,0:0:0:0:
256,192,374150,5,0,0:0:0:0:
256,192,374301,5,8,0:0:0:0:
256,192,374377,1,8,0:0:0:0:
256,192,374452,5,0,0:0:0:0:
256,192,374603,1,0,0:0:0:0:
256,192,374754,1,0,0:0:0:0:
256,192,374905,5,8,0:0:0:0:
256,192,374980,1,8,0:0:0:0:
256,192,375056,5,0,0:0:0:0:
256,192,375207,5,8,0:0:0:0:
256,192,375282,1,8,0:0:0:0:
256,192,375358,5,0,0:0:0:0:
256,192,375509,5,8,0:0:0:0:
256,192,375659,5,0,0:0:0:0:
256,192,375810,1,4,0:0:0:0:
256,192,376112,1,4,0:0:0:0:
256,192,376414,1,4,0:0:0:0:
256,192,376716,1,8,0:0:0:0:
256,192,376867,1,4,0:0:0:0:
256,192,377319,1,4,0:0:0:0:
256,192,377621,1,4,0:0:0:0:
256,192,377772,1,0,0:0:0:0:
256,192,377923,1,0,0:0:0:0:
256,192,378074,5,12,0:0:0:0:
256,192,378376,5,0,0:0:0:0:
256,192,378527,5,8,0:0:0:0:
256,192,378678,5,0,0:0:0:0:
256,192,378828,1,0,0:0:0:0:
256,192,378979,5,8,0:0:0:0:
256,192,379130,1,8,0:0:0:0:
256,192,379281,1,8,0:0:0:0:
256,192,379436,5,4,0:0:0:0:
256,192,402473,5,8,0:0:0:0:
256,192,402555,1,8,0:0:0:0:
256,192,402638,1,8,0:0:0:0:
256,192,402804,1,8,0:0:0:0:
256,192,402970,5,0,0:0:0:0:
256,192,403135,1,0,0:0:0:0:
256,192,403288,1,4,0:0:0:0:
256,192,403785,1,0,0:0:0:0:
256,192,403950,5,8,0:0:0:0:
256,192,404282,1,0,0:0:0:0:
256,192,404448,1,0,0:0:0:0:
256,192,404531,1,0,0:0:0:0:
256,192,404613,1,0,0:0:0:0:
256,192,404779,1,8,0:0:0:0:
256,192,404945,5,0,0:0:0:0:
256,192,405276,5,8,0:0:0:0:
256,192,405608,5,0,0:0:0:0:
256,192,405939,1,0,0:0:0:0:
256,192,406437,1,0,0:0:0:0:
256,192,406602,5,8,0:0:0:0:
256,192,406934,1,0,0:0:0:0:
256,192,407100,1,0,0:0:0:0:
256,192,407183,1,0,0:0:0:0:
256,192,407265,1,0,0:0:0:0:
256,192,407431,1,8,0:0:0:0:
256,192,407597,5,0,0:0:0:0:
256,192,407928,5,8,0:0:0:0:
256,192,408260,5,0,0:0:0:0:
256,192,408591,1,0,0:0:0:0:
256,192,409089,1,0,0:0:0:0:
256,192,409254,5,8,0:0:0:0:
256,192,409586,1,0,0:0:0:0:
256,192,409752,1,0,0:0:0:0:
256,192,409834,1,0,0:0:0:0:
256,192,409917,1,0,0:0:0:0:
256,192,410083,1,8,0:0:0:0:
256,192,410249,5,0,0:0:0:0:
256,192,410580,5,8,0:0:0:0:
256,192,410912,5,0,0:0:0:0:
256,192,411243,1,0,0:0:0:0:
256,192,411575,1,0,0:0:0:0:
256,192,411741,1,0,0:0:0:0:
256,192,411906,5,8,0:0:0:0:
256,192,412238,5,0,0:0:0:0:
256,192,412404,5,8,0:0:0:0:
256,192,412569,5,0,0:0:0:0:
256,192,412901,5,8,0:0:0:0:
256,192,413232,5,0,0:0:0:0:
256,192,413564,1,0,0:0:0:0:
256,192,413729,1,0,0:0:0:0:
256,192,413895,1,4,0:0:0:0:
256,192,414392,1,0,0:0:0:0:
256,192,414558,5,8,0:0:0:0:
256,192,414890,1,0,0:0:0:0:
256,192,415055,1,0,0:0:0:0:
256,192,415138,1,0,0:0:0:0:
256,192,415221,1,0,0:0:0:0:
256,192,415387,1,8,0:0:0:0:
256,192,415553,5,0,0:0:0:0:
256,192,415884,5,8,0:0:0:0:
256,192,416216,1,0,0:0:0:0:
256,192,416547,5,0,0:0:0:0:
256,192,417044,1,0,0:0:0:0:
256,192,417210,5,8,0:0:0:0:
256,192,417542,1,0,0:0:0:0:
256,192,417625,1,0,0:0:0:0:
256,192,417707,1,0,0:0:0:0:
256,192,417873,1,0,0:0:0:0:
256,192,418039,1,8,0:0:0:0:
256,192,418205,5,0,0:0:0:0:
256,192,418536,5,8,0:0:0:0:
256,192,418702,1,0,0:0:0:0:
256,192,418868,5,0,0:0:0:0:
256,192,419033,1,0,0:0:0:0:
256,192,419199,1,0,0:0:0:0:
256,192,419696,1,0,0:0:0:0:
256,192,419862,5,8,0:0:0:0:
256,192,420194,1,0,0:0:0:0:
256,192,420359,1,0,0:0:0:0:
256,192,420442,1,0,0:0:0:0:
256,192,420525,1,0,0:0:0:0:
256,192,420691,1,8,0:0:0:0:
256,192,420857,5,0,0:0:0:0:
256,192,421188,5,8,0:0:0:0:
256,192,421520,5,0,0:0:0:0:
256,192,421851,1,0,0:0:0:0:
256,192,422183,1,0,0:0:0:0:
256,192,422348,1,0,0:0:0:0:
256,192,422514,5,8,0:0:0:0:
256,192,422846,5,0,0:0:0:0:
256,192,423011,5,8,0:0:0:0:
256,192,423177,5,0,0:0:0:0:
256,192,423508,5,8,0:0:0:0:
256,192,423674,1,0,0:0:0:0:
256,192,423757,1,0,0:0:0:0:
256,192,423840,1,8,0:0:0:0:
256,192,424006,1,8,0:0:0:0:
256,192,424171,1,8,0:0:0:0:
256,192,424337,1,8,0:0:0:0:
256,192,424503,5,4,0:0:0:0:
256,192,425000,1,0,0:0:0:0:
256,192,425166,5,8,0:0:0:0:
256,192,425497,1,0,0:0:0:0:
256,192,425663,1,0,0:0:0:0:
256,192,425746,1,0,0:0:0:0:
256,192,425829,1,0,0:0:0:0:
256,192,425995,1,8,0:0:0:0:
256,192,426160,5,0,0:0:0:0:
256,192,426492,5,8,0:0:0:0:
256,192,426823,5,0,0:0:0:0:
256,192,427155,1,0,0:0:0:0:
256,192,427486,1,0,0:0:0:0:
256,192,427652,1,0,0:0:0:0:
256,192,427818,5,8,0:0:0:0:
256,192,428149,1,0,0:0:0:0:
256,192,428232,1,0,0:0:0:0:
256,192,428315,1,0,0:0:0:0:
256,192,428481,1,0,0:0:0:0:
256,192,428647,1,8,0:0:0:0:
256,192,428812,5,0,0:0:0:0:
256,192,429144,5,8,0:0:0:0:
256,192,429310,1,0,0:0:0:0:
256,192,429475,5,0,0:0:0:0:
256,192,429641,1,0,0:0:0:0:
256,192,429807,1,0,0:0:0:0:
256,192,430304,1,0,0:0:0:0:
256,192,430470,5,8,0:0:0:0:
256,192,430801,1,0,0:0:0:0:
256,192,430967,1,0,0:0:0:0:
256,192,431050,1,0,0:0:0:0:
256,192,431133,1,0,0:0:0:0:
256,192,431299,1,8,0:0:0:0:
256,192,431464,5,0,0:0:0:0:
256,192,431796,5,8,0:0:0:0:
256,192,432127,5,0,0:0:0:0:
256,192,432459,1,0,0:0:0:0:
256,192,432956,1,0,0:0:0:0:
256,192,433122,5,8,0:0:0:0:
256,192,433453,5,0,0:0:0:0:
256,192,433619,5,8,0:0:0:0:
256,192,433785,5,0,0:0:0:0:
256,192,434116,5,8,0:0:0:0:
256,192,434448,5,0,0:0:0:0:
256,192,434779,1,8,0:0:0:0:
256,192,434945,1,8,0:0:0:0:
256,192,435111,1,4,0:0:0:0:
256,192,435608,1,0,0:0:0:0:
256,192,435774,5,8,0:0:0:0:
256,192,436105,1,0,0:0:0:0:
256,192,436271,1,0,0:0:0:0:
256,192,436354,1,0,0:0:0:0:
256,192,436437,1,0,0:0:0:0:
256,192,436602,1,8,0:0:0:0:
256,192,436768,5,0,0:0:0:0:
256,192,437100,5,8,0:0:0:0:
256,192,437431,5,0,0:0:0:0:
256,192,437763,1,0,0:0:0:0:
256,192,438094,1,0,0:0:0:0:
256,192,438260,1,0,0:0:0:0:
256,192,438426,5,8,0:0:0:0:
256,192,438757,1,0,0:0:0:0:
256,192,438840,1,0,0:0:0:0:
256,192,438923,1,0,0:0:0:0:
256,192,439089,1,0,0:0:0:0:
256,192,439254,1,8,0:0:0:0:
256,192,439420,5,0,0:0:0:0:
256,192,439752,5,8,0:0:0:0:
256,192,440083,5,0,0:0:0:0:
256,192,440249,1,0,0:0:0:0:
256,192,440415,1,0,0:0:0:0:
256,192,440912,1,0,0:0:0:0:
256,192,441078,5,8,0:0:0:0:
256,192,441409,1,0,0:0:0:0:
256,192,441575,1,0,0:0:0:0:
256,192,441658,1,0,0:0:0:0:
256,192,441741,1,0,0:0:0:0:
256,192,441906,1,8,0:0:0:0:
256,192,442072,5,0,0:0:0:0:
256,192,442404,5,8,0:0:0:0:
256,192,442735,5,0,0:0:0:0:
256,192,443067,1,4,0:0:0:0:
256,192,445718,1,4,0:0:0:0:
256,192,452348,21,0,0:0:0:0:
256,192,452568,1,0,0:0:0:0:
256,192,452789,5,8,0:0:0:0:
256,192,453010,5,0,0:0:0:0:
256,192,453231,5,8,0:0:0:0:
256,192,453452,1,8,0:0:0:0:
256,192,453995,5,4,0:0:0:0:
256,192,454296,5,8,0:0:0:0:
256,192,454447,1,8,0:0:0:0:
256,192,454598,5,0,0:0:0:0:
256,192,454673,1,0,0:0:0:0:
256,192,454748,1,0,0:0:0:0:
256,192,454899,5,8,0:0:0:0:
256,192,455050,1,8,0:0:0:0:
256,192,455201,1,8,0:0:0:0:
256,192,455276,1,8,0:0:0:0:
256,192,455351,5,0,0:0:0:0:
256,192,455502,5,8,0:0:0:0:
256,192,455577,1,8,0:0:0:0:
256,192,455653,5,0,0:0:0:0:
256,192,455804,5,8,0:0:0:0:
256,192,455879,1,8,0:0:0:0:
256,192,455954,5,0,0:0:0:0:
256,192,456030,1,0,0:0:0:0:
256,192,456105,5,8,0:0:0:0:
256,192,456256,1,8,0:0:0:0:
256,192,456407,5,0,0:0:0:0:
256,192,456708,5,8,0:0:0:0:
256,192,456859,1,8,0:0:0:0:
256,192,457010,5,0,0:0:0:0:
256,192,457160,5,8,0:0:0:0:
256,192,457311,5,0,0:0:0:0:
256,192,457462,5,8,0:0:0:0:
256,192,457613,5,0,0:0:0:0:
256,192,457688,1,0,0:0:0:0:
256,192,457763,1,0,0:0:0:0:
256,192,457839,1,0,0:0:0:0:
256,192,457914,5,8,0:0:0:0:
256,192,458065,1,8,0:0:0:0:
256,192,458216,5,0,0:0:0:0:
256,192,458291,1,0,0:0:0:0:
256,192,458366,5,8,0:0:0:0:
256,192,458517,1,8,0:0:0:0:
256,192,458668,5,0,0:0:0:0:
256,192,458819,5,12,0:0:0:0:
256,192,459120,1,8,0:0:0:0:
256,192,459271,1,8,0:0:0:0:
256,192,459422,5,0,0:0:0:0:
256,192,459572,1,0,0:0:0:0:
256,192,459648,1,0,0:0:0:0:
256,192,459723,5,8,0:0:0:0:
256,192,459874,1,8,0:0:0:0:
256,192,460025,1,8,0:0:0:0:
256,192,460100,5,0,0:0:0:0:
256,192,460175,1,0,0:0:0:0:
256,192,460251,1,0,0:0:0:0:
256,192,460326,5,8,0:0:0:0:
256,192,460477,1,8,0:0:0:0:
256,192,460552,1,8,0:0:0:0:
256,192,460628,5,0,0:0:0:0:
256,192,460778,5,8,0:0:0:0:
256,192,460929,1,8,0:0:0:0:
256,192,461005,5,0,0:0:0:0:
256,192,461080,5,8,0:0:0:0:
256,192,461231,5,0,0:0:0:0:
256,192,461532,5,8,0:0:0:0:
256,192,461683,5,0,0:0:0:0:
256,192,461758,1,0,0:0:0:0:
256,192,461834,1,0,0:0:0:0:
256,192,461984,1,0,0:0:0:0:
256,192,462060,1,0,0:0:0:0:
256,192,462135,5,8,0:0:0:0:
256,192,462437,5,0,0:0:0:0:
256,192,462587,1,0,0:0:0:0:
256,192,462738,5,8,0:0:0:0:
256,192,462889,1,8,0:0:0:0:
256,192,463040,1,12,0:0:0:0:
256,192,463190,5,0,0:0:0:0:
256,192,463266,1,0,0:0:0:0:
256,192,463341,5,8,0:0:0:0:
256,192,463492,1,8,0:0:0:0:
256,192,463643,5,4,0:0:0:0:
256,192,463944,5,8,0:0:0:0:
256,192,464095,5,0,0:0:0:0:
256,192,464170,1,0,0:0:0:0:
256,192,464246,5,8,0:0:0:0:
256,192,464397,5,0,0:0:0:0:
256,192,464547,5,8,0:0:0:0:
256,192,464623,5,0,0:0:0:0:
256,192,464698,1,0,0:0:0:0:
256,192,464773,1,0,0:0:0:0:
256,192,464849,5,8,0:0:0:0:
256,192,465000,5,0,0:0:0:0:
256,192,465075,1,0,0:0:0:0:
256,192,465150,5,8,0:0:0:0:
256,192,465301,5,0,0:0:0:0:
256,192,465376,1,0,0:0:0:0:
256,192,465452,5,8,0:0:0:0:
256,192,465603,5,0,0:0:0:0:
256,192,465678,1,0,0:0:0:0:
256,192,465753,5,8,0:0:0:0:
256,192,465904,5,0,0:0:0:0:
256,192,466055,5,12,0:0:0:0:
256,192,466356,1,8,0:0:0:0:
256,192,466507,5,0,0:0:0:0:
256,192,466582,1,0,0:0:0:0:
256,192,466658,5,8,0:0:0:0:
256,192,466809,5,0,0:0:0:0:
256,192,466959,5,8,0:0:0:0:
256,192,467035,1,8,0:0:0:0:
256,192,467110,5,0,0:0:0:0:
256,192,467261,1,0,0:0:0:0:
256,192,467412,5,8,0:0:0:0:
256,192,467487,5,0,0:0:0:0:
256,192,467562,5,8,0:0:0:0:
256,192,467713,5,0,0:0:0:0:
256,192,467864,5,8,0:0:0:0:
256,192,467939,5,0,0:0:0:0:
256,192,468015,1,0,0:0:0:0:
256,192,468090,5,8,0:0:0:0:
256,192,468165,5,0,0:0:0:0:
256,192,468241,1,0,0:0:0:0:
256,192,468316,5,8,0:0:0:0:
256,192,468467,1,12,0:0:0:0:
256,192,468768,5,0,0:0:0:0:
256,192,468919,5,12,0:0:0:0:
256,192,469221,5,0,0:0:0:0:
256,192,469371,5,12,0:0:0:0:
256,192,469673,5,4,0:0:0:0:
256,192,469974,1,0,0:0:0:0:
256,192,470125,5,8,0:0:0:0:
256,192,470276,5,4,0:0:0:0:
256,192,470427,5,8,0:0:0:0:
256,192,470577,1,8,0:0:0:0:
256,192,470728,1,8,0:0:0:0:
256,192,470879,5,4,0:0:0:0:
256,192,471180,5,8,0:0:0:0:
256,192,471331,5,0,0:0:0:0:
256,192,471482,1,0,0:0:0:0:
256,192,471633,1,0,0:0:0:0:
256,192,471783,5,8,0:0:0:0:
256,192,471934,1,8,0:0:0:0:
256,192,472085,5,0,0:0:0:0:
256,192,472386,1,0,0:0:0:0:
256,192,472537,5,8,0:0:0:0:
256,192,472688,1,8,0:0:0:0:
256,192,472839,5,0,0:0:0:0:
256,192,472989,5,8,0:0:0:0:
256,192,473291,5,0,0:0:0:0:
256,192,473592,1,0,0:0:0:0:
256,192,473743,5,8,0:0:0:0:
256,192,473894,1,8,0:0:0:0:
256,192,474045,5,0,0:0:0:0:
256,192,474196,5,8,0:0:0:0:
256,192,474346,1,8,0:0:0:0:
256,192,474497,5,0,0:0:0:0:
256,192,474799,5,8,0:0:0:0:
256,192,474949,1,8,0:0:0:0:
256,192,475100,5,0,0:0:0:0:
256,192,475251,1,0,0:0:0:0:
256,192,475402,5,12,0:0:0:0:
256,192,475703,5,4,0:0:0:0:
256,192,476005,5,8,0:0:0:0:
256,192,476155,1,8,0:0:0:0:
256,192,476306,5,0,0:0:0:0:
256,192,476457,1,0,0:0:0:0:
256,192,476608,5,8,0:0:0:0:
256,192,476909,5,0,0:0:0:0:
256,192,477211,5,8,0:0:0:0:
256,192,477361,5,0,0:0:0:0:
256,192,477512,5,8,0:0:0:0:
256,192,477663,5,0,0:0:0:0:
256,192,477814,5,8,0:0:0:0:
256,192,478115,5,0,0:0:0:0:
256,192,478417,5,8,0:0:0:0:
256,192,478567,5,0,0:0:0:0:
256,192,478718,1,0,0:0:0:0:
256,192,478869,1,0,0:0:0:0:
256,192,479020,5,8,0:0:0:0:
256,192,479321,5,4,0:0:0:0:
256,192,479472,1,0,0:0:0:0:
256,192,479623,5,8,0:0:0:0:
256,192,479773,1,8,0:0:0:0:
256,192,479849,1,8,0:0:0:0:
256,192,479924,1,8,0:0:0:0:
256,192,480075,1,8,0:0:0:0:
256,192,480226,5,0,0:0:0:0:
256,192,480376,1,0,0:0:0:0:
256,192,480527,1,4,0:0:0:0:
256,192,480829,5,8,0:0:0:0:
256,192,481130,5,0,0:0:0:0:
256,192,481281,1,0,0:0:0:0:
256,192,481432,5,8,0:0:0:0:
256,192,481733,5,0,0:0:0:0:
256,192,482035,5,8,0:0:0:0:
256,192,482185,5,0,0:0:0:0:
256,192,482336,1,0,0:0:0:0:
256,192,482487,5,8,0:0:0:0:
256,192,482638,1,8,0:0:0:0:
256,192,482788,5,0,0:0:0:0:
256,192,482939,5,8,0:0:0:0:
256,192,483241,5,0,0:0:0:0:
256,192,483391,5,8,0:0:0:0:
256,192,483542,1,8,0:0:0:0:
256,192,483693,5,0,0:0:0:0:
256,192,483844,5,8,0:0:0:0:
256,192,483994,5,0,0:0:0:0:
256,192,484296,5,8,0:0:0:0:
256,192,484371,1,0,0:0:0:0:
256,192,484447,1,8,0:0:0:0:
256,192,484598,5,0,0:0:0:0:
256,192,484748,5,8,0:0:0:0:
256,192,484899,1,8,0:0:0:0:
256,192,484974,1,8,0:0:0:0:
256,192,485050,1,0,0:0:0:0:
256,192,485201,5,0,0:0:0:0:
256,192,485351,5,12,0:0:0:0:
256,192,485502,5,0,0:0:0:0:
256,192,485653,5,8,0:0:0:0:
256,192,485804,5,0,0:0:0:0:
256,192,485954,5,8,0:0:0:0:
256,192,486105,5,0,0:0:0:0:
256,192,486256,5,8,0:0:0:0:
256,192,486407,5,0,0:0:0:0:
256,192,486557,5,12,0:0:0:0:
256,192,486708,5,0,0:0:0:0:
256,192,486859,5,8,0:0:0:0:
256,192,487010,5,0,0:0:0:0:
256,192,487160,5,8,0:0:0:0:
256,192,487311,5,0,0:0:0:0:
256,192,487462,1,0,0:0:0:0:
256,192,487537,1,0,0:0:0:0:
256,192,487613,1,0,0:0:0:0:
256,192,487763,1,4,0:0:0:0:
256,192,488065,5,8,0:0:0:0:
256,192,488216,5,0,0:0:0:0:
256,192,488366,5,8,0:0:0:0:
256,192,488517,5,0,0:0:0:0:
256,192,488592,1,0,0:0:0:0:
256,192,488668,5,8,0:0:0:0:
256,192,488819,5,0,0:0:0:0:
256,192,489120,5,8,0:0:0:0:
256,192,489196,1,8,0:0:0:0:
256,192,489271,5,0,0:0:0:0:
256,192,489422,1,0,0:0:0:0:
256,192,489572,5,8,0:0:0:0:
256,192,489648,1,8,0:0:0:0:
256,192,489723,5,0,0:0:0:0:
256,192,489874,5,8,0:0:0:0:
256,192,490025,5,0,0:0:0:0:
256,192,490326,1,0,0:0:0:0:
256,192,490477,5,8,0:0:0:0:
256,192,490628,1,8,0:0:0:0:
256,192,490778,5,0,0:0:0:0:
256,192,490929,1,0,0:0:0:0:
256,192,491005,1,0,0:0:0:0:
256,192,491080,5,8,0:0:0:0:
256,192,491231,5,0,0:0:0:0:
256,192,491532,1,0,0:0:0:0:
256,192,491683,5,8,0:0:0:0:
256,192,491834,5,8,0:0:0:0:
256,192,491984,1,4,0:0:0:0:
256,192,492135,5,8,0:0:0:0:
256,192,492211,1,8,0:0:0:0:
256,192,492286,5,0,0:0:0:0:
256,192,492437,1,4,0:0:0:0:
256,192,492738,1,0,0:0:0:0:
256,192,492889,5,8,0:0:0:0:
256,192,493040,5,0,0:0:0:0:
256,192,493190,1,0,0:0:0:0:
256,192,493266,1,0,0:0:0:0:
256,192,493341,1,0,0:0:0:0:
256,192,493492,5,8,0:0:0:0:
256,192,493643,5,0,0:0:0:0:
256,192,493944,1,0,0:0:0:0:
256,192,494095,5,8,0:0:0:0:
256,192,494246,5,0,0:0:0:0:
256,192,494397,5,8,0:0:0:0:
256,192,494472,1,8,0:0:0:0:
256,192,494547,5,0,0:0:0:0:
256,192,494698,5,8,0:0:0:0:
256,192,494849,5,4,0:0:0:0:
256,192,495150,1,0,0:0:0:0:
256,192,495301,5,8,0:0:0:0:
256,192,495452,5,0,0:0:0:0:
256,192,495527,1,0,0:0:0:0:
256,192,495603,5,8,0:0:0:0:
256,192,495753,1,8,0:0:0:0:
256,192,495904,1,8,0:0:0:0:
256,192,496055,5,4,0:0:0:0:
256,192,496356,1,0,0:0:0:0:
256,192,496507,5,12,0:0:0:0:
256,192,496809,5,4,0:0:0:0:
256,192,496959,1,0,0:0:0:0:
256,192,497110,5,8,0:0:0:0:
256,192,497261,5,4,0:0:0:0:
256,192,497562,1,0,0:0:0:0:
256,192,497638,1,0,0:0:0:0:
256,192,497713,5,8,0:0:0:0:
256,192,497864,5,0,0:0:0:0:
256,192,498015,1,0,0:0:0:0:
256,192,498090,1,0,0:0:0:0:
256,192,498165,5,8,0:0:0:0:
256,192,498316,1,8,0:0:0:0:
256,192,498467,5,0,0:0:0:0:
256,192,498768,5,8,0:0:0:0:
256,192,498919,1,8,0:0:0:0:
256,192,499070,1,8,0:0:0:0:
256,192,499145,5,0,0:0:0:0:
256,192,499221,5,8,0:0:0:0:
256,192,499371,5,0,0:0:0:0:
256,192,499447,1,0,0:0:0:0:
256,192,499522,5,8,0:0:0:0:
256,192,499673,5,0,0:0:0:0:
256,192,499974,1,0,0:0:0:0:
256,192,500050,1,0,0:0:0:0:
256,192,500125,5,8,0:0:0:0:
256,192,500276,5,0,0:0:0:0:
256,192,500427,5,8,0:0:0:0:
256,192,500502,5,0,0:0:0:0:
256,192,500577,1,0,0:0:0:0:
256,192,500653,1,0,0:0:0:0:
256,192,500728,5,8,0:0:0:0:
256,192,500879,5,0,0:0:0:0:
256,192,501180,1,0,0:0:0:0:
256,192,501331,5,8,0:0:0:0:
256,192,501482,1,0,0:0:0:0:
256,192,501633,1,8,0:0:0:0:
256,192,501783,1,8,0:0:0:0:
256,192,501859,1,8,0:0:0:0:
256,192,501934,5,0,0:0:0:0:
256,192,502085,1,4,0:0:0:0:
256,192,502386,1,0,0:0:0:0:
256,192,502537,5,8,0:0:0:0:
256,192,502688,5,0,0:0:0:0:
256,192,502839,5,8,0:0:0:0:
256,192,502989,5,0,0:0:0:0:
256,192,503140,5,8,0:0:0:0:
256,192,503291,5,4,0:0:0:0:
256,192,503592,1,0,0:0:0:0:
256,192,503743,5,8,0:0:0:0:
256,192,503894,5,0,0:0:0:0:
256,192,504045,1,0,0:0:0:0:
256,192,504196,5,8,0:0:0:0:
256,192,504346,5,0,0:0:0:0:
256,192,504497,1,4,0:0:0:0:
256,192,504799,1,0,0:0:0:0:
256,192,504949,5,8,0:0:0:0:
256,192,505100,1,8,0:0:0:0:
256,192,505251,5,0,0:0:0:0:
256,192,505402,5,8,0:0:0:0:
256,192,505552,5,0,0:0:0:0:
256,192,505703,1,4,0:0:0:0:
256,192,506005,1,0,0:0:0:0:
256,192,506155,5,8,0:0:0:0:
256,192,506306,5,0,0:0:0:0:
256,192,506381,1,0,0:0:0:0:
256,192,506457,5,8,0:0:0:0:
256,192,506608,1,8,0:0:0:0:
256,192,506758,1,8,0:0:0:0:
256,192,506909,5,4,0:0:0:0:
256,192,507211,1,0,0:0:0:0:
256,192,507286,1,0,0:0:0:0:
256,192,507361,5,8,0:0:0:0:
256,192,507512,5,0,0:0:0:0:
256,192,507663,5,8,0:0:0:0:
256,192,507814,5,0,0:0:0:0:
256,192,507889,1,0,0:0:0:0:
256,192,507964,5,8,0:0:0:0:
256,192,508115,5,0,0:0:0:0:
256,192,508266,5,8,0:0:0:0:
256,192,508417,5,0,0:0:0:0:
256,192,508492,1,0,0:0:0:0:
256,192,508567,5,8,0:0:0:0:
256,192,508718,1,8,0:0:0:0:
256,192,508869,5,0,0:0:0:0:
256,192,509020,5,8,0:0:0:0:
256,192,509170,1,8,0:0:0:0:
256,192,509321,5,4,0:0:0:0:
256,192,509623,1,0,0:0:0:0:
256,192,509698,1,0,0:0:0:0:
256,192,509774,5,8,0:0:0:0:
256,192,509924,5,0,0:0:0:0:
256,192,510075,5,8,0:0:0:0:
256,192,510150,1,8,0:0:0:0:
256,192,510226,5,0,0:0:0:0:
256,192,510376,5,8,0:0:0:0:
256,192,510527,5,0,0:0:0:0:
256,192,510603,1,0,0:0:0:0:
256,192,510677,5,8,0:0:0:0:
256,192,510828,5,0,0:0:0:0:
256,192,510904,1,0,0:0:0:0:
256,192,510979,5,8,0:0:0:0:
256,192,511130,5,0,0:0:0:0:
256,192,511281,5,8,0:0:0:0:
256,192,511432,5,0,0:0:0:0:
256,192,511507,1,0,0:0:0:0:
256,192,511582,1,0,0:0:0:0:
256,192,511733,1,4,0:0:0:0:
256,192,512035,1,0,0:0:0:0:
256,192,512185,5,8,0:0:0:0:
256,192,512336,5,0,0:0:0:0:
256,192,512487,1,0,0:0:0:0:
256,192,512638,5,8,0:0:0:0:
256,192,512788,1,8,0:0:0:0:
256,192,512939,5,4,0:0:0:0:
256,192,513241,1,0,0:0:0:0:
256,192,513391,5,8,0:0:0:0:
256,192,513542,5,0,0:0:0:0:
256,192,513693,1,0,0:0:0:0:
256,192,513844,5,8,0:0:0:0:
256,192,513994,1,8,0:0:0:0:
256,192,514145,5,4,0:0:0:0:
256,192,514447,1,0,0:0:0:0:
256,192,514598,5,8,0:0:0:0:
256,192,514748,5,0,0:0:0:0:
256,192,514899,5,8,0:0:0:0:
256,192,515050,1,8,0:0:0:0:
256,192,515201,5,0,0:0:0:0:
256,192,515351,5,12,0:0:0:0:
256,192,515653,5,0,0:0:0:0:
256,192,515804,5,8,0:0:0:0:
256,192,515954,1,8,0:0:0:0:
256,192,516030,1,8,0:0:0:0:
256,192,516105,1,8,0:0:0:0:
256,192,516256,1,8,0:0:0:0:
256,192,516407,1,8,0:0:0:0:
256,192,516557,5,4,0:0:0:0:
256,192,516859,1,0,0:0:0:0:
256,192,516934,1,0,0:0:0:0:
256,192,517010,5,8,0:0:0:0:
256,192,517160,5,0,0:0:0:0:
256,192,517236,1,0,0:0:0:0:
256,192,517311,5,8,0:0:0:0:
256,192,517462,1,8,0:0:0:0:
256,192,517613,1,8,0:0:0:0:
256,192,517763,5,4,0:0:0:0:
256,192,518216,5,12,0:0:0:0:
256,192,518517,1,8,0:0:0:0:
256,192,518668,1,8,0:0:0:0:
256,192,518743,1,8,0:0:0:0:
256,192,518819,5,0,0:0:0:0:
256,192,518969,1,4,0:0:0:0:
256,192,519271,1,0,0:0:0:0:
256,192,519346,1,0,0:0:0:0:
256,192,519422,5,8,0:0:0:0:
256,192,519572,5,0,0:0:0:0:
256,192,519648,1,0,0:0:0:0:
256,192,519723,5,8,0:0:0:0:
256,192,519874,5,0,0:0:0:0:
256,192,520025,5,8,0:0:0:0:
256,192,520175,5,4,0:0:0:0:
256,192,520628,5,12,0:0:0:0:
256,192,520929,5,0,0:0:0:0:
256,192,521080,1,0,0:0:0:0:
256,192,521155,1,0,0:0:0:0:
256,192,521231,5,8,0:0:0:0:
256,192,521381,5,4,0:0:0:0:
256,192,521683,1,0,0:0:0:0:
256,192,521834,5,8,0:0:0:0:
256,192,521984,5,0,0:0:0:0:
256,192,522135,5,8,0:0:0:0:
256,192,522285,1,8,0:0:0:0:
256,192,522437,5,0,0:0:0:0:
256,192,522587,1,4,0:0:0:0:
256,192,522889,1,0,0:0:0:0:
256,192,523040,5,8,0:0:0:0:
256,192,523190,1,8,0:0:0:0:
256,192,523341,1,8,0:0:0:0:
256,192,523492,5,0,0:0:0:0:
256,192,523643,5,8,0:0:0:0:
256,192,523793,5,4,0:0:0:0:
256,192,524095,1,0,0:0:0:0:
256,192,524246,5,8,0:0:0:0:
256,192,524397,5,0,0:0:0:0:
256,192,524698,1,0,0:0:0:0:
256,192,524849,5,8,0:0:0:0:
256,192,525000,1,8,0:0:0:0:
256,192,525301,5,0,0:0:0:0:
256,192,525452,5,8,0:0:0:0:
256,192,525603,1,8,0:0:0:0:
256,192,525904,5,0,0:0:0:0:
256,192,526055,5,8,0:0:0:0:
256,192,526206,1,8,0:0:0:0:
256,192,526356,5,0,0:0:0:0:
256,192,526507,1,0,0:0:0:0:
256,192,526658,5,8,0:0:0:0:
256,192,526809,5,0,0:0:0:0:
256,192,527110,1,0,0:0:0:0:
256,192,527261,5,8,0:0:0:0:
256,192,527412,1,8,0:0:0:0:
256,192,527713,1,8,0:0:0:0:
256,192,527864,1,8,0:0:0:0:
256,192,528015,5,0,0:0:0:0:
256,192,528165,5,8,0:0:0:0:
256,192,528316,5,0,0:0:0:0:
256,192,528467,5,12,0:0:0:0:
256,192,528768,5,4,0:0:0:0:
256,192,528919,1,0,0:0:0:0:
256,192,529070,5,8,0:0:0:0:
256,192,529221,5,0,0:0:0:0:
256,192,529523,1,0,0:0:0:0:
256,192,529673,5,8,0:0:0:0:
256,192,529824,1,8,0:0:0:0:
256,192,530126,5,0,0:0:0:0:
256,192,530276,5,8,0:0:0:0:
256,192,530427,5,0,0:0:0:0:
256,192,530729,1,0,0:0:0:0:
256,192,530879,5,8,0:0:0:0:
256,192,531030,1,8,0:0:0:0:
256,192,531180,5,0,0:0:0:0:
256,192,531331,1,0,0:0:0:0:
256,192,531482,5,8,0:0:0:0:
256,192,531633,5,0,0:0:0:0:
256,192,531934,1,0,0:0:0:0:
256,192,532085,5,8,0:0:0:0:
256,192,532236,1,8,0:0:0:0:
256,192,532537,5,0,0:0:0:0:
256,192,532688,5,12,0:0:0:0:
256,192,532989,1,8,0:0:0:0:
256,192,533140,1,8,0:0:0:0:
256,192,533216,1,8,0:0:0:0:
256,192,533291,1,8,0:0:0:0:
256,192,533442,1,8,0:0:0:0:
256,192,533592,5,4,0:0:0:0:
256,192,533743,5,8,0:0:0:0:
256,192,533894,5,0,0:0:0:0:
256,192,534045,5,8,0:0:0:0:
256,192,534196,5,0,0:0:0:0:
256,192,534346,5,8,0:0:0:0:
256,192,534497,5,0,0:0:0:0:
256,192,534648,5,8,0:0:0:0:
256,192,534799,5,0,0:0:0:0:
256,192,534949,5,8,0:0:0:0:
256,192,535100,5,0,0:0:0:0:
256,192,535251,5,8,0:0:0:0:
256,192,535402,5,0,0:0:0:0:
256,192,535552,5,8,0:0:0:0:
256,192,535628,1,8,0:0:0:0:
256,192,535703,1,8,0:0:0:0:
256,192,535854,1,8,0:0:0:0:
256,192,536005,5,0,0:0:0:0:
256,192,536155,5,8,0:0:0:0:
256,192,536306,5,0,0:0:0:0:
256,192,536457,5,8,0:0:0:0:
256,192,536608,5,0,0:0:0:0:
256,192,536758,5,8,0:0:0:0:
256,192,536909,5,0,0:0:0:0:
256,192,537060,5,8,0:0:0:0:
256,192,537211,5,0,0:0:0:0:
256,192,537361,5,8,0:0:0:0:
256,192,537512,5,0,0:0:0:0:
256,192,537663,5,8,0:0:0:0:
256,192,537814,5,0,0:0:0:0:
256,192,537964,5,8,0:0:0:0:
256,192,538040,1,8,0:0:0:0:
256,192,538115,1,8,0:0:0:0:
256,192,538266,1,8,0:0:0:0:
256,192,538417,5,4,0:0:0:0:
256,192,538568,5,8,0:0:0:0:
256,192,538718,5,0,0:0:0:0:
256,192,538869,5,8,0:0:0:0:
256,192,539020,5,0,0:0:0:0:
256,192,539170,5,8,0:0:0:0:
256,192,539322,5,0,0:0:0:0:
256,192,539472,5,8,0:0:0:0:
256,192,539623,5,0,0:0:0:0:
256,192,539774,5,8,0:0:0:0:
256,192,539925,5,0,0:0:0:0:
256,192,540075,5,8,0:0:0:0:
256,192,540226,1,12,0:0:0:0:
256,192,540376,5,0,0:0:0:0:
256,192,540452,1,0,0:0:0:0:
256,192,540527,1,0,0:0:0:0:
256,192,540678,1,0,0:0:0:0:
256,192,540829,5,8,0:0:0:0:
256,192,540979,1,8,0:0:0:0:
256,192,541281,1,8,0:0:0:0:
256,192,541432,1,8,0:0:0:0:
256,192,541733,1,8,0:0:0:0:
256,192,541884,1,8,0:0:0:0:
256,192,542185,1,8,0:0:0:0:
256,192,542336,1,8,0:0:0:0:
256,192,542638,5,4,0:0:0:0:
256,192,542939,1,4,0:0:0:0:
256,192,543844,1,4,0:0:0:0:
256,192,544145,1,0,0:0:0:0:
256,192,544447,1,0,0:0:0:0:
256,192,544748,1,0,0:0:0:0:
256,192,545050,1,0,0:0:0:0:
256,192,545351,1,0,0:0:0:0:
256,192,545653,1,0,0:0:0:0:
256,192,545954,1,0,0:0:0:0:
256,192,546256,1,0,0:0:0:0:
256,192,546557,1,0,0:0:0:0:
256,192,546859,1,0,0:0:0:0:
256,192,547160,1,0,0:0:0:0:
256,192,547462,1,0,0:0:0:0:
256,192,547763,1,0,0:0:0:0:
256,192,548065,1,0,0:0:0:0:
256,192,548366,1,0,0:0:0:0:
256,192,548517,5,8,0:0:0:0:
256,192,548668,5,0,0:0:0:0:
256,192,548969,1,0,0:0:0:0:
256,192,549271,1,0,0:0:0:0:
256,192,549572,1,0,0:0:0:0:
256,192,549874,1,0,0:0:0:0:
256,192,550175,1,0,0:0:0:0:
256,192,550477,1,0,0:0:0:0:
256,192,550778,1,0,0:0:0:0:
256,192,551080,1,0,0:0:0:0:
256,192,551381,1,0,0:0:0:0:
256,192,551683,1,0,0:0:0:0:
256,192,551984,1,0,0:0:0:0:
256,192,552286,1,0,0:0:0:0:
256,192,552587,1,0,0:0:0:0:
256,192,552889,1,0,0:0:0:0:
256,192,553190,1,0,0:0:0:0:
256,192,553341,5,8,0:0:0:0:
256,192,553492,5,4,0:0:0:0:
256,192,553793,1,0,0:0:0:0:
256,192,554095,1,0,0:0:0:0:
256,192,554397,1,0,0:0:0:0:
256,192,554698,1,0,0:0:0:0:
256,192,555000,1,0,0:0:0:0:
256,192,555301,1,0,0:0:0:0:
256,192,555603,1,0,0:0:0:0:
256,192,555753,5,8,0:0:0:0:
256,192,555904,5,0,0:0:0:0:
256,192,556206,1,0,0:0:0:0:
256,192,556507,1,0,0:0:0:0:
256,192,556809,1,0,0:0:0:0:
256,192,557110,1,0,0:0:0:0:
256,192,557412,1,0,0:0:0:0:
256,192,557713,1,0,0:0:0:0:
256,192,558015,5,8,0:0:0:0:
256,192,558316,5,4,0:0:0:0:
256,192,558618,1,0,0:0:0:0:
256,192,558919,1,0,0:0:0:0:
256,192,559221,5,8,0:0:0:0:
256,192,559522,5,0,0:0:0:0:
256,192,559824,1,0,0:0:0:0:
256,192,560125,1,0,0:0:0:0:
256,192,560427,5,8,0:0:0:0:
256,192,560577,5,0,0:0:0:0:
256,192,560653,1,0,0:0:0:0:
256,192,560728,1,0,0:0:0:0:
256,192,561030,1,0,0:0:0:0:
256,192,561180,1,0,0:0:0:0:
256,192,561482,1,0,0:0:0:0:
256,192,561783,1,0,0:0:0:0:
256,192,562085,5,8,0:0:0:0:
256,192,562160,1,8,0:0:0:0:
256,192,562236,5,0,0:0:0:0:
256,192,562386,1,0,0:0:0:0:
256,192,562462,1,0,0:0:0:0:
256,192,562537,5,8,0:0:0:0:
256,192,562688,5,0,0:0:0:0:
256,192,562839,1,8,0:0:0:0:
256,192,562989,1,8,0:0:0:0:
256,192,563140,1,4,0:0:0:0:
256,192,563442,5,8,0:0:0:0:
256,192,563592,5,0,0:0:0:0:
256,192,563743,1,0,0:0:0:0:
256,192,563894,5,8,0:0:0:0:
256,192,564045,1,8,0:0:0:0:
256,192,564196,5,0,0:0:0:0:
256,192,564497,1,0,0:0:0:0:
256,192,564648,5,8,0:0:0:0:
256,192,564949,5,0,0:0:0:0:
256,192,565100,1,0,0:0:0:0:
256,192,565251,5,8,0:0:0:0:
256,192,565552,1,8,0:0:0:0:
256,192,565703,5,0,0:0:0:0:
256,192,565854,5,8,0:0:0:0:
256,192,566005,1,8,0:0:0:0:
256,192,566155,5,0,0:0:0:0:
256,192,566306,5,8,0:0:0:0:
256,192,566457,1,8,0:0:0:0:
256,192,566608,1,8,0:0:0:0:
256,192,566758,5,0,0:0:0:0:
256,192,567060,5,8,0:0:0:0:
256,192,567211,1,8,0:0:0:0:
256,192,567361,5,0,0:0:0:0:
256,192,567663,5,8,0:0:0:0:
256,192,567964,5,4,0:0:0:0:
256,192,568115,5,8,0:0:0:0:
256,192,568266,5,0,0:0:0:0:
256,192,568417,5,8,0:0:0:0:
256,192,568567,1,8,0:0:0:0:
256,192,568718,5,0,0:0:0:0:
256,192,568869,5,8,0:0:0:0:
256,192,569020,5,0,0:0:0:0:
256,192,569321,5,8,0:0:0:0:
256,192,569472,1,8,0:0:0:0:
256,192,569773,1,8,0:0:0:0:
256,192,569924,5,0,0:0:0:0:
256,192,570075,5,8,0:0:0:0:
256,192,570376,5,4,0:0:0:0:
256,192,570603,1,0,0:0:0:0:
256,192,570829,1,8,0:0:0:0:
256,192,571054,1,8,0:0:0:0:
256,192,571280,1,0,0:0:0:0:
256,192,571432,1,4,0:0:0:0:
256,192,571733,5,8,0:0:0:0:
256,192,571809,1,8,0:0:0:0:
256,192,571884,1,0,0:0:0:0:
256,192,572035,1,0,0:0:0:0:
256,192,572110,1,0,0:0:0:0:
256,192,572185,1,8,0:0:0:0:
256,192,572336,1,8,0:0:0:0:
256,192,572487,1,8,0:0:0:0:
256,192,572638,1,8,0:0:0:0:
256,192,572788,5,4,0:0:0:0:
256,192,572939,1,0,0:0:0:0:
256,192,573090,5,8,0:0:0:0:
256,192,573241,5,0,0:0:0:0:
256,192,573391,5,8,0:0:0:0:
256,192,573467,5,0,0:0:0:0:
256,192,573542,1,0,0:0:0:0:
256,192,573618,1,0,0:0:0:0:
256,192,573693,5,8,0:0:0:0:
256,192,573844,1,8,0:0:0:0:
256,192,573919,1,8,0:0:0:0:
256,192,573994,5,0,0:0:0:0:
256,192,574145,5,8,0:0:0:0:
256,192,574296,1,8,0:0:0:0:
256,192,574371,1,8,0:0:0:0:
256,192,574447,5,0,0:0:0:0:
256,192,574522,1,0,0:0:0:0:
256,192,574598,5,8,0:0:0:0:
256,192,574748,1,8,0:0:0:0:
256,192,574899,1,8,0:0:0:0:
256,192,574974,5,0,0:0:0:0:
256,192,575050,5,8,0:0:0:0:
256,192,575201,1,8,0:0:0:0:
256,192,575276,1,8,0:0:0:0:
256,192,575351,5,0,0:0:0:0:
256,192,575502,5,8,0:0:0:0:
256,192,575653,1,8,0:0:0:0:
256,192,575728,1,8,0:0:0:0:
256,192,575804,5,0,0:0:0:0:
256,192,575954,5,8,0:0:0:0:
256,192,576105,1,8,0:0:0:0:
256,192,576256,5,0,0:0:0:0:
256,192,576407,1,0,0:0:0:0:
256,192,576557,1,0,0:0:0:0:
256,192,576708,5,12,0:0:0:0:
256,192,577010,5,4,0:0:0:0:
256,192,577311,5,12,0:0:0:0:
256,192,577613,5,4,0:0:0:0:
256,192,577763,1,0,0:0:0:0:
256,192,577914,5,8,0:0:0:0:
256,192,577989,1,8,0:0:0:0:
256,192,578065,5,0,0:0:0:0:
256,192,578216,1,0,0:0:0:0:
256,192,578291,1,0,0:0:0:0:
256,192,578366,1,0,0:0:0:0:
256,192,578442,1,0,0:0:0:0:
256,192,578517,5,8,0:0:0:0:
256,192,578668,5,0,0:0:0:0:
256,192,578819,5,8,0:0:0:0:
256,192,578894,5,0,0:0:0:0:
256,192,578969,5,8,0:0:0:0:
256,192,579120,1,8,0:0:0:0:
256,192,579271,1,8,0:0:0:0:
256,192,579346,5,0,0:0:0:0:
256,192,579422,5,8,0:0:0:0:
256,192,579497,5,0,0:0:0:0:
256,192,579572,1,0,0:0:0:0:
256,192,579648,1,0,0:0:0:0:
256,192,579723,5,8,0:0:0:0:
256,192,579874,1,8,0:0:0:0:
256,192,580025,5,4,0:0:0:0:
256,192,580326,1,8,0:0:0:0:
256,192,580477,1,0,0:0:0:0:
256,192,580778,1,0,0:0:0:0:
256,192,580929,5,8,0:0:0:0:
256,192,581080,5,4,0:0:0:0:
256,192,581532,5,8,0:0:0:0:
256,192,581683,1,8,0:0:0:0:
256,192,581758,1,8,0:0:0:0:
256,192,581834,1,8,0:0:0:0:
256,192,581984,5,0,0:0:0:0:
256,192,582135,1,0,0:0:0:0:
256,192,582286,1,0,0:0:0:0:
256,192,582437,1,4,0:0:0:0:
256,192,582889,1,0,0:0:0:0:
256,192,583040,5,8,0:0:0:0:
256,192,583492,5,0,0:0:0:0:
256,192,583793,1,0,0:0:0:0:
256,192,584095,1,0,0:0:0:0:
256,192,584246,5,8,0:0:0:0:
256,192,584547,5,0,0:0:0:0:
256,192,584698,1,0,0:0:0:0:
256,192,584849,1,4,0:0:0:0:
256,192,585301,1,0,0:0:0:0:
256,192,585452,5,8,0:0:0:0:
256,192,585753,5,0,0:0:0:0:
256,192,585904,1,0,0:0:0:0:
256,192,586054,1,4,0:0:0:0:
256,192,586206,1,0,0:0:0:0:
256,192,586356,1,0,0:0:0:0:
256,192,586658,5,8,0:0:0:0:
256,192,586809,5,0,0:0:0:0:
256,192,586959,1,0,0:0:0:0:
256,192,587261,1,4,0:0:0:0:
256,192,587713,1,0,0:0:0:0:
256,192,587864,5,8,0:0:0:0:
256,192,588316,5,0,0:0:0:0:
256,192,588467,1,0,0:0:0:0:
256,192,588668,1,0,0:0:0:0:
256,192,588869,1,0,0:0:0:0:
256,192,589070,5,8,0:0:0:0:
256,192,589371,5,0,0:0:0:0:
256,192,589673,1,4,0:0:0:0:
256,192,589974,1,0,0:0:0:0:
256,192,590125,5,8,0:0:0:0:
256,192,590427,5,0,0:0:0:0:
256,192,590577,5,8,0:0:0:0:
256,192,590728,5,4,0:0:0:0:
256,192,591180,5,8,0:0:0:0:
256,192,591331,1,8,0:0:0:0:
256,192,591633,1,8,0:0:0:0:
256,192,591708,1,8,0:0:0:0:
256,192,591783,1,8,0:0:0:0:
256,192,591934,1,8,0:0:0:0:
256,192,592085,5,4,0:0:0:0:
256,192,592386,5,8,0:0:0:0:
256,192,592688,5,0,0:0:0:0:
256,192,592839,1,0,0:0:0:0:
256,192,592989,5,8,0:0:0:0:
256,192,593140,5,0,0:0:0:0:
256,192,593442,1,0,0:0:0:0:
256,192,593592,5,8,0:0:0:0:
256,192,593894,5,0,0:0:0:0:
256,192,594045,1,0,0:0:0:0:
256,192,594196,5,8,0:0:0:0:
256,192,594346,1,8,0:0:0:0:
256,192,594497,5,0,0:0:0:0:
256,192,594799,5,8,0:0:0:0:
256,192,594949,5,0,0:0:0:0:
256,192,595099,1,0,0:0:0:0:
256,192,595251,1,0,0:0:0:0:
256,192,595402,5,8,0:0:0:0:
256,192,595552,5,0,0:0:0:0:
256,192,595854,1,0,0:0:0:0:
256,192,595929,1,0,0:0:0:0:
256,192,596005,5,8,0:0:0:0:
256,192,596155,1,8,0:0:0:0:
256,192,596306,5,0,0:0:0:0:
256,192,596457,1,0,0:0:0:0:
256,192,596608,5,8,0:0:0:0:
256,192,596909,5,4,0:0:0:0:
256,192,597211,5,8,0:0:0:0:
256,192,597361,5,0,0:0:0:0:
256,192,597512,1,0,0:0:0:0:
256,192,597663,1,0,0:0:0:0:
256,192,597814,5,8,0:0:0:0:
256,192,598115,5,4,0:0:0:0:
256,192,598417,5,8,0:0:0:0:
256,192,598567,5,0,0:0:0:0:
256,192,598718,1,0,0:0:0:0:
256,192,598869,1,0,0:0:0:0:
256,192,599020,5,8,0:0:0:0:
256,192,599321,1,12,0:0:0:0:
256,192,599472,5,0,0:0:0:0:
256,192,599623,5,8,0:0:0:0:
256,192,599773,5,0,0:0:0:0:
256,192,599924,5,8,0:0:0:0:
256,192,600075,5,0,0:0:0:0:
256,192,600226,5,8,0:0:0:0:
256,192,600376,1,8,0:0:0:0:
256,192,600678,1,8,0:0:0:0:
256,192,600829,1,8,0:0:0:0:
256,192,601130,1,8,0:0:0:0:
256,192,601281,5,0,0:0:0:0:
256,192,601356,1,0,0:0:0:0:
256,192,601432,1,0,0:0:0:0:
256,192,601582,1,0,0:0:0:0:
256,192,601733,1,4,0:0:0:0:
256,192,602185,1,4,0:0:0:0:
256,192,602951,5,8,0:0:0:0:
256,192,603284,1,8,0:0:0:0:
256,192,603617,1,8,0:0:0:0:
256,192,603784,1,8,0:0:0:0:
256,192,603867,1,8,0:0:0:0:
256,192,603951,1,8,0:0:0:0:
256,192,604117,1,8,0:0:0:0:
256,192,604284,5,4,0:0:0:0:
256,192,604617,5,8,0:0:0:0:
256,192,604951,5,0,0:0:0:0:
256,192,605117,1,0,0:0:0:0:
256,192,605284,5,8,0:0:0:0:
256,192,605617,5,0,0:0:0:0:
256,192,605951,5,8,0:0:0:0:
256,192,606117,5,0,0:0:0:0:
256,192,606451,5,8,0:0:0:0:
256,192,606784,1,8,0:0:0:0:
256,192,606951,5,0,0:0:0:0:
256,192,607117,1,0,0:0:0:0:
256,192,607284,5,8,0:0:0:0:
256,192,607617,5,0,0:0:0:0:
256,192,607784,1,0,0:0:0:0:
256,192,607951,5,8,0:0:0:0:
256,192,608284,5,0,0:0:0:0:
256,192,608451,5,8,0:0:0:0:
256,192,608617,5,0,0:0:0:0:
256,192,608784,5,8,0:0:0:0:
256,192,608951,5,0,0:0:0:0:
256,192,609117,5,8,0:0:0:0:
256,192,609284,5,4,0:0:0:0:
256,192,609617,1,4,0:0:0:0:
256,192,609784,1,0,0:0:0:0:
256,192,609951,5,8,0:0:0:0:
256,192,610284,5,0,0:0:0:0:
256,192,610451,1,0,0:0:0:0:
256,192,610617,5,8,0:0:0:0:
256,192,610951,1,8,0:0:0:0:
256,192,611284,5,0,0:0:0:0:
256,192,611451,5,8,0:0:0:0:
256,192,611784,5,0,0:0:0:0:
256,192,611951,5,8,0:0:0:0:
256,192,612117,1,0,0:0:0:0:
256,192,612284,5,0,0:0:0:0:
256,192,612451,1,0,0:0:0:0:
256,192,612617,5,8,0:0:0:0:
256,192,612951,5,0,0:0:0:0:
256,192,613117,1,0,0:0:0:0:
256,192,613284,5,8,0:0:0:0:
256,192,613617,5,4,0:0:0:0:
256,192,613951,1,0,0:0:0:0:
256,192,614117,5,8,0:0:0:0:
256,192,614201,1,8,0:0:0:0:
256,192,614284,1,8,0:0:0:0:
256,192,614367,1,8,0:0:0:0:
256,192,614451,1,8,0:0:0:0:
256,192,614534,1,8,0:0:0:0:
256,192,614617,1,8,0:0:0:0:
256,192,614701,1,8,0:0:0:0:
256,192,614784,1,8,0:0:0:0:
256,192,614867,1,8,0:0:0:0:
256,192,614951,5,0,0:0:0:0:
256,192,615034,1,0,0:0:0:0:
256,192,615117,5,8,0:0:0:0:
256,192,615201,5,0,0:0:0:0:
256,192,615284,5,8,0:0:0:0:
256,192,615451,1,8,0:0:0:0:
256,192,615617,1,8,0:0:0:0:
256,192,615701,5,0,0:0:0:0:
256,192,615784,1,0,0:0:0:0:
256,192,615867,1,0,0:0:0:0:
256,192,615951,5,8,0:0:0:0:
256,192,616117,1,8,0:0:0:0:
256,192,616284,5,0,0:0:0:0:
256,192,616367,1,0,0:0:0:0:
256,192,616451,5,8,0:0:0:0:
256,192,616534,5,0,0:0:0:0:
256,192,616617,5,8,0:0:0:0:
256,192,616784,1,8,0:0:0:0:
256,192,616951,1,8,0:0:0:0:
256,192,617034,5,0,0:0:0:0:
256,192,617117,1,0,0:0:0:0:
256,192,617201,1,0,0:0:0:0:
256,192,617284,5,8,0:0:0:0:
256,192,617451,1,8,0:0:0:0:
256,192,617617,1,8,0:0:0:0:
256,192,617701,1,8,0:0:0:0:
256,192,617784,5,0,0:0:0:0:
256,192,617867,1,0,0:0:0:0:
256,192,617951,5,8,0:0:0:0:
256,192,618034,1,8,0:0:0:0:
256,192,618117,5,0,0:0:0:0:
256,192,618201,1,0,0:0:0:0:
256,192,618284,5,8,0:0:0:0:
256,192,618367,1,8,0:0:0:0:
256,192,618451,5,0,0:0:0:0:
256,192,618534,1,0,0:0:0:0:
256,192,618617,5,8,0:0:0:0:
256,192,618701,1,8,0:0:0:0:
256,192,618784,5,0,0:0:0:0:
256,192,618867,1,0,0:0:0:0:
256,192,618951,5,8,0:0:0:0:
256,192,619034,1,8,0:0:0:0:
256,192,619117,5,0,0:0:0:0:
256,192,619201,1,0,0:0:0:0:
256,192,619284,5,8,0:0:0:0:
256,192,619367,1,8,0:0:0:0:
256,192,619451,5,0,0:0:0:0:
256,192,619534,1,0,0:0:0:0:
256,192,619617,5,8,0:0:0:0:
256,192,619701,1,8,0:0:0:0:
256,192,619784,5,0,0:0:0:0:
256,192,619867,1,0,0:0:0:0:
256,192,619951,5,8,0:0:0:0:
256,192,620034,1,8,0:0:0:0:
256,192,620117,1,8,0:0:0:0:
256,192,620201,1,8,0:0:0:0:
256,192,620284,5,0,0:0:0:0:
256,192,620367,1,0,0:0:0:0:
256,192,620451,5,8,0:0:0:0:
256,192,620534,5,0,0:0:0:0:
256,192,620617,5,8,0:0:0:0:
256,192,620784,1,8,0:0:0:0:
256,192,620951,1,8,0:0:0:0:
256,192,621034,5,0,0:0:0:0:
256,192,621117,1,0,0:0:0:0:
256,192,621201,1,0,0:0:0:0:
256,192,621284,5,8,0:0:0:0:
256,192,621451,1,8,0:0:0:0:
256,192,621617,5,0,0:0:0:0:
256,192,621701,1,0,0:0:0:0:
256,192,621784,5,8,0:0:0:0:
256,192,621867,5,0,0:0:0:0:
256,192,621951,5,8,0:0:0:0:
256,192,622117,1,8,0:0:0:0:
256,192,622284,1,8,0:0:0:0:
256,192,622367,5,0,0:0:0:0:
256,192,622451,1,0,0:0:0:0:
256,192,622534,1,0,0:0:0:0:
256,192,622617,5,8,0:0:0:0:
256,192,622784,1,8,0:0:0:0:
256,192,622951,1,8,0:0:0:0:
256,192,623034,1,8,0:0:0:0:
256,192,623117,5,0,0:0:0:0:
256,192,623201,1,0,0:0:0:0:
256,192,623284,5,8,0:0:0:0:
256,192,623367,1,8,0:0:0:0:
256,192,623451,5,0,0:0:0:0:
256,192,623534,1,0,0:0:0:0:
256,192,623617,5,8,0:0:0:0:
256,192,623701,1,8,0:0:0:0:
256,192,623784,5,0,0:0:0:0:
256,192,623867,1,0,0:0:0:0:
256,192,623951,5,8,0:0:0:0:
256,192,624034,1,8,0:0:0:0:
256,192,624117,5,0,0:0:0:0:
256,192,624201,1,0,0:0:0:0:
256,192,624284,5,8,0:0:0:0:
256,192,624367,1,8,0:0:0:0:
256,192,624451,5,0,0:0:0:0:
256,192,624534,1,0,0:0:0:0:
256,192,624617,5,8,0:0:0:0:
256,192,624701,1,8,0:0:0:0:
256,192,624784,5,0,0:0:0:0:
256,192,624867,1,0,0:0:0:0:
256,192,624951,5,8,0:0:0:0:
256,192,625034,1,8,0:0:0:0:
256,192,625117,5,0,0:0:0:0:
256,192,625201,1,0,0:0:0:0:
256,192,625284,5,8,0:0:0:0:
256,192,625367,1,8,0:0:0:0:
256,192,625451,5,0,0:0:0:0:
256,192,625534,1,0,0:0:0:0:
256,192,625617,5,8,0:0:0:0:
256,192,625701,1,8,0:0:0:0:
256,192,625784,1,8,0:0:0:0:
256,192,625867,1,8,0:0:0:0:
256,192,625951,5,0,0:0:0:0:
256,192,626034,1,0,0:0:0:0:
256,192,626117,5,8,0:0:0:0:
256,192,626201,1,8,0:0:0:0:
256,192,626284,5,0,0:0:0:0:
256,192,626367,1,0,0:0:0:0:
256,192,626451,5,8,0:0:0:0:
256,192,626534,5,0,0:0:0:0:
256,192,626617,5,8,0:0:0:0:
256,192,626701,1,8,0:0:0:0:
256,192,626784,1,8,0:0:0:0:
256,192,626867,1,8,0:0:0:0:
256,192,626951,5,0,0:0:0:0:
256,192,627784,1,0,0:0:0:0:
256,192,627867,1,0,0:0:0:0:
256,192,627951,1,8,0:0:0:0:
256,192,628284,5,4,0:0:0:0:
256,192,628617,5,8,0:0:0:0:
256,192,628951,5,0,0:0:0:0:
256,192,629117,1,0,0:0:0:0:
256,192,629284,5,8,0:0:0:0:
256,192,629617,5,0,0:0:0:0:
256,192,629784,1,0,0:0:0:0:
256,192,629951,5,8,0:0:0:0:
256,192,630117,5,0,0:0:0:0:
256,192,630451,1,0,0:0:0:0:
256,192,630617,5,8,0:0:0:0:
256,192,630951,5,0,0:0:0:0:
256,192,631284,5,8,0:0:0:0:
256,192,631617,5,0,0:0:0:0:
256,192,631784,1,0,0:0:0:0:
256,192,631951,5,8,0:0:0:0:
256,192,632117,5,0,0:0:0:0:
256,192,632451,1,0,0:0:0:0:
256,192,632617,5,8,0:0:0:0:
256,192,632951,5,0,0:0:0:0:
256,192,633117,1,0,0:0:0:0:
256,192,633284,5,8,0:0:0:0:
256,192,633451,5,0,0:0:0:0:
256,192,633617,1,4,0:0:0:0:
256,192,633951,5,8,0:0:0:0:
256,192,634284,5,0,0:0:0:0:
256,192,634451,1,0,0:0:0:0:
256,192,634617,5,8,0:0:0:0:
256,192,634784,5,0,0:0:0:0:
256,192,635117,1,0,0:0:0:0:
256,192,635284,5,8,0:0:0:0:
256,192,635617,5,0,0:0:0:0:
256,192,635784,1,0,0:0:0:0:
256,192,635951,5,8,0:0:0:0:
256,192,636117,5,0,0:0:0:0:
256,192,636284,1,0,0:0:0:0:
256,192,636451,1,0,0:0:0:0:
256,192,636617,5,8,0:0:0:0:
256,192,636951,5,0,0:0:0:0:
256,192,637117,1,0,0:0:0:0:
256,192,637284,5,8,0:0:0:0:
256,192,637451,5,0,0:0:0:0:
256,192,637617,5,8,0:0:0:0:
256,192,637951,1,8,0:0:0:0:
256,192,638117,5,0,0:0:0:0:
256,192,638201,1,0,0:0:0:0:
256,192,638284,5,8,0:0:0:0:
256,192,638451,1,8,0:0:0:0:
256,192,638617,5,0,0:0:0:0:
256,192,638784,1,0,0:0:0:0:
256,192,638951,1,4,0:0:0:0:
256,192,639117,1,0,0:0:0:0:
256,192,639284,5,8,0:0:0:0:
256,192,639617,5,0,0:0:0:0:
256,192,639784,1,0,0:0:0:0:
256,192,639951,5,8,0:0:0:0:
256,192,640117,5,0,0:0:0:0:
256,192,640451,1,0,0:0:0:0:
256,192,640617,5,8,0:0:0:0:
256,192,640951,5,0,0:0:0:0:
256,192,641117,1,0,0:0:0:0:
256,192,641284,5,8,0:0:0:0:
256,192,641451,1,8,0:0:0:0:
256,192,641534,1,8,0:0:0:0:
256,192,641617,5,0,0:0:0:0:
256,192,641784,1,0,0:0:0:0:
256,192,641951,5,8,0:0:0:0:
256,192,642117,5,0,0:0:0:0:
256,192,642451,1,0,0:0:0:0:
256,192,642617,5,8,0:0:0:0:
256,192,642784,5,0,0:0:0:0:
256,192,643117,1,0,0:0:0:0:
256,192,643284,5,8,0:0:0:0:
256,192,643617,1,8,0:0:0:0:
256,192,643951,1,8,0:0:0:0:
256,192,644117,1,8,0:0:0:0:
256,192,644284,5,4,0:0:0:0:
256,192,644617,5,8,0:0:0:0:
256,192,644784,5,0,0:0:0:0:
256,192,645117,1,0,0:0:0:0:
256,192,645284,5,8,0:0:0:0:
256,192,645451,5,0,0:0:0:0:
256,192,645784,1,0,0:0:0:0:
256,192,645951,5,8,0:0:0:0:
256,192,646284,5,0,0:0:0:0:
256,192,646617,5,8,0:0:0:0:
256,192,646784,5,4,0:0:0:0:
256,192,647117,1,0,0:0:0:0:
256,192,647284,5,8,0:0:0:0:
256,192,647451,5,0,0:0:0:0:
256,192,647784,1,0,0:0:0:0:
256,192,648117,1,4,0:0:0:0:
256,192,648451,5,8,0:0:0:0:
256,192,648534,1,8,0:0:0:0:
256,192,648617,1,8,0:0:0:0:
256,192,648784,1,8,0:0:0:0:
256,192,648951,1,8,0:0:0:0:
256,192,649117,5,0,0:0:0:0:
256,192,649284,1,0,0:0:0:0:
256,192,649451,1,0,0:0:0:0:
256,192,649617,1,4,0:0:0:0:
256,192,649951,1,0,0:0:0:0:
256,192,650117,1,0,0:0:0:0:
256,192,650284,5,8,0:0:0:0:
256,192,650617,5,0,0:0:0:0:
256,192,650784,1,0,0:0:0:0:
256,192,650951,1,0,0:0:0:0:
256,192,651034,1,0,0:0:0:0:
256,192,651117,5,8,0:0:0:0:
256,192,651451,5,0,0:0:0:0:
256,192,651617,5,8,0:0:0:0:
256,192,651951,5,0,0:0:0:0:
256,192,652284,1,4,0:0:0:0:
256,192,652617,1,0,0:0:0:0:
256,192,652784,5,12,0:0:0:0:
256,192,653117,5,0,0:0:0:0:
256,192,653284,5,8,0:0:0:0:
256,192,653451,5,4,0:0:0:0:
256,192,653951,5,8,0:0:0:0:
256,192,654117,5,0,0:0:0:0:
256,192,654201,1,0,0:0:0:0:
256,192,654284,5,8,0:0:0:0:
256,192,654451,1,8,0:0:0:0:
256,192,654617,1,8,0:0:0:0:
256,192,654784,5,0,0:0:0:0:
256,192,654951,1,4,0:0:0:0:
256,192,655451,1,0,0:0:0:0:
256,192,655617,5,8,0:0:0:0:
256,192,655951,5,0,0:0:0:0:
256,192,656117,1,0,0:0:0:0:
256,192,656284,1,0,0:0:0:0:
256,192,656451,5,8,0:0:0:0:
256,192,656784,5,0,0:0:0:0:
256,192,656951,5,8,0:0:0:0:
256,192,657284,5,0,0:0:0:0:
256,192,657617,1,4,0:0:0:0:
256,192,657867,5,8,0:0:0:0:
256,192,658117,5,0,0:0:0:0:
256,192,658284,1,4,0:0:0:0:
256,192,658451,5,8,0:0:0:0:
256,192,658617,5,8,0:0:0:0:
256,192,658784,1,4,0:0:0:0:
256,192,658951,1,0,0:0:0:0:
256,192,659201,1,0,0:0:0:0:
256,192,659451,1,0,0:0:0:0:
256,192,659617,1,4,0:0:0:0:
256,192,659784,5,8,0:0:0:0:
256,192,659867,1,8,0:0:0:0:
256,192,659951,1,8,0:0:0:0:
256,192,660117,1,8,0:0:0:0:
256,192,660284,5,4,0:0:0:0:
256,192,660450,5,8,0:0:0:0:
256,192,660617,5,0,0:0:0:0:
256,192,660700,1,0,0:0:0:0:
256,192,660784,5,8,0:0:0:0:
256,192,660950,5,0,0:0:0:0:
256,192,661117,5,8,0:0:0:0:
256,192,661284,5,0,0:0:0:0:
256,192,661367,1,0,0:0:0:0:
256,192,661450,5,8,0:0:0:0:
256,192,661617,5,0,0:0:0:0:
256,192,661784,1,8,0:0:0:0:
256,192,661867,1,8,0:0:0:0:
256,192,661950,1,0,0:0:0:0:
256,192,662117,1,8,0:0:0:0:
256,192,662200,1,8,0:0:0:0:
256,192,662284,1,0,0:0:0:0:
256,192,662450,1,8,0:0:0:0:
256,192,662617,1,0,0:0:0:0:
256,192,662700,1,0,0:0:0:0:
256,192,662784,1,8,0:0:0:0:
256,192,662950,1,0,0:0:0:0:
256,192,663117,1,8,0:0:0:0:
256,192,663200,1,8,0:0:0:0:
256,192,663284,1,0,0:0:0:0:
256,192,663450,1,8,0:0:0:0:
256,192,663534,1,8,0:0:0:0:
256,192,663617,1,0,0:0:0:0:
256,192,663784,1,8,0:0:0:0:
256,192,663950,1,0,0:0:0:0:
256,192,664034,1,8,0:0:0:0:
256,192,664117,1,8,0:0:0:0:
256,192,664200,1,8,0:0:0:0:
256,192,664284,1,0,0:0:0:0:
256,192,664450,1,8,0:0:0:0:
256,192,664534,1,8,0:0:0:0:
256,192,664617,1,0,0:0:0:0:
256,192,664784,1,8,0:0:0:0:
256,192,664950,1,0,0:0:0:0:
256,192,665117,5,8,0:0:0:0:
256,192,665200,1,8,0:0:0:0:
256,192,665284,1,8,0:0:0:0:
256,192,665450,1,8,0:0:0:0:
256,192,665617,5,4,0:0:0:0:
256,192,665784,1,0,0:0:0:0:
256,192,665867,1,8,0:0:0:0:
256,192,665950,1,0,0:0:0:0:
256,192,666117,1,8,0:0:0:0:
256,192,666284,1,0,0:0:0:0:
256,192,666367,1,0,0:0:0:0:
256,192,666450,1,0,0:0:0:0:
256,192,666534,1,8,0:0:0:0:
256,192,666617,1,0,0:0:0:0:
256,192,666784,1,8,0:0:0:0:
256,192,666950,1,0,0:0:0:0:
256,192,667117,1,0,0:0:0:0:
256,192,667200,1,8,0:0:0:0:
256,192,667284,1,0,0:0:0:0:
256,192,667450,1,8,0:0:0:0:
256,192,667617,1,0,0:0:0:0:
256,192,667700,1,0,0:0:0:0:
256,192,667784,1,0,0:0:0:0:
256,192,667867,1,8,0:0:0:0:
256,192,667950,1,0,0:0:0:0:
256,192,668117,1,8,0:0:0:0:
256,192,668284,1,0,0:0:0:0:
256,192,668367,1,0,0:0:0:0:
256,192,668534,1,8,0:0:0:0:
256,192,668617,1,0,0:0:0:0:
256,192,668784,1,8,0:0:0:0:
256,192,668950,1,0,0:0:0:0:
256,192,669117,1,0,0:0:0:0:
256,192,669200,1,8,0:0:0:0:
256,192,669284,1,0,0:0:0:0:
256,192,669367,1,0,0:0:0:0:
256,192,669450,1,8,0:0:0:0:
256,192,669617,1,4,0:0:0:0:
256,192,669784,1,8,0:0:0:0:
256,192,669867,1,8,0:0:0:0:
256,192,669950,1,0,0:0:0:0:
256,192,670034,1,0,0:0:0:0:
256,192,670117,1,0,0:0:0:0:
256,192,670200,1,0,0:0:0:0:
256,192,670284,1,0,0:0:0:0:
256,192,670367,1,0,0:0:0:0:
256,192,670450,1,0,0:0:0:0:
256,192,670534,1,0,0:0:0:0:
256,192,670617,1,0,0:0:0:0:
256,192,670700,1,0,0:0:0:0:
256,192,670784,1,0,0:0:0:0:
256,192,670867,1,0,0:0:0:0:
256,192,670950,5,0,0:0:0:0:
256,192,671116,5,8,0:0:0:0:
256,192,671283,5,0,0:0:0:0:
256,192,671366,1,0,0:0:0:0:
256,192,671450,5,8,0:0:0:0:
256,192,671616,5,0,0:0:0:0:
256,192,671783,5,8,0:0:0:0:
256,192,671950,5,0,0:0:0:0:
256,192,672033,1,0,0:0:0:0:
256,192,672116,5,8,0:0:0:0:
256,192,672283,5,0,0:0:0:0:
256,192,672450,1,8,0:0:0:0:
256,192,672533,1,8,0:0:0:0:
256,192,672616,1,0,0:0:0:0:
256,192,672783,1,8,0:0:0:0:
256,192,672866,1,8,0:0:0:0:
256,192,672950,1,0,0:0:0:0:
256,192,673116,1,8,0:0:0:0:
256,192,673283,1,0,0:0:0:0:
256,192,673366,1,0,0:0:0:0:
256,192,673450,1,8,0:0:0:0:
256,192,673616,1,0,0:0:0:0:
256,192,673783,1,8,0:0:0:0:
256,192,673866,1,8,0:0:0:0:
256,192,673950,1,0,0:0:0:0:
256,192,674116,1,8,0:0:0:0:
256,192,674200,1,8,0:0:0:0:
256,192,674283,1,0,0:0:0:0:
256,192,674450,1,8,0:0:0:0:
256,192,674616,1,8,0:0:0:0:
256,192,674700,1,0,0:0:0:0:
256,192,674783,1,8,0:0:0:0:
256,192,674866,1,8,0:0:0:0:
256,192,674950,1,0,0:0:0:0:
256,192,675116,1,8,0:0:0:0:
256,192,675200,1,8,0:0:0:0:
256,192,675283,1,0,0:0:0:0:
256,192,675450,1,8,0:0:0:0:
256,192,675616,1,0,0:0:0:0:
256,192,675700,1,0,0:0:0:0:
256,192,675783,5,8,0:0:0:0:
256,192,675866,1,8,0:0:0:0:
256,192,675950,1,8,0:0:0:0:
256,192,676117,1,8,0:0:0:0:
256,192,676284,1,0,0:0:0:0:
256,192,676367,1,0,0:0:0:0:
256,192,676450,1,8,0:0:0:0:
256,192,676534,1,8,0:0:0:0:
256,192,676617,1,0,0:0:0:0:
256,192,676700,1,0,0:0:0:0:
256,192,676784,1,8,0:0:0:0:
256,192,676867,1,0,0:0:0:0:
256,192,676950,1,8,0:0:0:0:
256,192,677034,1,8,0:0:0:0:
256,192,677117,1,0,0:0:0:0:
256,192,677200,1,0,0:0:0:0:
256,192,677284,1,8,0:0:0:0:
256,192,677367,1,8,0:0:0:0:
256,192,677450,1,8,0:0:0:0:
256,192,677534,1,8,0:0:0:0:
256,192,677617,1,0,0:0:0:0:
256,192,677700,1,0,0:0:0:0:
256,192,677784,1,8,0:0:0:0:
256,192,677867,1,8,0:0:0:0:
256,192,677950,1,0,0:0:0:0:
256,192,678034,1,0,0:0:0:0:
256,192,678117,1,8,0:0:0:0:
256,192,678200,1,0,0:0:0:0:
256,192,678284,1,8,0:0:0:0:
256,192,678367,1,8,0:0:0:0:
256,192,678450,1,0,0:0:0:0:
256,192,678534,1,0,0:0:0:0:
256,192,678617,1,8,0:0:0:0:
256,192,678700,1,8,0:0:0:0:
256,192,678784,1,8,0:0:0:0:
256,192,678867,1,8,0:0:0:0:
256,192,678950,1,0,0:0:0:0:
256,192,679034,1,0,0:0:0:0:
256,192,679117,1,8,0:0:0:0:
256,192,679200,1,8,0:0:0:0:
256,192,679284,1,0,0:0:0:0:
256,192,679367,1,0,0:0:0:0:
256,192,679450,1,8,0:0:0:0:
256,192,679534,1,8,0:0:0:0:
256,192,679617,1,0,0:0:0:0:
256,192,679700,1,0,0:0:0:0:
256,192,679784,1,8,0:0:0:0:
256,192,679867,1,8,0:0:0:0:
256,192,679950,1,0,0:0:0:0:
256,192,680034,1,0,0:0:0:0:
256,192,680117,1,8,0:0:0:0:
256,192,680200,1,8,0:0:0:0:
256,192,680284,21,0,0:0:0:0:
256,192,680367,1,0,0:0:0:0:
256,192,680451,1,0,0:0:0:0:
256,192,680534,1,0,0:0:0:0:
256,192,680617,1,0,0:0:0:0:
256,192,680951,1,0,0:0:0:0:
256,192,681034,1,0,0:0:0:0:
256,192,681117,1,0,0:0:0:0:
256,192,681201,1,0,0:0:0:0:
256,192,681284,1,0,0:0:0:0:
256,192,681617,1,0,0:0:0:0:
256,192,681701,1,0,0:0:0:0:
256,192,681784,1,0,0:0:0:0:
256,192,681867,1,0,0:0:0:0:
256,192,681951,1,0,0:0:0:0:
256,192,682284,1,0,0:0:0:0:
256,192,682367,1,0,0:0:0:0:
256,192,682451,1,0,0:0:0:0:
256,192,682534,1,0,0:0:0:0:
256,192,682701,1,0,0:0:0:0:
256,192,682867,1,0,0:0:0:0:
256,192,682951,1,0,0:0:0:0:
256,192,683034,1,0,0:0:0:0:
256,192,683117,1,0,0:0:0:0:
256,192,683201,1,0,0:0:0:0:
256,192,683284,1,0,0:0:0:0:
256,192,683617,1,0,0:0:0:0:
256,192,683701,1,0,0:0:0:0:
256,192,683784,1,0,0:0:0:0:
256,192,683867,1,0,0:0:0:0:
256,192,683951,1,0,0:0:0:0:
256,192,684284,1,0,0:0:0:0:
256,192,684367,1,0,0:0:0:0:
256,192,684451,1,0,0:0:0:0:
256,192,684534,1,0,0:0:0:0:
256,192,684617,1,0,0:0:0:0:
256,192,684951,1,0,0:0:0:0:
256,192,685034,1,0,0:0:0:0:
256,192,685117,1,0,0:0:0:0:
256,192,685201,1,0,0:0:0:0:
256,192,685367,1,0,0:0:0:0:
256,192,685534,1,0,0:0:0:0:
256,192,685617,1,0,0:0:0:0:
256,192,685701,1,0,0:0:0:0:
256,192,685784,1,0,0:0:0:0:
256,192,685867,1,0,0:0:0:0:
256,192,685951,1,0,0:0:0:0:
256,192,686284,1,0,0:0:0:0:
256,192,686367,1,0,0:0:0:0:
256,192,686451,1,0,0:0:0:0:
256,192,686534,1,0,0:0:0:0:
256,192,686617,1,0,0:0:0:0:
256,192,686951,1,0,0:0:0:0:
256,192,687034,1,0,0:0:0:0:
256,192,687117,1,0,0:0:0:0:
256,192,687201,1,0,0:0:0:0:
256,192,687284,1,0,0:0:0:0:
256,192,687617,1,0,0:0:0:0:
256,192,687701,1,0,0:0:0:0:
256,192,687784,1,0,0:0:0:0:
256,192,687867,1,0,0:0:0:0:
256,192,688034,1,0,0:0:0:0:
256,192,688200,1,0,0:0:0:0:
256,192,688284,1,0,0:0:0:0:
256,192,688367,1,0,0:0:0:0:
256,192,688451,1,0,0:0:0:0:
256,192,688534,1,0,0:0:0:0:
256,192,688617,1,0,0:0:0:0:
256,192,688951,1,0,0:0:0:0:
256,192,689034,1,0,0:0:0:0:
256,192,689117,1,0,0:0:0:0:
256,192,689201,1,0,0:0:0:0:
256,192,689284,1,0,0:0:0:0:
256,192,689617,1,0,0:0:0:0:
256,192,689784,1,0,0:0:0:0:
256,192,689951,1,0,0:0:0:0:
256,192,690034,5,8,0:0:0:0:
256,192,690201,5,0,0:0:0:0:
256,192,690284,1,0,0:0:0:0:
256,192,690451,1,0,0:0:0:0:
256,192,690534,1,0,0:0:0:0:
256,192,690701,1,0,0:0:0:0:
256,192,690784,1,0,0:0:0:0:
256,192,690867,1,0,0:0:0:0:
256,192,690951,5,8,0:0:0:0:
256,192,691034,1,8,0:0:0:0:
256,192,691117,1,8,0:0:0:0:
256,192,691201,1,8,0:0:0:0:
256,192,691367,1,8,0:0:0:0:
256,192,691451,1,8,0:0:0:0:
256,192,691617,1,8,0:0:0:0:
256,192,691701,1,8,0:0:0:0:
256,192,691867,1,8,0:0:0:0:
256,192,691951,1,8,0:0:0:0:
256,192,692117,1,8,0:0:0:0:
256,192,692951,5,4,0:0:0:0:
256,192,693284,5,8,0:0:0:0:
256,192,693951,1,8,0:0:0:0:
256,192,694617,1,8,0:0:0:0:
256,192,695284,1,8,0:0:0:0:
256,192,695951,1,8,0:0:0:0:
256,192,696617,1,8,0:0:0:0:
256,192,697284,1,8,0:0:0:0:
256,192,697617,5,4,0:0:0:0:
256,192,697951,5,8,0:0:0:0:
256,192,698284,5,4,0:0:0:0:
256,192,698617,5,8,0:0:0:0:
256,192,699284,1,8,0:0:0:0:
256,192,699617,5,4,0:0:0:0:
256,192,699951,5,8,0:0:0:0:
256,192,700617,1,8,0:0:0:0:
256,192,700951,5,4,0:0:0:0:
256,192,701284,5,8,0:0:0:0:
256,192,701617,5,4,0:0:0:0:
256,192,701951,5,8,0:0:0:0:
256,192,702284,5,4,0:0:0:0:
256,192,702617,5,8,0:0:0:0:
256,192,702951,1,8,0:0:0:0:
256,192,703117,1,8,0:0:0:0:
256,192,703284,5,0,0:0:0:0:
256,192,703451,1,0,0:0:0:0:
256,192,703617,1,4,0:0:0:0:
256,192,703951,5,8,0:0:0:0:
256,192,704617,1,8,0:0:0:0:
256,192,705284,1,8,0:0:0:0:
256,192,705617,5,4,0:0:0:0:
256,192,705951,5,8,0:0:0:0:
256,192,706284,5,4,0:0:0:0:
256,192,706617,5,8,0:0:0:0:
256,192,707284,1,8,0:0:0:0:
256,192,707951,1,8,0:0:0:0:
256,192,708617,1,12,0:0:0:0:
256,192,708951,5,4,0:0:0:0:
256,192,709284,5,8,0:0:0:0:
256,192,709951,1,8,0:0:0:0:
256,192,710284,5,4,0:0:0:0:
256,192,710617,5,8,0:0:0:0:
256,192,711284,1,8,0:0:0:0:
256,192,711617,5,4,0:0:0:0:
256,192,712034,5,8,0:0:0:0:
256,192,712451,5,4,0:0:0:0:
256,192,713284,1,4,0:0:0:0:
256,192,716270,5,8,0:0:0:0:
256,192,716724,1,8,0:0:0:0:
256,192,717065,1,0,0:0:0:0:
256,192,717179,1,8,0:0:0:0:
256,192,717292,1,0,0:0:0:0:
256,192,717406,5,0,0:0:0:0:
256,192,717633,5,8,0:0:0:0:
256,192,717860,5,0,0:0:0:0:
256,192,718088,1,4,0:0:0:0:
256,192,718315,1,0,0:0:0:0:
256,192,718542,5,8,0:0:0:0:
256,192,718770,5,0,0:0:0:0:
256,192,718883,5,8,0:0:0:0:
256,192,718997,5,0,0:0:0:0:
256,192,719110,5,8,0:0:0:0:
256,192,719224,5,0,0:0:0:0:
256,192,719451,5,8,0:0:0:0:
256,192,719679,5,0,0:0:0:0:
256,192,719906,1,0,0:0:0:0:
256,192,720133,1,0,0:0:0:0:
256,192,720360,5,8,0:0:0:0:
256,192,720588,5,0,0:0:0:0:
256,192,720701,1,8,0:0:0:0:
256,192,720815,5,8,0:0:0:0:
256,192,720929,1,8,0:0:0:0:
256,192,721042,5,0,0:0:0:0:
256,192,721270,5,8,0:0:0:0:
256,192,721497,1,8,0:0:0:0:
256,192,721724,5,0,0:0:0:0:
256,192,721951,1,0,0:0:0:0:
256,192,722179,5,8,0:0:0:0:
256,192,722406,5,0,0:0:0:0:
256,192,722520,5,8,0:0:0:0:
256,192,722633,5,0,0:0:0:0:
256,192,722747,1,0,0:0:0:0:
256,192,722860,1,0,0:0:0:0:
256,192,723088,5,8,0:0:0:0:
256,192,723315,5,0,0:0:0:0:
256,192,723542,1,0,0:0:0:0:
256,192,723770,1,0,0:0:0:0:
256,192,723997,5,8,0:0:0:0:
256,192,724224,5,0,0:0:0:0:
256,192,724338,1,8,0:0:0:0:
256,192,724451,5,0,0:0:0:0:
256,192,724565,5,8,0:0:0:0:
256,192,724679,5,0,0:0:0:0:
256,192,724906,5,8,0:0:0:0:
256,192,725133,5,0,0:0:0:0:
256,192,725360,1,4,0:0:0:0:
256,192,725588,1,0,0:0:0:0:
256,192,725815,5,8,0:0:0:0:
256,192,726042,5,0,0:0:0:0:
256,192,726156,5,8,0:0:0:0:
256,192,726270,5,0,0:0:0:0:
256,192,726383,1,0,0:0:0:0:
256,192,726497,1,0,0:0:0:0:
256,192,726724,5,8,0:0:0:0:
256,192,726952,5,0,0:0:0:0:
256,192,727179,1,0,0:0:0:0:
256,192,727406,1,0,0:0:0:0:
256,192,727633,5,8,0:0:0:0:
256,192,727860,5,0,0:0:0:0:
256,192,727974,5,8,0:0:0:0:
256,192,728088,5,0,0:0:0:0:
256,192,728201,5,8,0:0:0:0:
256,192,728315,5,0,0:0:0:0:
256,192,728542,5,8,0:0:0:0:
256,192,728770,5,0,0:0:0:0:
256,192,728997,1,0,0:0:0:0:
256,192,729224,1,0,0:0:0:0:
256,192,729451,5,8,0:0:0:0:
256,192,729679,5,0,0:0:0:0:
256,192,729792,5,8,0:0:0:0:
256,192,729906,5,0,0:0:0:0:
256,192,730020,1,0,0:0:0:0:
256,192,730133,1,0,0:0:0:0:
256,192,730360,5,8,0:0:0:0:
256,192,730588,5,0,0:0:0:0:
256,192,730815,1,4,0:0:0:0:
256,192,731156,1,0,0:0:0:0:
256,192,731270,5,8,0:0:0:0:
256,192,731497,1,0,0:0:0:0:
256,192,731610,5,0,0:0:0:0:
256,192,731838,5,8,0:0:0:0:
256,192,731951,1,8,0:0:0:0:
256,192,732179,1,8,0:0:0:0:
256,192,732406,5,0,0:0:0:0:
256,192,732633,1,4,0:0:0:0:
256,192,732860,1,0,0:0:0:0:
256,192,733087,5,8,0:0:0:0:
256,192,733315,5,0,0:0:0:0:
256,192,733428,5,8,0:0:0:0:
256,192,733542,5,0,0:0:0:0:
256,192,733655,5,8,0:0:0:0:
256,192,733769,5,0,0:0:0:0:
256,192,733996,5,8,0:0:0:0:
256,192,734224,5,0,0:0:0:0:
256,192,734451,1,0,0:0:0:0:
256,192,734678,1,0,0:0:0:0:
256,192,734905,5,8,0:0:0:0:
256,192,735133,5,0,0:0:0:0:
256,192,735246,1,8,0:0:0:0:
256,192,735360,5,8,0:0:0:0:
256,192,735474,1,8,0:0:0:0:
256,192,735587,5,0,0:0:0:0:
256,192,735815,5,8,0:0:0:0:
256,192,736042,1,8,0:0:0:0:
256,192,736269,5,0,0:0:0:0:
256,192,736496,1,0,0:0:0:0:
256,192,736724,5,8,0:0:0:0:
256,192,736951,5,0,0:0:0:0:
256,192,737065,5,8,0:0:0:0:
256,192,737178,5,0,0:0:0:0:
256,192,737292,1,0,0:0:0:0:
256,192,737405,1,0,0:0:0:0:
256,192,737633,5,8,0:0:0:0:
256,192,737860,5,0,0:0:0:0:
256,192,738087,1,0,0:0:0:0:
256,192,738315,1,0,0:0:0:0:
256,192,738542,5,8,0:0:0:0:
256,192,738769,5,0,0:0:0:0:
256,192,738883,1,8,0:0:0:0:
256,192,738996,5,0,0:0:0:0:
256,192,739110,5,8,0:0:0:0:
256,192,739224,5,0,0:0:0:0:
256,192,739451,5,8,0:0:0:0:
256,192,739565,1,8,0:0:0:0:
256,192,739678,5,0,0:0:0:0:
256,192,739905,1,4,0:0:0:0:
256,192,740133,1,0,0:0:0:0:
256,192,740360,5,8,0:0:0:0:
256,192,740587,5,0,0:0:0:0:
256,192,740701,5,8,0:0:0:0:
256,192,740815,5,0,0:0:0:0:
256,192,740928,1,0,0:0:0:0:
256,192,741042,1,0,0:0:0:0:
256,192,741269,5,8,0:0:0:0:
256,192,741497,5,0,0:0:0:0:
256,192,741724,1,0,0:0:0:0:
256,192,741951,1,0,0:0:0:0:
256,192,742178,5,8,0:0:0:0:
256,192,742405,5,0,0:0:0:0:
256,192,742519,5,8,0:0:0:0:
256,192,742633,5,0,0:0:0:0:
256,192,742746,5,8,0:0:0:0:
256,192,742860,5,0,0:0:0:0:
256,192,743087,5,8,0:0:0:0:
256,192,743315,1,0,0:0:0:0:
256,192,743542,1,4,0:0:0:0:
256,192,743997,1,0,0:0:0:0:
256,192,744451,1,0,0:0:0:0:
256,192,744906,1,0,0:0:0:0:
256,192,745360,1,0,0:0:0:0:
256,192,745815,1,0,0:0:0:0:
256,192,746270,1,0,0:0:0:0:
256,192,746383,1,8,0:0:0:0:
256,192,746724,1,12,0:0:0:0:
256,192,747179,1,4,0:0:0:0:
256,192,747406,1,0,0:0:0:0:
256,192,747633,1,8,0:0:0:0:
256,192,747860,1,0,0:0:0:0:
256,192,747974,1,8,0:0:0:0:
256,192,748201,1,8,0:0:0:0:
256,192,748315,1,0,0:0:0:0:
256,192,748542,1,8,0:0:0:0:
256,192,748770,1,0,0:0:0:0:
256,192,748997,1,0,0:0:0:0:
256,192,749224,1,0,0:0:0:0:
256,192,749451,1,8,0:0:0:0:
256,192,749679,1,0,0:0:0:0:
256,192,749792,1,8,0:0:0:0:
256,192,750020,1,8,0:0:0:0:
256,192,750133,1,0,0:0:0:0:
256,192,750360,1,8,0:0:0:0:
256,192,750815,1,0,0:0:0:0:
256,192,751042,1,0,0:0:0:0:
256,192,751270,1,8,0:0:0:0:
256,192,751497,1,0,0:0:0:0:
256,192,751610,1,8,0:0:0:0:
256,192,751838,1,8,0:0:0:0:
256,192,751951,1,0,0:0:0:0:
256,192,752179,1,8,0:0:0:0:
256,192,752406,1,0,0:0:0:0:
256,192,752633,1,0,0:0:0:0:
256,192,752860,1,0,0:0:0:0:
256,192,753088,1,8,0:0:0:0:
256,192,753315,1,0,0:0:0:0:
256,192,753429,1,8,0:0:0:0:
256,192,753656,1,8,0:0:0:0:
256,192,753770,1,0,0:0:0:0:
256,192,753997,1,8,0:0:0:0:
256,192,754110,1,8,0:0:0:0:
256,192,754224,1,0,0:0:0:0:
256,192,754451,1,4,0:0:0:0:
256,192,754679,1,0,0:0:0:0:
256,192,754906,1,8,0:0:0:0:
256,192,755133,1,0,0:0:0:0:
256,192,755247,1,8,0:0:0:0:
256,192,755474,1,8,0:0:0:0:
256,192,755588,1,0,0:0:0:0:
256,192,755815,1,8,0:0:0:0:
256,192,756042,1,0,0:0:0:0:
256,192,756270,1,0,0:0:0:0:
256,192,756497,1,0,0:0:0:0:
256,192,756724,1,8,0:0:0:0:
256,192,756951,1,0,0:0:0:0:
256,192,757065,1,8,0:0:0:0:
256,192,757292,1,8,0:0:0:0:
256,192,757406,1,0,0:0:0:0:
256,192,757633,1,8,0:0:0:0:
256,192,758088,1,0,0:0:0:0:
256,192,758315,1,0,0:0:0:0:
256,192,758542,1,8,0:0:0:0:
256,192,758770,1,0,0:0:0:0:
256,192,758883,1,8,0:0:0:0:
256,192,759110,1,8,0:0:0:0:
256,192,759224,1,0,0:0:0:0:
256,192,759451,1,8,0:0:0:0:
256,192,759679,1,0,0:0:0:0:
256,192,759906,1,0,0:0:0:0:
256,192,760133,1,0,0:0:0:0:
256,192,760360,1,8,0:0:0:0:
256,192,760588,1,0,0:0:0:0:
256,192,760701,1,8,0:0:0:0:
256,192,760815,5,8,0:0:0:0:
256,192,760929,1,8,0:0:0:0:
256,192,761042,1,8,0:0:0:0:
256,192,761156,1,8,0:0:0:0:
256,192,761270,1,0,0:0:0:0:
256,192,761383,1,0,0:0:0:0:
256,192,761497,1,0,0:0:0:0:
256,192,761610,1,0,0:0:0:0:
256,192,761724,5,0,0:0:0:0:
256,192,762065,1,0,0:0:0:0:
256,192,762406,1,0,0:0:0:0:
256,192,762633,1,0,0:0:0:0:
256,192,762860,1,0,0:0:0:0:
256,192,763088,5,8,0:0:0:0:
256,192,763315,5,0,0:0:0:0:
256,192,763542,1,0,0:0:0:0:
256,192,763883,1,0,0:0:0:0:
256,192,764224,1,0,0:0:0:0:
256,192,764792,5,8,0:0:0:0:
256,192,764906,1,8,0:0:0:0:
256,192,765133,5,0,0:0:0:0:
256,192,765360,1,0,0:0:0:0:
256,192,765701,1,0,0:0:0:0:
256,192,766042,1,0,0:0:0:0:
256,192,766497,1,0,0:0:0:0:
256,192,766724,5,8,0:0:0:0:
256,192,766951,5,0,0:0:0:0:
256,192,767179,1,0,0:0:0:0:
256,192,767406,1,8,0:0:0:0:
256,192,767519,1,0,0:0:0:0:
256,192,767633,1,0,0:0:0:0:
256,192,767860,1,0,0:0:0:0:
256,192,768315,5,8,0:0:0:0:
256,192,768429,1,8,0:0:0:0:
256,192,768542,1,8,0:0:0:0:
256,192,768656,1,8,0:0:0:0:
256,192,768769,1,8,0:0:0:0:
256,192,768997,5,4,0:0:0:0:
256,192,769338,1,0,0:0:0:0:
256,192,769679,1,0,0:0:0:0:
256,192,770133,1,0,0:0:0:0:
256,192,770360,5,8,0:0:0:0:
256,192,770588,5,0,0:0:0:0:
256,192,770815,1,0,0:0:0:0:
256,192,771156,1,0,0:0:0:0:
256,192,771497,1,0,0:0:0:0:
256,192,771724,1,0,0:0:0:0:
256,192,771951,5,8,0:0:0:0:
256,192,772065,1,8,0:0:0:0:
256,192,772179,1,8,0:0:0:0:
256,192,772406,1,8,0:0:0:0:
256,192,772633,5,4,0:0:0:0:
256,192,772860,1,0,0:0:0:0:
256,192,773088,5,8,0:0:0:0:
256,192,773315,5,0,0:0:0:0:
256,192,773429,1,0,0:0:0:0:
256,192,773656,1,0,0:0:0:0:
256,192,773769,1,0,0:0:0:0:
256,192,773997,5,8,0:0:0:0:
256,192,774224,5,0,0:0:0:0:
256,192,774451,5,12,0:0:0:0:
256,192,774679,1,8,0:0:0:0:
256,192,774906,1,8,0:0:0:0:
256,192,775133,5,0,0:0:0:0:
256,192,775247,5,8,0:0:0:0:
256,192,775360,5,0,0:0:0:0:
256,192,775474,5,8,0:0:0:0:
256,192,775588,5,0,0:0:0:0:
256,192,775815,5,8,0:0:0:0:
256,192,775929,1,8,0:0:0:0:
256,192,776042,5,0,0:0:0:0:
256,192,776269,1,4,0:0:0:0:
256,192,776497,1,0,0:0:0:0:
256,192,776724,1,8,0:0:0:0:
256,192,776951,1,0,0:0:0:0:
256,192,777065,1,0,0:0:0:0:
256,192,777179,1,8,0:0:0:0:
256,192,777406,1,0,0:0:0:0:
256,192,777633,1,8,0:0:0:0:
256,192,777860,1,0,0:0:0:0:
256,192,777974,1,0,0:0:0:0:
256,192,778088,1,0,0:0:0:0:
256,192,778315,1,0,0:0:0:0:
256,192,778429,1,0,0:0:0:0:
256,192,778542,1,8,0:0:0:0:
256,192,778770,1,0,0:0:0:0:
256,192,778997,1,8,0:0:0:0:
256,192,779110,1,8,0:0:0:0:
256,192,779224,1,0,0:0:0:0:
256,192,779451,1,8,0:0:0:0:
256,192,779679,1,0,0:0:0:0:
256,192,779906,1,0,0:0:0:0:
256,192,780133,1,0,0:0:0:0:
256,192,780247,1,0,0:0:0:0:
256,192,780360,1,8,0:0:0:0:
256,192,780588,1,8,0:0:0:0:
256,192,780815,1,8,0:0:0:0:
256,192,780929,1,8,0:0:0:0:
256,192,781042,1,0,0:0:0:0:
256,192,781270,1,8,0:0:0:0:
256,192,781497,1,0,0:0:0:0:
256,192,781724,1,0,0:0:0:0:
256,192,781951,1,0,0:0:0:0:
256,192,782065,1,0,0:0:0:0:
256,192,782179,1,8,0:0:0:0:
256,192,782406,1,0,0:0:0:0:
256,192,782633,5,0,0:0:0:0:
256,192,782747,5,8,0:0:0:0:
256,192,783088,1,8,0:0:0:0:
256,192,783315,5,0,0:0:0:0:
256,192,783542,1,4,0:0:0:0:
256,192,783770,1,0,0:0:0:0:
256,192,783883,1,0,0:0:0:0:
256,192,783997,1,8,0:0:0:0:
256,192,784224,1,0,0:0:0:0:
256,192,784338,1,0,0:0:0:0:
256,192,784451,1,8,0:0:0:0:
256,192,784679,1,8,0:0:0:0:
256,192,784906,1,0,0:0:0:0:
256,192,785133,1,8,0:0:0:0:
256,192,785247,1,8,0:0:0:0:
256,192,785360,1,0,0:0:0:0:
256,192,785474,1,0,0:0:0:0:
256,192,785588,1,8,0:0:0:0:
256,192,785701,1,0,0:0:0:0:
256,192,785815,1,8,0:0:0:0:
256,192,786042,1,0,0:0:0:0:
256,192,786156,1,0,0:0:0:0:
256,192,786270,1,8,0:0:0:0:
256,192,786497,1,8,0:0:0:0:
256,192,786724,1,0,0:0:0:0:
256,192,786951,1,8,0:0:0:0:
256,192,787179,5,0,0:0:0:0:
256,192,787406,1,0,0:0:0:0:
256,192,787520,1,0,0:0:0:0:
256,192,787633,1,8,0:0:0:0:
256,192,787860,1,0,0:0:0:0:
256,192,788088,1,8,0:0:0:0:
256,192,788429,1,8,0:0:0:0:
256,192,788770,1,0,0:0:0:0:
256,192,788997,1,8,0:0:0:0:
256,192,789224,1,8,0:0:0:0:
256,192,789451,1,8,0:0:0:0:
256,192,789679,1,0,0:0:0:0:
256,192,789906,5,8,0:0:0:0:
256,192,790020,1,8,0:0:0:0:
256,192,790133,1,0,0:0:0:0:
256,192,790360,1,8,0:0:0:0:
256,192,790474,1,8,0:0:0:0:
256,192,790588,1,0,0:0:0:0:
256,192,790815,5,4,0:0:0:0:
256,192,791042,1,0,0:0:0:0:
256,192,791270,1,8,0:0:0:0:
256,192,791497,1,0,0:0:0:0:
256,192,791610,1,0,0:0:0:0:
256,192,791724,1,0,0:0:0:0:
256,192,791951,1,0,0:0:0:0:
256,192,792065,1,0,0:0:0:0:
256,192,792179,1,8,0:0:0:0:
256,192,792406,1,0,0:0:0:0:
256,192,792633,1,8,0:0:0:0:
256,192,792747,1,8,0:0:0:0:
256,192,792860,1,0,0:0:0:0:
256,192,792974,1,0,0:0:0:0:
256,192,793088,1,8,0:0:0:0:
256,192,793315,1,0,0:0:0:0:
256,192,793429,1,8,0:0:0:0:
256,192,793656,1,8,0:0:0:0:
256,192,793770,1,0,0:0:0:0:
256,192,793883,1,0,0:0:0:0:
256,192,793997,1,8,0:0:0:0:
256,192,794224,1,0,0:0:0:0:
256,192,794451,1,0,0:0:0:0:
256,192,794679,1,0,0:0:0:0:
256,192,794792,1,0,0:0:0:0:
256,192,794906,1,8,0:0:0:0:
256,192,795133,1,0,0:0:0:0:
256,192,795247,1,0,0:0:0:0:
256,192,795360,1,8,0:0:0:0:
256,192,795588,1,0,0:0:0:0:
256,192,795701,1,0,0:0:0:0:
256,192,795815,1,8,0:0:0:0:
256,192,796042,1,8,0:0:0:0:
256,192,796270,1,0,0:0:0:0:
256,192,796497,1,8,0:0:0:0:
256,192,796724,1,8,0:0:0:0:
256,192,796951,1,0,0:0:0:0:
256,192,797179,5,8,0:0:0:0:
256,192,797292,1,0,0:0:0:0:
256,192,797520,1,0,0:0:0:0:
256,192,797633,1,8,0:0:0:0:
256,192,797747,1,8,0:0:0:0:
256,192,797860,1,8,0:0:0:0:
256,192,798088,5,4,0:0:0:0:
256,192,798315,1,0,0:0:0:0:
256,192,798429,1,0,0:0:0:0:
256,192,798542,1,8,0:0:0:0:
256,192,798769,1,8,0:0:0:0:
256,192,798883,1,8,0:0:0:0:
256,192,798996,1,0,0:0:0:0:
256,192,799224,1,0,0:0:0:0:
256,192,799338,1,0,0:0:0:0:
256,192,799451,1,8,0:0:0:0:
256,192,799679,1,0,0:0:0:0:
256,192,799906,1,8,0:0:0:0:
256,192,800020,1,0,0:0:0:0:
256,192,800133,1,8,0:0:0:0:
256,192,800360,1,8,0:0:0:0:
256,192,800474,1,8,0:0:0:0:
256,192,800588,1,0,0:0:0:0:
256,192,800815,1,0,0:0:0:0:
256,192,800929,1,8,0:0:0:0:
256,192,801042,1,8,0:0:0:0:
256,192,801156,1,0,0:0:0:0:
256,192,801270,1,8,0:0:0:0:
256,192,801497,1,8,0:0:0:0:
256,192,801724,5,0,0:0:0:0:
256,192,801951,1,8,0:0:0:0:
256,192,802179,1,0,0:0:0:0:
256,192,802292,1,0,0:0:0:0:
256,192,802406,1,8,0:0:0:0:
256,192,802633,1,0,0:0:0:0:
256,192,802860,1,8,0:0:0:0:
256,192,802974,1,8,0:0:0:0:
256,192,803088,1,0,0:0:0:0:
256,192,803315,1,0,0:0:0:0:
256,192,803429,5,0,0:0:0:0:
256,192,803542,1,8,0:0:0:0:
256,192,803770,1,8,0:0:0:0:
256,192,803997,1,8,0:0:0:0:
256,192,804224,1,8,0:0:0:0:
256,192,804338,1,8,0:0:0:0:
256,192,804451,1,0,0:0:0:0:
256,192,804565,1,0,0:0:0:0:
256,192,804679,1,8,0:0:0:0:
256,192,804792,1,8,0:0:0:0:
256,192,804906,1,8,0:0:0:0:
256,192,805020,1,8,0:0:0:0:
256,192,805133,1,0,0:0:0:0:
256,192,805360,1,4,0:0:0:0:
256,192,805588,1,0,0:0:0:0:
256,192,805815,5,8,0:0:0:0:
256,192,806043,5,0,0:0:0:0:
256,192,806156,5,8,0:0:0:0:
256,192,806270,5,0,0:0:0:0:
256,192,806383,5,8,0:0:0:0:
256,192,806497,5,0,0:0:0:0:
256,192,806724,5,8,0:0:0:0:
256,192,806952,5,0,0:0:0:0:
256,192,807179,1,0,0:0:0:0:
256,192,807406,1,0,0:0:0:0:
256,192,807633,5,8,0:0:0:0:
256,192,807861,5,0,0:0:0:0:
256,192,807974,1,8,0:0:0:0:
256,192,808088,5,8,0:0:0:0:
256,192,808202,1,8,0:0:0:0:
256,192,808315,5,0,0:0:0:0:
256,192,808543,5,8,0:0:0:0:
256,192,808770,1,8,0:0:0:0:
256,192,808997,5,0,0:0:0:0:
256,192,809224,1,0,0:0:0:0:
256,192,809452,5,8,0:0:0:0:
256,192,809679,5,0,0:0:0:0:
256,192,809793,5,8,0:0:0:0:
256,192,809906,5,0,0:0:0:0:
256,192,810020,1,0,0:0:0:0:
256,192,810133,1,0,0:0:0:0:
256,192,810361,5,8,0:0:0:0:
256,192,810588,5,0,0:0:0:0:
256,192,810815,1,0,0:0:0:0:
256,192,811043,1,0,0:0:0:0:
256,192,811270,5,8,0:0:0:0:
256,192,811497,1,0,0:0:0:0:
256,192,811724,5,0,0:0:0:0:
256,192,811838,5,8,0:0:0:0:
256,192,812179,1,8,0:0:0:0:
256,192,812406,1,0,0:0:0:0:
256,192,812633,1,4,0:0:0:0:
256,192,812860,1,0,0:0:0:0:
256,192,813087,5,8,0:0:0:0:
256,192,813314,5,0,0:0:0:0:
256,192,813428,5,8,0:0:0:0:
256,192,813542,5,0,0:0:0:0:
256,192,813655,1,0,0:0:0:0:
256,192,813769,1,0,0:0:0:0:
256,192,813996,5,8,0:0:0:0:
256,192,814224,5,0,0:0:0:0:
256,192,814451,1,0,0:0:0:0:
256,192,814678,1,0,0:0:0:0:
256,192,814905,5,8,0:0:0:0:
256,192,815132,5,0,0:0:0:0:
256,192,815246,5,8,0:0:0:0:
256,192,815360,5,0,0:0:0:0:
256,192,815473,5,8,0:0:0:0:
256,192,815587,5,0,0:0:0:0:
256,192,815814,5,8,0:0:0:0:
256,192,816042,5,0,0:0:0:0:
256,192,816269,1,0,0:0:0:0:
256,192,816496,1,0,0:0:0:0:
256,192,816723,5,8,0:0:0:0:
256,192,816951,5,0,0:0:0:0:
256,192,817064,5,8,0:0:0:0:
256,192,817178,5,0,0:0:0:0:
256,192,817292,1,0,0:0:0:0:
256,192,817405,5,0,0:0:0:0:
256,192,817632,5,8,0:0:0:0:
256,192,817860,5,0,0:0:0:0:
256,192,818087,1,4,0:0:0:0:
256,192,818428,1,0,0:0:0:0:
256,192,818542,5,8,0:0:0:0:
256,192,818883,5,0,0:0:0:0:
256,192,818997,1,0,0:0:0:0:
256,192,819110,1,8,0:0:0:0:
256,192,819224,1,8,0:0:0:0:
256,192,819451,1,8,0:0:0:0:
256,192,819679,1,8,0:0:0:0:
256,192,819905,1,4,0:0:0:0:
256,192,820132,1,0,0:0:0:0:
256,192,820359,5,8,0:0:0:0:
256,192,820587,5,0,0:0:0:0:
256,192,820700,5,8,0:0:0:0:
256,192,820814,5,0,0:0:0:0:
256,192,820927,5,8,0:0:0:0:
256,192,821041,5,0,0:0:0:0:
256,192,821268,5,8,0:0:0:0:
256,192,821496,5,0,0:0:0:0:
256,192,821723,1,0,0:0:0:0:
256,192,821950,1,0,0:0:0:0:
256,192,822177,5,8,0:0:0:0:
256,192,822405,5,0,0:0:0:0:
256,192,822518,1,8,0:0:0:0:
256,192,822632,5,8,0:0:0:0:
256,192,822746,1,8,0:0:0:0:
256,192,822859,5,0,0:0:0:0:
256,192,823087,5,8,0:0:0:0:
256,192,823314,1,8,0:0:0:0:
256,192,823541,5,0,0:0:0:0:
256,192,823768,1,0,0:0:0:0:
256,192,823996,5,8,0:0:0:0:
256,192,824223,5,0,0:0:0:0:
256,192,824337,5,8,0:0:0:0:
256,192,824450,5,0,0:0:0:0:
256,192,824564,1,0,0:0:0:0:
256,192,824677,1,0,0:0:0:0:
256,192,824905,5,8,0:0:0:0:
256,192,825132,5,0,0:0:0:0:
256,192,825359,1,0,0:0:0:0:
256,192,825587,1,0,0:0:0:0:
256,192,825814,5,8,0:0:0:0:
256,192,826041,5,0,0:0:0:0:
256,192,826155,1,8,0:0:0:0:
256,192,826268,5,0,0:0:0:0:
256,192,826382,5,8,0:0:0:0:
256,192,826496,5,0,0:0:0:0:
256,192,826723,5,8,0:0:0:0:
256,192,826838,1,0,0:0:0:0:
256,192,826950,5,0,0:0:0:0:
256,192,827177,1,4,0:0:0:0:
256,192,827405,1,0,0:0:0:0:
256,192,827632,5,8,0:0:0:0:
256,192,827859,5,0,0:0:0:0:
256,192,827973,5,8,0:0:0:0:
256,192,828087,5,0,0:0:0:0:
256,192,828200,1,0,0:0:0:0:
256,192,828314,1,0,0:0:0:0:
256,192,828541,5,8,0:0:0:0:
256,192,828769,5,0,0:0:0:0:
256,192,828996,1,4,0:0:0:0:
256,192,829223,1,8,0:0:0:0:
256,192,829451,1,8,0:0:0:0:
256,192,829679,1,8,0:0:0:0:
256,192,829792,1,0,0:0:0:0:
256,192,830020,1,8,0:0:0:0:
256,192,830133,1,8,0:0:0:0:
256,192,830247,1,0,0:0:0:0:
256,192,830360,1,8,0:0:0:0:
256,192,830474,1,8,0:0:0:0:
256,192,830588,1,8,0:0:0:0:
256,192,830701,1,8,0:0:0:0:
256,192,830815,1,0,0:0:0:0:
256,192,832633,5,8,0:0:0:0:
256,192,832860,1,8,0:0:0:0:
256,192,833088,1,8,0:0:0:0:
256,192,833315,1,8,0:0:0:0:
256,192,833429,1,8,0:0:0:0:
256,192,833656,1,8,0:0:0:0:
256,192,833769,1,8,0:0:0:0:
256,192,833997,1,8,0:0:0:0:
256,192,834110,1,8,0:0:0:0:
256,192,834224,1,8,0:0:0:0:
256,192,834338,1,8,0:0:0:0:
