osu file format v9

[General]
AudioFilename: Kraster - Katakoi no Tsuki.mp3
AudioLeadIn: 0
PreviewTime: 42530
Countdown: 0
SampleSet: Soft
StackLeniency: 0.7
Mode: 0
LetterboxInBreaks: 0

[Editor]
DistanceSpacing: 1
BeatDivisor: 4
GridSize: 8

[Metadata]
Title:Katakoi no Tsuki
Artist:Kraster
Creator:S i R i R u
Version:Lunatic
Source:Touhou
Tags:Ibuki Suika Saigetsu Broken Moon Ne;on Atsushi Haneoka OnosakiHito

[Difficulty]
HPDrainRate:7
CircleSize:4
OverallDifficulty:8
ApproachRate:8
SliderMultiplier:1.8
SliderTickRate:0.5

[Events]
//Background and Video events
0,0,"BG.jpg"
//Break Periods
2,62636,71033
//Storyboard Layer 0 (Background)
//Storyboard Layer 1 (Fail)
//Storyboard Layer 2 (Pass)
//Storyboard Layer 3 (Foreground)
Sprite,Foreground,Centre,"Lyric\01.png",320,240 S,0,23395,,0.6096001 F,0,23395,23847,0,1 M,0,23395,28068,545,206,545,231 F,0,23847,27465,1 F,0,27465,28068,1,0
Sprite,Foreground,Centre,"Lyric\02.png",320,240 S,0,25958,,0.6608 F,0,25958,26561,0,1 M,0,25958,28068,488,312,488,293 F,0,26561,27465,1 F,0,27465,28068,1,0
Sprite,Foreground,Centre,"Lyric\03.png",320,240 S,0,28068,,0.6991998 F,0,28068,28671,0,1 M,0,28068,32892,547,222,549,261 F,0,28671,32289,1 F,0,32289,32892,1,0
Sprite,Foreground,Centre,"Lyric\04.png",320,240 F,0,30782,31385,0,1 M,0,30782,32892,483,362,483,346 F,0,31385,32289,1 F,0,32289,32892,1,0
Sprite,Foreground,Centre,"Lyric\05.png",320,240 S,0,32892,,0.6095998 F,0,32892,33495,0,1 M,0,32892,37716,548,213,547,248 F,0,33495,37113,1 F,0,37113,37716,1,0
Sprite,Foreground,Centre,"Lyric\06.png",320,240 S,0,35304,,0.6351997 F,0,35304,35907,0,1 M,0,35304,37716,486,323,487,303 F,0,35907,37113,1 F,0,37113,37716,1,0
Sprite,Foreground,Centre,"Lyric\07.png",320,240 S,0,37716,,0.6928002 F,0,37716,38244,0,0.824 M,0,37716,42540,556,193,558,247 F,0,38244,38319,0.824,1 F,0,38319,41937,1 F,0,41937,42540,1,0
Sprite,Foreground,Centre,"Lyric\08.png",320,240 F,0,40430,41033,0,1 M,0,40430,42540,483,374,482,353 F,0,41033,41937,1 F,0,41937,42013,1,0.9136 F,0,42013,42540,0.9136,0
Sprite,Foreground,Centre,"Lyric\White.jpg",320,240 S,0,23546,,1.0832 F,0,23546,23847,0,0.1568 F,0,23847,23922,0.1568,0.3903999 F,0,23922,24601,0.3903999,0 F,0,24601,33194,0 F,0,33194,33495,0,0.1344 F,0,33495,33571,0.1344,0.4287999 F,0,33571,34098,0.4287999,0 F,0,34098,42842,0 F,0,42842,43143,0,0.1216 F,0,43143,43219,0.1216,0.4736 F,0,43219,43747,0.4736,0 F,0,43747,52490,0 F,0,52490,52792,0,0.1504 F,0,52792,52867,0.1504,0.352 F,0,52867,53395,0.352,0 F,0,53395,62138,0 F,0,62138,62440,0,0.07680008 F,0,62440,62515,0.07680008,0.5952001 F,0,62515,63043,0.5952001,0 F,0,63043,71787,0 F,0,71787,72088,0,0.1439999 F,0,72088,72164,0.1439999,0.2975999 F,0,72164,72691,0.2975999,0 F,0,72691,81435,0 F,0,81435,81736,0,0.1663998 F,0,81736,81812,0.1663998,0.384 F,0,81812,82339,0.384,0 F,0,82339,91083,0 F,0,91083,91385,0,0.1888001 F,0,91385,91460,0.1888001,0.5536 F,0,91460,91988,0.5536,0 F,0,91988,100731,0 F,0,100731,101033,0,0.1727999 F,0,101033,101108,0.1727999,0.4832 F,0,101108,101636,0.4832,0 F,0,101636,110380,0 F,0,110380,110681,0,0.2624001 F,0,110681,110757,0.2624001,0.5696 F,0,110757,111887,0.5696,0
Sprite,Foreground,Centre,"Lyric\BG Effect 01.jpg",320,240 F,0,43143,43294,0,0.3584 S,0,43143,43294,0.8016,0.84 M,0,43143,71787,320,240,318,241 F,0,43294,44199,0.3584,0 S,0,43294,44199,0.84,0.8783999 F,0,44199,52792,0 S,0,44199,52792,0.8783999,0.7990541 F,0,52792,52942,0,0.4576001 S,0,52792,52942,0.7990541,0.8566541 F,0,52942,53847,0.4576001,0 S,0,52942,53847,0.8566541,0.895054 F,0,53847,60077,0 S,0,53847,91385,0.895054,0.7988843 F,0,60077,91385,0 F,0,91385,91535,0,0.4032001 S,0,91385,91535,0.7988843,0.8564842 F,0,91535,92440,0.4032001,0 S,0,91535,92440,0.8564842,0.9012843 F,0,92440,101033,0 S,0,92440,101033,0.9012843,0.8116841 F,0,101033,101184,0,0.5344 S,0,101033,101184,0.8116841,0.8500841 F,0,101184,102088,0.5344,0 S,0,101184,102088,0.8500841,0.9396839
Sprite,Foreground,Centre,"Lyric\09.png",320,240 S,0,42842,,0.6672 F,0,42842,43445,0,1 M,0,42842,47365,542,196,544,234 F,0,43445,46762,1 F,0,46762,47365,1,0
Sprite,Foreground,Centre,"Lyric\10 copy.png",320,240 S,0,45254,,0.6607999 F,0,45254,45857,0,1 M,0,45254,47365,482,317,482,303 F,0,45857,46762,1,0.9728 F,0,46762,47365,0.9728,0
Sprite,Foreground,Centre,"Lyric\11.png",320,240 S,0,47666,,0.6352 F,0,47666,48269,0,1 M,0,47666,52189,547,211,546,248 F,0,48269,51586,1 F,0,51586,52189,1,0
Sprite,Foreground,Centre,"Lyric\12.png",320,240 S,0,50078,,0.7312001 F,0,50078,50681,0,1 M,0,50078,52189,487,337,487,325 F,0,50681,51586,1 F,0,51586,52189,1,0
Sprite,Foreground,Centre,"Lyric\13.png",320,240 S,0,52189,,0.5904001 F,0,52189,52792,0,1 M,0,52189,57314,561,221,561,268 F,0,52792,56711,1 F,0,56711,57314,1,0
Sprite,Foreground,Centre,"Lyric\14.png",320,240 S,0,54902,,0.6672001 F,0,54902,55505,0,1 M,0,54902,57314,506,316,505,298 F,0,55505,56711,1 F,0,56711,57314,1,0
Sprite,Foreground,Centre,"Lyric\15.png",320,240 S,0,57314,,0.6224002 F,0,57314,57917,0,1 M,0,57314,62440,558,204,560,246 F,0,57917,61837,1 F,0,61837,62440,1,0
Sprite,Foreground,Centre,"Lyric\16.png",320,240 S,0,59726,,0.6799998 F,0,59726,60329,0,0.9807999 M,0,59726,62440,494,343,494,314 F,0,60329,61837,0.9807999,1 F,0,61837,62440,1,0
Sprite,Foreground,Centre,"Lyric\17.png",320,240 S,0,71787,,0.5967999 F,0,71787,72390,0,1 M,0,71787,76611,560,201,563,267 F,0,72390,76008,1 F,0,76008,76611,1,0
Sprite,Foreground,Centre,"Lyric\18.png",320,240 S,0,74199,,0.6159999 F,0,74199,74802,0,1 M,0,74199,76611,501,317,501,301 F,0,74802,76008,1 F,0,76008,76611,1,0
Sprite,Foreground,Centre,"Lyric\19.png",320,240 S,0,76611,,0.6288 F,0,76611,77214,0,1 M,0,76611,81435,556,188,559,240 F,0,77214,80832,1 F,0,80832,81435,1,0
Sprite,Foreground,Centre,"Lyric\20 copy.png",320,240 F,0,79023,79626,0,1 M,0,79023,81435,483,337,483,323 F,0,79626,80832,1 F,0,80832,81435,1,0
Sprite,Foreground,Centre,"Lyric\21.png",320,240 S,0,81435,,0.6031999 F,0,81435,82038,0,1 M,0,81435,86259,561,220,560,251 F,0,82038,85656,1 F,0,85656,86259,1,0
Sprite,Foreground,Centre,"Lyric\22.png",320,240 S,0,83847,,0.6352 F,0,83847,84450,0,1 M,0,83847,86259,501,310,500,296 F,0,84450,85656,1 F,0,85656,86259,1,0
Sprite,Foreground,Centre,"Lyric\23.png",320,240 S,0,86259,,0.7952002 F,0,86259,86862,0,1 M,0,86259,91083,536,178,536,219 F,0,86862,90480,1 F,0,90480,91083,1,0
Sprite,Foreground,Centre,"Lyric\24.png",320,240 S,0,87465,,0.9423999 F,0,87465,88068,0,1 M,0,87465,91083,474,318,476,301 F,0,88068,90480,1 F,0,90480,91083,1,0
Sprite,Foreground,Centre,"Lyric\25.png",320,240 S,0,91083,,0.6928002 F,0,91083,91686,0,1 M,0,91083,95907,556,204,556,245 F,0,91686,95304,1 F,0,95304,95907,1,0
Sprite,Foreground,Centre,"Lyric\26.png",320,240 S,0,93495,,0.648 F,0,93495,94098,0,1 M,0,93495,95907,495,289,495,275 F,0,94098,95304,1 F,0,95304,95907,1,0
Sprite,Foreground,Centre,"Lyric\27.png",320,240 S,0,95907,,0.6096001 F,0,95907,96510,0,1 M,0,95907,100430,555,224,555,261 F,0,96510,99827,1 F,0,99827,100430,1,0
Sprite,Foreground,Centre,"Lyric\28.png",320,240 S,0,98319,,0.7824001 F,0,98319,98922,0,1 M,0,98319,100430,492,329,492,309 F,0,98922,99827,1 F,0,99827,100430,1,0
Sprite,Foreground,Centre,"Lyric\29.png",320,240 S,0,100430,,0.6288 F,0,100430,101033,0,1 M,0,100430,105556,561,218,564,259 F,0,101033,104953,1 F,0,104953,105556,1,0
Sprite,Foreground,Centre,"Lyric\30 copy.png",320,240 S,0,103143,,0.6032001 F,0,103143,103747,0,1 M,0,103143,105556,506,292,505,279 F,0,103747,104953,1 F,0,104953,105556,1,0
Sprite,Foreground,Centre,"Lyric\31.png",320,240 S,0,105556,,0.68 F,0,105556,106159,0,1 M,0,105556,110681,554,201,556,239 F,0,106159,110078,1 F,0,110078,110681,1,0
Sprite,Foreground,Centre,"Lyric\32.png",320,240 S,0,107968,,0.7951999 F,0,107968,108420,0,1 M,0,107968,110681,497,309,497,296 F,0,108420,110078,1 F,0,110078,110681,1,0
Sprite,Foreground,Centre,"Lyric\BG Effect 01.jpg",320,240 S,0,62440,,0.8016 F,0,62440,63646,0,0.5152 F,0,63646,70882,0.5152,0.5442096 F,0,70882,72088,0.5442096,0
//Storyboard Sound Samples
//Background Colour Transformations
3,100,255,255,255

[TimingPoints]
3341,301.507537688442,4,2,1,30,1,0
23843,-100,4,2,1,60,0,0
32587,-100,4,1,0,49,0,0
33190,-100,4,2,1,60,0,0
41933,-100,4,1,0,40,0,0
42838,-100,4,2,1,60,0,0
52185,-100,4,2,1,30,0,0
52788,-100,4,2,1,60,0,0
61381,-100,4,2,1,30,0,0
61984,-100,4,2,1,41,0,0
62436,-100,4,2,1,60,0,0
80979,-100,4,1,0,40,0,0
81732,-100,4,2,1,60,0,0
90325,-100,4,1,0,51,0,0
91381,-100,4,2,1,60,0,0
99823,-100,4,1,0,40,0,0
100426,-100,4,2,1,60,0,0
100727,-100,4,2,1,60,0,0
109622,-100,4,2,1,22,0,0
110526,-100,4,2,1,60,0,0

[Colours]
Combo1 : 255,238,221
Combo2 : 128,0,255
Combo3 : 223,64,17

[HitObjects]
56,192,22637,1,2
184,64,22938,2,2,B|248:64|288:112|288:144,1,135
287,135,23240,2,2,B|288:192,2,45
376,136,23542,2,2,B|376:48,1,90
456,80,23843,5,4
480,168,23994,1,0
432,248,24145,1,8
344,264,24295,1,0
280,328,24446,2,0,B|208:344|152:288|168:224,1,180,0|8
166,228,24898,1,0
168,136,25049,2,0,B|176:80|112:56,1,90
72,136,25351,2,0,B|16:160|40:240,1,90,8|0
88,280,25652,1,0
240,184,25954,1,8
240,184,26104,1,0
256,96,26255,6,0,B|320:96|368:160|352:224,1,180,0|8
304,296,26707,1,0
304,296,26858,2,0,B|352:328|416:304|448:272|440:208,1,180,0|8
440,144,27310,1,0
440,144,27461,2,0,B|440:48,1,90
352,80,27763,1,8
272,40,27914,1,0
192,80,28064,1,0
272,128,28215,1,0
272,216,28366,1,8
272,216,28516,1,0
64,176,28667,6,0,B|64:232|112:288|200:288,1,180,4|8
183,287,29119,1,0
248,352,29270,2,0,B|292:316|291:258|268:217|208:201,1,180,0|8
223,206,29722,1,0
280,136,29873,5,0
360,176,30024,1,0
424,112,30175,1,8
376,32,30325,1,0
288,48,30476,1,0
136,192,30778,1,8
136,192,30928,1,0
136,192,31079,6,0,B|136:304|136:304|152:344|208:336,1,180,0|8
256,280,31531,1,0
256,192,31682,2,0,B|256:120|200:64|128:72,2,180,0|8|0
336,232,32436,1,0
400,296,32587,2,0,B|456:296|472:240,1,90
416,176,32888,2,0,B|384:128|416:80,1,90
409,90,33190,1,8
80,192,33491,5,4
160,144,33642,1,0
160,232,33793,2,0,B|184:280|144:336,1,90,8|0
248,320,34094,2,0,B|248:264|328:216|392:256,1,180,0|8
385,252,34547,1,0
352,336,34697,2,0,B|416:360|464:296,1,90
472,240,34999,2,0,B|472:176|400:160,1,90,8|0
336,168,35300,1,0
152,168,35602,1,8
152,168,35753,1,0
152,168,35903,6,0,B|152:72,1,90
72,128,36205,2,0,B|72:200|72:200|80:232|112:272|184:256,2,180,8|0|8
72,40,36959,1,0
152,80,37109,2,0,B|192:48|256:64,1,90
315,219,37411,2,0,B|264:192|256:144,1,90,8|0
328,96,37712,2,0,B|376:88|408:40,2,90,0|0|8
328,96,38165,1,0
240,152,38315,6,0,B|168:168|136:240|160:304,1,180,4|8
155,288,38768,1,0
232,336,38918,1,0
320,320,39069,1,0
408,344,39220,1,8
448,264,39371,1,0
360,232,39521,2,0,B|328:144,1,90
416,144,39823,2,0,B|376:40,1,90,8|0
296,64,40124,2,0,B|240:72|232:152,1,90
160,80,40426,2,0,B|136:136|152:192|208:224|272:208,2,180,8|4|8
72,328,41330,6,0,B|264:328,1,180,4|8
312,256,41783,1,4
296,80,42084,1,0
216,32,42235,2,0,B|152:24|128:96,1,90
64,120,42536,1,0
40,208,42687,1,0
128,184,42838,1,0
192,120,42989,1,0
240,200,43139,6,0,B|200:240|208:304|256:336|312:320,1,180,4|8
360,264,43592,1,0
448,240,43743,1,0
448,240,44044,1,8
472,152,44195,1,0
384,176,44346,5,0
320,112,44496,1,0
232,128,44647,1,8
192,48,44798,1,0
136,120,44949,2,0,B|56:112|24:216|96:256,1,180,0|8
144,304,45401,1,0
240,312,45552,5,4
240,312,45853,1,8
272,232,46004,1,0
344,288,46155,1,0
376,208,46305,1,0
408,128,46456,1,8
408,128,46607,1,0
328,72,46758,6,0,B|224:32,1,90,0|0
264,128,47059,2,0,B|176:184,1,90,8|0
144,96,47361,2,0,B|72:80|24:128|24:192|64:232,1,180,0|8
64,288,47813,1,0
160,296,47964,6,0,B|160:248|256:192|328:272,1,180,4|8
360,320,48416,1,0
360,320,48567,2,0,B|400:360|472:328,1,90
424,248,48868,2,0,B|440:176|352:168,1,90,8|0
296,176,49170,2,0,B|232:176|216:112,1,90
47,106,49471,2,0,B|96:80|144:112,1,90,8|0
152,192,49773,2,0,B|112:232|152:304,1,90
208,344,50074,1,8
280,288,50225,1,0
360,328,50376,5,4
360,128,50677,1,8
360,128,50828,1,0
288,64,50979,2,0,B|248:32|192:48,1,90
136,120,51280,2,0,B|72:152|88:248|168:248,2,180,8|8|8
232,144,52034,1,0
280,232,52185,1,2
280,232,52335,2,2,B|280:328,2,90
376,232,52788,6,0,B|440:216|464:128|400:80,1,180,4|8
409,88,53240,1,0
328,48,53391,2,0,B|144:48,1,180,0|8
148,48,53843,1,0
80,112,53994,1,0
144,176,54145,1,0
232,168,54295,1,8
296,224,54446,1,0
288,312,54597,1,0
32,344,54898,1,8
32,344,55049,1,0
105,289,55200,6,0,B|65:241|49:185|75:112,1,180,4|8
152,80,55652,1,0
232,40,55803,2,0,B|328:40,1,90
280,120,56104,1,8
368,120,56255,1,0
424,192,56406,1,0
424,192,56557,2,0,B|432:248|384:272,1,90,0|8
312,232,56858,1,0
232,200,57009,2,0,B|168:176|128:224|128:296|200:312,1,180,0|8
174,301,57461,1,0
256,336,57612,5,4
136,200,57913,1,8
176,120,58064,1,0
264,88,58215,2,0,B|360:88,2,90,0|0|8
192,32,58667,1,0
104,64,58818,2,0,B|40:72|8:160|56:216,1,180,0|8
48,205,59270,1,0
128,248,59421,2,0,B|176:272|176:336,1,90
88,336,59722,5,8
256,192,59873,1,0
256,280,60024,6,0,B|304:280|344:240|352:192|328:144,1,180,4|8
256,96,60476,1,0
328,48,60627,2,0,B|376:32|416:64,1,90
464,136,60928,1,8
424,216,61079,1,0
464,296,61230,6,0,B|448:344|400:368,1,90,0|2
352,296,61531,2,2,B|312:320|264:296,1,90
288,208,61833,2,0,B|296:136|200:88|128:136,2,180,2|4|4
256,320,71783,5,0
336,280,71933,1,0
256,232,72084,2,0,B|216:200|224:136|280:104|336:128,1,180,4|8
323,123,72536,1,0
376,200,72687,2,0,B|424:184|440:120|424:64|360:48,1,180,0|8
288,40,73139,1,0
208,72,73290,1,0
160,144,73441,1,0
152,232,73592,2,0,B|152:328,1,90,8|0
232,280,73893,2,0,B|248:240|328:240|376:296|344:352,1,180,0|8
264,360,74346,1,0
176,344,74496,6,0,B|104:344|72:288,1,90
24,256,74798,2,0,B|64:232|64:168,1,90,8|0
24,96,75099,2,0,B|64:56|152:64|184:120,1,180,0|8
182,117,75552,1,0
182,117,75702,2,0,B|184:216,1,90
272,176,76004,5,8
272,264,76155,1,0
344,312,76305,1,0
416,264,76456,1,0
416,176,76607,1,8
344,224,76758,1,0
344,112,76908,6,0,B|320:64|256:48|192:56|176:96,1,180,4|8
136,152,77361,1,0
184,224,77511,2,0,B|128:248|80:240|40:192|48:136,1,180,0|8
80,72,77964,1,0
168,56,78114,6,0,B|224:56|248:120,1,90
264,192,78416,2,0,B|272:248|336:264,1,90,8|0
392,312,78717,1,0
392,312,79019,1,8
392,312,79170,1,0
392,224,79320,6,0,B|392:136|392:136|392:120|368:80|320:80,1,180,0|8
240,112,79773,1,0
312,168,79923,1,0
312,168,80225,2,0,B|312:360,1,180,8|0
232,304,80677,1,0
144,328,80828,1,8
72,272,80979,2,0,B|32:248,2,45
136,208,81280,1,0
56,160,81431,1,0
48,72,81582,1,0
128,48,81732,6,0,B|224:48,1,90,4|0
218,48,82034,2,0,B|280:48|304:112,1,90,8|0
296,176,82335,2,0,B|360:176|384:136|392:80|368:48,1,180,0|8
368,49,82788,1,0
456,48,82938,2,0,B|472:96|448:160,1,90
416,216,83240,2,0,B|384:248|336:256,1,90,8|0
256,304,83542,1,0
176,344,83692,1,0
176,344,83768,1,0
176,344,83843,2,0,B|80:344,1,90,8|0
72,256,84145,5,0
144,208,84295,1,0
104,128,84446,1,8
192,120,84597,1,0
264,176,84748,2,0,B|280:224|344:224,1,90
344,136,85049,2,0,B|336:80|416:32|472:64|496:88,1,180,8|0
478,74,85501,1,0
432,152,85652,2,0,B|432:200|376:224,1,90,8|0
232,312,85954,2,0,B|250:259|322:259,1,90
376,312,86255,1,8
376,312,86406,1,0
464,312,86557,5,4
312,216,86858,1,8
240,160,87009,1,0
152,192,87160,1,0
152,280,87310,1,0
152,192,87461,2,0,B|88:192|40:248|56:304|80:344,2,180,8|4|4
256,40,88366,1,4
432,40,88667,1,4
344,200,88969,1,4
48,120,89270,5,8
48,120,89421,1,0
48,208,89572,2,0,B|48:248|48:248|48:280|104:328|176:304,1,180,4|0
160,216,90024,2,0,B|224:216|248:280,1,90,4|0
256,344,90325,6,0,B|328:344,2,45
160,344,90627,1,0
72,304,90778,1,0
48,208,90928,1,0
72,112,91079,1,0
72,112,91230,1,0
184,56,91381,6,0,B|264:64|288:136|256:200,1,180,4|8
184,144,91833,1,0
184,144,91984,2,0,B|184:248,1,90
184,234,92285,2,0,B|184:296|256:312,1,90,8|0
312,272,92587,1,0
392,312,92737,1,0
456,248,92888,1,8
432,160,93039,1,0
344,184,93190,2,0,B|328:128|360:64|432:56|464:80,1,180,0|8
432,160,93642,1,0
344,184,93793,6,0,B|160:184,1,180,4|8
164,184,94245,1,0
152,96,94396,2,0,B|96:104|64:144|56:216|112:256,1,180,0|8
88,232,94848,1,0
136,312,94999,6,0,B|160:352|224:344,1,90
256,176,95300,2,0,B|248:120|320:96,1,90,8|0
456,168,95602,2,0,B|472:208|456:288|392:304|352:304,1,180,0|8
372,302,96054,1,0
344,216,96205,5,4
168,176,96506,1,8
216,96,96657,1,0
128,96,96808,2,0,B|72:120|72:192,1,90
117,332,97109,2,0,B|136:272|96:232,1,90,8|0
16,240,97411,5,0
117,332,97562,1,0
264,336,97712,1,8
368,240,97863,1,0
352,328,98014,6,0,B|400:344|448:320|472:264|456:216,1,180,0|8
480,136,98466,1,0
392,152,98617,2,0,B|376:96|312:88,1,90,4|0
256,144,98918,1,8
184,200,99069,1,0
112,144,99220,2,0,B|120:80|184:64,1,90
48,208,99521,2,0,B|40:256|88:304|144:312|192:280,1,180,8|0
256,320,99974,5,0
344,304,100124,1,0
392,224,100275,1,0
392,136,100426,1,0
256,48,100727,5,0
192,112,100878,1,0
240,184,101029,2,0,B|232:248|176:280|112:256|96:224,1,180,4|8
104,236,101481,1,0
112,144,101632,2,0,B|88:96|32:96,2,90,0|0|8
32,184,102084,1,0
24,272,102235,2,0,B|40:320|104:328,1,90
184,320,102536,2,0,B|224:296|288:320,1,90,8|0
280,224,102838,2,0,B|256:176|304:88|400:112,1,180,0|8
368,200,103290,5,0
368,200,103441,2,0,B|416:232|416:296|384:336|336:336,1,180,4|8
341,335,103893,1,0
256,312,104044,2,0,B|232:264|152:280,1,90
179,276,104346,2,0,B|112:288|96:232,1,90,8|0
128,160,104647,1,0
192,96,104798,1,0
216,184,104949,1,8
280,120,105099,1,0
304,208,105250,2,0,B|352:208|400:144|376:80|344:40,1,180,0|8
361,66,105702,1,0
464,104,105853,5,4
456,288,106155,1,8
392,352,106305,1,0
304,320,106456,2,0,B|264:280|192:304,1,90
152,129,106758,2,0,B|136:184|176:224,1,90,8|0
128,296,107059,2,0,B|80:320|64:368,2,90,0|0|8
128,296,107511,1,0
80,216,107662,2,0,B|128:192|200:208|224:264|216:320,1,180,0|8
184,368,108114,1,0
288,344,108265,6,0,B|352:312|384:248|376:192,1,180,4|8
288,224,108717,1,0
288,224,108868,2,0,B|288:112,1,90
288,40,109170,2,0,B|216:40|200:112,1,90,8|0
152,144,109471,1,0
72,192,109622,5,2
104,296,109773,1,2
208,272,109923,1,2
304,328,110074,1,2
472,192,110376,1,2
472,192,110677,1,4
