osu file format v9

[General]
AudioFilename: 02.Desire.mp3
AudioLeadIn: 2000
PreviewTime: 27279
Countdown: 0
SampleSet: Soft
StackLeniency: 0.7
Mode: 0
LetterboxInBreaks: 0

[Editor]
Bookmarks: 2410,3200,4581,7345,136621
DistanceSpacing: 1
BeatDivisor: 4
GridSize: 8

[Metadata]
Title:Desire?
Artist:Kraster
Creator:KuraiPettan
Version:Normal
Source:Touhou
Tags:Keine Kamishirasawa Ne;on Fight69 omegaflo comiket 77 C77

[Difficulty]
HPDrainRate:1
CircleSize:3
OverallDifficulty:1
ApproachRate:1
SliderMultiplier:0.999999999999999
SliderTickRate:1

[Events]
//Background and Video events
0,0,"BG.jpg"
//Break Periods
2,81597,82875
2,151070,161822
//Storyboard Layer 0 (Background)
//Storyboard Layer 1 (Fail)
//Storyboard Layer 2 (Pass)
//Storyboard Layer 3 (Foreground)
//Storyboard Sound Samples
//Background Colour Transformations
3,100,163,162,255

[TimingPoints]
871,394.736842105263,4,2,0,100,1,0
1621,-100,4,1,0,70,0,0
56125,-100,4,1,0,70,0,1
62016,-100,4,1,0,70,0,0
62440,-100,4,1,0,70,0,1
68331,-100,4,1,0,70,0,0
68756,-100,4,1,0,70,0,1
74647,-100,4,1,0,70,0,0
75072,-100,4,1,0,70,0,1
81352,-100,4,1,0,70,0,0
120831,-200,4,1,0,70,0,0
122410,-100,4,1,0,70,0,0
125598,-100,4,1,0,70,0,1
131489,-100,4,1,0,70,0,0
131914,-100,4,1,0,70,0,1
137805,-100,4,1,0,70,0,0
138230,-100,4,1,0,70,0,1
144121,-100,4,1,0,70,0,0
144546,-100,4,1,0,70,0,1
149253,-100,4,1,0,70,0,0
163759,-100,4,1,0,54,0,0
163956,-100,4,1,0,70,0,0
164549,-100,4,1,0,54,0,0
164746,-100,4,1,0,70,0,0
166917,-100,4,1,0,54,0,0
167114,-100,4,1,0,70,0,0
167706,-100,4,1,0,54,0,0
167904,-100,4,1,0,70,0,0
169285,-100,4,1,0,54,0,0
169483,-100,4,1,0,70,0,0
170864,-100,4,1,0,54,0,0
171062,-100,4,1,0,71,0,0
171654,-100,4,1,0,54,0,0
171851,-100,4,1,0,71,0,0
173233,-100,4,1,0,54,0,0
173430,-100,4,1,0,71,0,0
174022,-100,4,1,0,54,0,0
174220,-100,4,1,0,71,0,0
174812,-100,4,1,0,54,0,0
175009,-100,4,1,0,70,0,0
178463,-100,4,1,0,71,0,0
179283,-100,4,1,0,71,0,1
185174,-100,4,1,0,71,0,0
185598,-100,4,1,0,71,0,1
191391,-100,4,2,0,0,0,0
191588,-100,4,1,0,71,0,0
191914,-100,4,1,0,71,0,1
197805,-100,4,1,0,71,0,0
198230,-100,4,1,0,71,0,1
202937,-100,4,1,0,71,0,0

[Colours]
Combo1 : 74,163,181
Combo2 : 88,74,181
Combo3 : 197,58,80

[HitObjects]
208,328,871,1,4
304,328,1265,1,4
408,328,1660,6,0,B|472:328|488:264|472:192|392:192,1,200,0|4
336,264,2844,1,8
288,176,3239,2,0,B|248:128|168:136,1,99.9999999999999,0|8
208,232,4028,2,0,B|168:280|88:272,1,99.9999999999999,0|8
96,176,4818,2,0,B|32:176|11:111|30:36|112:40,1,200,0|0
168,104,6002,5,8
256,64,6397,2,0,B|320:72|352:128,1,99.9999999999999,0|8
264,176,7186,1,0
352,224,7581,1,8
264,280,7975,2,0,B|216:208|136:352|72:256,1,200,0|4
144,192,9160,1,8
208,120,9554,5,0
296,80,9949,2,0,B|352:64|408:72,1,99.9999999999999,8|0
440,160,10739,2,0,B|456:216|448:272,1,99.9999999999999,8|0
256,192,11923,5,0
336,248,12318,2,0,B|304:304|232:296,2,99.9999999999999,8|0|8
256,192,13502,1,0
171,244,13897,1,8
128,152,14292,6,0,B|128:88|192:56,1,99.9999999999999,4|8
216,160,15081,2,0,B|216:224|152:256,2,99.9999999999999,4|8|0
224,64,16265,1,8
328,64,16660,2,0,B|392:64|424:128,1,99.9999999999999,0|8
336,168,17449,6,0,B|318:229|248:242,1,99.9999999999999,0|8
224,144,18239,2,0,B|168:160|152:240,1,99.9999999999999,0|8
176,312,19028,1,0
80,288,19423,1,8
72,192,19818,2,0,B|66:133|135:90,1,99.9999999999999,0|8
208,72,20607,6,0,B|208:136|280:136,1,99.9999999999999,4|8
360,184,21397,2,0,B|360:248|288:248,1,99.9999999999999,4|8
232,320,22186,1,0
160,248,22581,1,8
232,176,22976,2,0,B|232:112|160:112,2,99.9999999999999,0|8|0
304,248,24160,1,8
256,192,24555,12,0,27120
128,152,27713,6,0,B|128:88|192:56,1,99.9999999999999,4|8
216,160,28502,2,0,B|216:224|152:256,2,99.9999999999999,0|8|0
224,64,29686,1,8
328,64,30081,2,0,B|392:64|424:128,1,99.9999999999999,0|8
336,168,30870,6,0,B|318:229|248:242,1,99.9999999999999,0|8
224,144,31660,2,0,B|168:160|152:240,1,99.9999999999999,0|8
176,312,32449,1,0
80,288,32844,1,8
72,192,33239,2,0,B|66:133|135:90,1,99.9999999999999,0|8
208,72,34028,6,0,B|208:136|280:136,1,99.9999999999999,4|8
360,184,34818,2,0,B|360:248|288:248,1,99.9999999999999,0|8
232,320,35607,1,0
160,248,36002,1,8
232,176,36397,2,0,B|232:112|160:112,1,99.9999999999999,0|8
96,184,37186,6,0,B|32:184|8:248|32:312|96:312,1,200
176,256,38370,1,8
256,312,38765,2,0,B|304:264|384:376|480:288,1,200,0|4
376,224,39949,1,8
304,152,40344,6,0,B|264:120|248:72|248:72|224:120|176:160,2,200,4|0|0
256,240,42318,1,8
160,272,42713,2,0,B|112:256|104:192,1,99.9999999999999,0|8
168,120,43502,6,0,B|168:56|232:32|296:56|296:120,1,200
240,200,44686,1,8
296,280,45081,2,0,B|296:344|232:368|168:344|168:280,1,200
112,200,46265,1,8
168,120,46660,6,0,B|168:56|232:32|296:56|296:120,1,200
352,200,47844,1,8
432,256,48239,2,0,B|416:312|336:320,1,99.9999999999999,0|8
264,344,49028,2,0,B|208:328|200:248,1,99.9999999999999,0|8
256,184,49818,2,0,B|176:144|120:224|48:176,1,200
232,72,51397,5,4
392,192,52186,1,4
232,304,52976,1,4
256,192,53074,12,0,54555
112,80,55344,6,0,B|176:72|200:128,1,99.9999999999999,0|8
120,184,56134,1,4
144,280,56528,1,8
224,216,56923,1,0
272,304,57318,6,0,B|328:304|360:240,1,99.9999999999999,8|0
432,192,58107,1,8
360,120,58502,2,0,B|320:64|264:64,1,99.9999999999999,0|8
176,64,59292,1,0
112,144,59686,2,0,B|168:208|64:280|128:352,1,200,8|8
200,280,60870,2,0,B|264:224|336:328|408:264,1,200
344,184,62055,1,8
264,128,62449,6,0,B|264:64|200:40|136:64|136:128,1,200,4|0
152,224,63634,2,0,B|208:248|264:216,2,99.9999999999999,8|0|8
80,152,64818,1,0
152,80,65213,2,0,B|208:56|264:88,1,99.9999999999999,8|0
312,160,66002,1,8
376,240,66397,2,0,B|376:304|312:328|248:304|248:240,1,200,0|4
64,56,68370,6,0,B|64:120|112:152,1,99.9999999999999,8|4
176,80,69160,1,8
256,144,69555,2,0,B|312:216|408:80|480:168,1,200
400,232,70739,1,8
328,296,71134,2,0,B|268:324|204:285,1,99.9999999999999,0|8
144,256,71923,6,0,B|80:256|64:192|80:120|160:120,1,200
216,192,73107,1,8
272,112,73502,1,0
336,192,73897,2,0,B|392:176|464:200,1,99.9999999999999,8|0
384,280,74687,1,8
296,320,75081,5,4
200,344,75476,1,8
104,328,75870,2,0,B|40:328|24:264|40:192|120:192,1,200,0|0
136,96,77055,2,0,B|192:80|264:104,2,99.9999999999999,8|0|8
200,176,78239,2,0,B|256:192|328:168,3,99.9999999999999,0|8|0|8
256,192,79818,12,0,81397
104,328,84555,6,0,B|40:328|24:264|40:192|120:192,1,200,4|0
176,264,85739,1,8
224,176,86134,2,0,B|264:128|344:136,1,99.9999999999999,0|8
304,232,86923,2,0,B|344:280|424:272,1,99.9999999999999,0|8
416,176,87713,2,0,B|480:176|501:111|482:36|400:40,1,200,0|0
344,104,88897,5,8
256,64,89292,2,0,B|192:72|160:128,1,99.9999999999999,0|8
248,176,90081,1,0
160,224,90476,1,8
72,280,90870,2,0,B|120:208|200:352|264:256,1,200,4|0
336,216,92055,1,8
304,120,92449,5,0
216,80,92844,2,0,B|160:64|104:72,1,99.9999999999999,8|0
72,160,93634,2,0,B|56:216|64:272,1,99.9999999999999,8|0
256,192,94818,5,0
176,248,95213,2,0,B|208:304|280:296,2,99.9999999999999,8|0|8
256,192,96397,1,0
341,244,96792,1,8
384,152,97186,6,0,B|384:88|320:56,1,99.9999999999999,4|8
296,160,97975,2,0,B|296:224|360:256,2,99.9999999999999,0|8|0
288,64,99159,1,8
184,64,99554,2,0,B|120:64|88:128,1,99.9999999999999,0|8
176,168,100343,6,0,B|194:229|264:242,1,99.9999999999999,0|8
288,144,101133,2,0,B|344:160|360:240,1,99.9999999999999,0|8
336,312,101922,1,0
432,288,102317,1,8
440,192,102712,2,0,B|446:133|377:90,1,99.9999999999999,0|8
304,72,103501,6,0,B|304:136|232:136,1,99.9999999999999,4|8
152,184,104291,2,0,B|152:248|224:248,1,99.9999999999999,0|8
280,320,105080,1,0
352,248,105475,1,8
280,176,105870,2,0,B|280:112|352:112,1,99.9999999999999,0|8
416,184,106659,6,0,B|480:184|504:248|480:312|416:312,1,200
336,256,107843,1,8
256,312,108238,2,0,B|208:264|128:376|32:288,1,200,0|4
136,224,109422,1,8
208,152,109817,6,0,B|248:120|264:72|264:72|288:120|336:160,2,200,4|0|0
256,240,111791,1,8
352,272,112186,2,0,B|400:256|408:192,1,99.9999999999999,0|8
344,120,112975,6,0,B|344:56|280:32|216:56|216:120,1,200
272,200,114159,1,8
216,280,114554,2,0,B|216:344|280:368|344:344|344:280,1,200
400,200,115738,1,8
344,120,116133,6,0,B|344:56|280:32|216:56|216:120,1,200,4|0
160,200,117317,1,8
80,256,117712,2,0,B|96:312|176:320,1,99.9999999999999,0|8
248,344,118501,2,0,B|304:328|312:248,1,99.9999999999999,0|8
256,184,119291,2,0,B|336:144|392:224|464:176,1,200
280,72,120870,5,4
120,192,121659,1,4
280,304,122449,1,4
256,192,122547,12,0,124028
400,80,124817,6,0,B|336:72|312:128,1,99.9999999999999,0|8
392,184,125607,1,4
368,280,126001,1,8
288,216,126396,1,0
240,304,126791,6,0,B|184:304|152:240,1,99.9999999999999,8|0
80,192,127580,1,8
152,120,127975,2,0,B|192:64|248:64,1,99.9999999999999,0|8
336,64,128765,1,0
400,144,129159,2,0,B|344:208|448:280|384:352,1,200,8|8
312,280,130343,2,0,B|248:224|176:328|104:264,1,200
168,184,131528,1,8
248,128,131922,6,0,B|248:64|312:40|376:64|376:128,1,200,4|0
360,224,133107,2,0,B|304:248|248:216,2,99.9999999999999,8|0|8
432,152,134291,1,0
360,80,134686,2,0,B|304:56|248:88,1,99.9999999999999,8|0
200,160,135475,1,8
136,240,135870,2,0,B|136:304|200:328|264:304|264:240,1,200,0|4
448,56,137843,6,0,B|448:120|400:152,1,99.9999999999999,8|4
336,80,138633,1,8
256,144,139028,2,0,B|200:216|104:80|32:168,1,200
112,232,140212,1,8
184,296,140607,2,0,B|244:324|308:285,1,99.9999999999999,0|8
368,256,141396,6,0,B|432:256|448:192|432:120|352:120,1,200
296,192,142580,1,8
240,112,142975,1,0
176,192,143370,2,0,B|120:176|48:200,1,99.9999999999999,8|0
128,280,144160,1,8
216,320,144554,5,4
312,344,144949,1,8
408,328,145343,2,0,B|472:328|488:264|472:192|392:192,1,200,0|0
376,96,146528,2,0,B|320:80|248:104,2,99.9999999999999,8|0|8
312,176,147712,2,0,B|256:192|184:168,3,99.9999999999999,0|8|0|8
256,192,149291,12,0,150870
184,120,163502,6,0,B|232:88|256:48|256:48|280:88|328:120,2,200
64,320,166660,6,0,B|120:296|128:224,1,99.9999999999999,0|8
208,296,167449,1,0
288,240,167844,2,0,B|296:304|360:328,1,99.9999999999999,8|0
400,240,168634,2,0,B|448:208|456:152,1,99.9999999999999,8|0
352,144,169423,2,0,B|312:104|336:40,1,99.9999999999999,8|4
144,112,170607,6,0,B|192:144|208:216,1,99.9999999999999,0|8
104,224,171397,1,0
152,312,171792,2,0,B|240:272|280:352|352:312,1,200,8|4
304,224,172976,5,0
392,168,173370,1,8
304,112,173765,1,0
216,168,174160,2,0,B|160:168|120:112,1,99.9999999999999,8|0
56,192,174949,2,0,B|104:240|112:304,1,99.9999999999999,8|0
208,272,175739,1,0
256,192,176134,12,0,177713
400,304,178502,6,0,B|336:312|312:256,1,99.9999999999999,0|8
392,200,179292,1,4
368,104,179686,1,8
288,168,180081,1,0
240,80,180476,6,0,B|184:80|152:144,1,99.9999999999999,8|0
80,192,181265,1,8
152,264,181660,2,0,B|192:320|248:320,1,99.9999999999999,0|8
336,320,182450,1,0
400,240,182844,2,0,B|344:176|448:104|384:32,1,200,8|8
312,104,184028,2,0,B|248:160|176:56|104:120,1,200
168,200,185213,1,8
248,256,185607,6,0,B|248:320|312:344|376:320|376:256,1,200,4|0
360,160,186792,2,0,B|304:136|248:168,2,99.9999999999999,8|0|8
432,232,187976,1,0
360,304,188371,2,0,B|304:328|248:296,1,99.9999999999999,8|0
200,224,189160,1,8
136,144,189555,2,0,B|160:96|224:72,1,99.9999999999999
256,192,190344,12,0,191528
409,239,191923,5,4
336,304,192318,1,8
256,240,192713,2,0,B|200:168|104:304|32:216,1,200
112,152,193897,1,8
184,88,194292,2,0,B|244:60|308:99,1,99.9999999999999,0|8
368,128,195081,6,0,B|432:128|448:192|432:264|352:264,1,200
296,192,196265,1,8
240,272,196660,1,0
176,192,197055,2,0,B|120:208|48:184,1,99.9999999999999,8|0
128,104,197845,1,8
216,64,198239,5,4
312,40,198634,1,8
408,56,199028,2,0,B|472:56|488:120|472:192|392:192,1,200,0|0
376,288,200213,2,0,B|320:304|248:280,2,99.9999999999999,8|0|8
312,208,201397,2,0,B|256:192|184:216,3,99.9999999999999,0|8|0|8
256,192,202976,12,4,204555
