osu file format v9

[General]
AudioFilename: 02.Desire.mp3
AudioLeadIn: 2000
PreviewTime: 27279
Countdown: 0
SampleSet: Soft
StackLeniency: 0.7
Mode: 0
LetterboxInBreaks: 0

[Editor]
Bookmarks: 2410,3200,4581,7345,136621
DistanceSpacing: 1
BeatDivisor: 4
GridSize: 8

[Metadata]
Title:Desire?
Artist:Kraster
Creator:KuraiPettan
Version:Lunatic
Source:Touhou
Tags:Keine Kamishirasawa Ne;on Fight69 omegaflo comiket 77 C77

[Difficulty]
HPDrainRate:7
CircleSize:4
OverallDifficulty:8
ApproachRate:9
SliderMultiplier:2
SliderTickRate:2

[Events]
//Background and Video events
0,0,"BG.jpg"
//Break Periods
2,81597,83955
2,151071,162902
//Storyboard Layer 0 (Background)
//Storyboard Layer 1 (Fail)
//Storyboard Layer 2 (Pass)
//Storyboard Layer 3 (Foreground)
//Storyboard Sound Samples
//Background Colour Transformations
3,100,163,162,255

[TimingPoints]
871,394.736842105263,4,2,0,70,1,0
1651,-100,4,1,0,70,0,0
8628,-200,4,1,0,70,0,0
9121,-100,4,1,0,70,0,0
10996,-200,4,1,0,70,0,0
11489,-100,4,1,0,70,0,0
14746,-100,4,2,0,100,0,0
14943,-100,4,1,0,70,0,0
17312,-200,4,1,0,70,0,0
17805,-100,4,1,0,70,0,0
23628,-200,4,1,0,70,0,0
24121,-100,4,1,0,70,0,0
51259,-200,4,1,0,70,0,0
53035,-100,4,1,0,70,0,0
56125,-100,4,1,0,70,0,1
62016,-100,4,1,0,70,0,0
62440,-100,4,1,0,70,0,1
68331,-100,4,1,0,70,0,0
68756,-100,4,1,0,70,0,1
74647,-100,4,1,0,70,0,0
75072,-100,4,1,0,70,0,1
81358,-200,4,1,0,70,0,0
84910,-100,4,1,0,70,0,0
120733,-200,4,1,0,70,0,0
122410,-100,4,1,0,70,0,0
125598,-100,4,1,0,70,0,1
131489,-100,4,1,0,70,0,0
131914,-100,4,1,0,70,0,1
137805,-100,4,1,0,70,0,0
138230,-100,4,1,0,70,0,1
144121,-100,4,1,0,70,0,0
144546,-100,4,1,0,70,0,1
149253,-100,4,1,0,70,0,0
163759,-100,4,1,0,54,0,0
163956,-100,4,1,0,70,0,0
164549,-100,4,1,0,54,0,0
164746,-100,4,1,0,70,0,0
166917,-100,4,1,0,54,0,0
167114,-100,4,1,0,70,0,0
167706,-100,4,1,0,54,0,0
167904,-100,4,1,0,70,0,0
169285,-100,4,1,0,54,0,0
169483,-100,4,1,0,70,0,0
170864,-100,4,1,0,54,0,0
171062,-100,4,1,0,71,0,0
171654,-100,4,1,0,54,0,0
171851,-100,4,1,0,71,0,0
172285,-100,4,1,0,41,0,0
172482,-100,4,1,0,71,0,0
173233,-100,4,1,0,54,0,0
173430,-100,4,1,0,71,0,0
174022,-100,4,1,0,54,0,0
174220,-100,4,1,0,71,0,0
174812,-100,4,1,0,54,0,0
175009,-100,4,1,0,70,0,0
175601,-100,4,1,0,54,0,0
178463,-100,4,1,0,71,0,0
179283,-100,4,1,0,71,0,1
185174,-100,4,1,0,71,0,0
185598,-100,4,1,0,71,0,1
190996,-100,4,2,0,0,0,0
191193,-100,4,1,0,71,0,0
191914,-100,4,1,0,71,0,1
197805,-100,4,1,0,71,0,0
198230,-100,4,1,0,71,0,1
202937,-100,4,1,0,71,0,0

[Colours]
Combo1 : 74,163,181
Combo2 : 88,74,181
Combo3 : 197,58,80

[HitObjects]
256,96,870,1,4
256,296,1265,1,4
88,192,1660,5,4
184,192,1857,1,0
232,192,1956,1,0
280,192,2055,1,0
328,192,2153,1,0
376,192,2252,1,0
200,288,2449,6,0,B|312:288,1,100,4|0
344,288,2746,1,0
392,288,2844,1,8
440,192,3042,1,0
280,64,3239,1,0
184,64,3436,6,0,B|144:136|144:200,1,100,0|8
48,144,3831,2,0,B|88:216|88:280,1,100
184,256,4226,2,0,B|144:328|144:392,1,100,0|8
280,200,4621,5,0
328,112,4818,2,0,B|432:112,2,100,0|0|8
144,192,5607,1,0
72,120,5805,2,0,B|104:64|176:64,2,100,0|8|0
48,216,6397,2,0,B|48:360,1,100
49,316,6989,1,4
248,312,7384,1,0
344,272,7581,2,0,B|400:232|384:168,1,100,8|0
312,120,7976,5,0
184,272,8173,1,0
56,120,8371,1,8
392,200,8765,6,0,B|424:240|448:168|496:208,1,100,4|8
456,296,9357,1,0
360,336,9555,1,0
272,296,9752,2,0,B|232:248|240:168,1,100,0|8
336,176,10147,2,0,B|376:128|368:48,1,100
272,96,10542,2,0,B|224:56|144:64,1,100,0|8
72,232,10936,5,0
136,304,11134,2,0,B|184:328|184:272|248:312,1,100,0|8
400,192,11923,6,0,B|440:136|384:80,1,100
312,152,12318,1,8
240,224,12515,1,0
144,48,12713,1,0
40,224,12910,2,0,B|40:336,2,100,0|8|4
216,320,13699,6,0,B|272:312|320:240,1,100,0|8
304,168,14094,2,0,B|360:176|408:248,2,100
216,224,14686,1,8
144,40,14884,1,4
80,224,15081,21,4
240,112,15278,1,0
40,112,15476,1,8
432,192,15870,21,0
376,272,16068,2,0,B|328:240|336:160,1,100,0|8
384,96,16463,2,0,B|272:96,1,100
192,272,16857,1,0
88,96,17055,5,8
136,184,17252,1,0
192,272,17449,2,0,B|256:368,1,100,0|8
144,48,18239,5,0
240,80,18436,2,0,B|240:184,1,100,0|8
312,248,18831,1,0
448,104,19028,5,0
360,288,19226,1,0
152,288,19423,1,8
64,104,19620,1,0
256,216,20015,6,0,B|208:224|160:280,1,100,0|8
256,216,20410,2,0,B|304:224|352:280,1,100
352,360,20805,1,0
152,360,21002,1,8
256,192,21397,6,0,B|256:128|352:104,1,100,4|0
256,192,21792,2,0,B|256:128|160:104,1,100,8|0
104,80,22186,5,0
152,272,22384,1,0
360,272,22581,1,8
408,80,22778,1,0
408,280,23173,5,0
344,200,23371,1,8
280,280,23568,1,0
224,200,23765,2,0,B|112:200,1,100,0|8
256,192,24555,12,0,27318
80,72,27713,6,0,B|160:72|216:120,1,100,8|0
192,192,28107,1,0
104,232,28305,1,0
32,160,28502,5,8
256,360,28798,1,0
480,160,29094,1,0
416,88,29292,6,0,B|368:40|288:48,1,100,8|0
272,128,29686,1,0
336,200,29884,1,0
240,232,30081,1,8
296,312,30278,2,0,B|296:376,2,50
96,296,30871,5,8
96,296,30969,1,0
96,296,31068,2,0,B|136:248|128:168,1,100
136,104,31463,1,0
320,192,31660,5,8
368,280,31857,1,0
416,192,32055,1,0
368,104,32252,1,0
368,104,32351,1,0
368,104,32449,2,0,B|368:40|296:40,1,100,8|0
264,128,32844,2,0,B|200:128|200:200,1,100
136,112,33239,5,8
256,352,33535,1,0
376,112,33831,1,0
256,192,34028,1,8
256,192,34127,5,0
256,192,34226,1,0
256,192,34324,1,0
256,192,34423,6,0,B|256:312,1,100
176,344,34818,1,8
88,296,35015,1,0
176,248,35213,1,0
88,192,35410,1,0
256,88,35607,5,8
432,192,35805,1,0
256,296,36002,1,0
88,192,36199,1,0
256,88,36397,2,0,B|344:88|376:128,1,100,8|0
304,192,36792,2,0,B|304:248|256:288,1,100
176,320,37186,1,8
176,320,37285,5,0
176,320,37384,1,0
176,320,37482,1,0
176,320,37581,1,0
176,320,37680,1,0
176,320,37778,1,0
176,320,37877,6,0,B|120:304|112:248,2,100
328,320,38469,1,0
328,320,38568,1,0
328,320,38667,1,0
256,192,38765,12,0,39555
256,192,39949,5,0
56,192,40344,5,8
56,192,40443,1,0
56,192,40542,1,0
56,192,40640,1,0
56,192,40739,6,0,B|56:120|104:96,1,100
160,176,41134,2,0,B|208:136|200:56,2,100,8|0|0
160,176,41627,1,0
160,176,41726,2,0,B|136:240|160:304,1,100,0|8
240,232,42120,2,0,B|288:192|280:112,1,100
352,328,42515,5,0
352,328,42614,1,0
352,328,42713,2,0,B|320:280|360:192,1,100,8|0
344,232,43107,1,0
160,304,43502,6,0,B|200:264|184:184,2,100,8|0|0
88,120,44094,2,0,B|64:184|112:248,1,100,0|8
256,112,44489,2,0,B|192:88|128:136,1,100
192,216,44884,5,0
256,296,45081,1,8
320,216,45278,1,0
256,136,45476,1,0
160,312,45673,5,0
360,312,45870,1,8
80,192,46167,5,0
432,192,46463,1,0
384,104,46660,5,8
384,104,46759,1,0
384,104,46857,2,0,B|336:56|272:64,1,100
312,160,47252,2,0,B|272:200|215:173,1,100,0|8
220,176,47548,1,0
220,176,47647,1,0
144,104,47844,2,0,B|96:72|40:112,1,100
96,192,48239,1,8
272,288,48436,5,0
360,328,48634,2,0,B|416:344|480:328,1,100
328,184,49028,1,8
240,144,49226,2,0,B|184:120|104:152,2,100
200,240,49818,1,8
200,240,49917,5,0
200,240,50015,1,0
200,240,50114,1,0
200,240,50213,1,0
200,240,50311,1,0
200,240,50410,6,0,B|184:296|104:296,1,100,0|8
128,192,50805,2,0,B|144:136|224:136,1,100
312,304,51199,5,0
376,224,51397,2,0,B|376:160|312:128|256:160|256:224,2,200,0|0|0
256,192,53074,12,0,54555
48,80,55344,6,0,B|112:72|152:128,1,100
152,208,55739,2,0,B|88:216|48:160,1,100,8|0
138,111,56134,1,0
320,192,56528,1,8
136,280,56923,1,0
344,64,57318,1,8
344,64,57515,1,0
408,136,57713,2,0,B|440:200|400:240,1,100,0|0
408,232,58009,5,0
408,232,58107,1,8
408,232,58206,1,0
408,232,58305,5,0
336,304,58502,1,0
256,120,58699,1,0
184,304,58897,2,0,B|120:312|88:248,1,100,8|0
88,168,59292,2,0,B|103:105|174:98,1,100
184,200,59686,2,0,B|232:232|296:208,1,100,8|0
376,192,60081,1,0
256,32,60278,5,0
136,192,60476,1,8
256,352,60673,1,0
328,288,60870,5,0
256,216,61068,1,0
184,280,61265,1,8
256,352,61463,1,0
376,192,61660,5,0
256,32,61857,1,0
136,192,62055,1,8
256,352,62449,5,0
376,192,62844,1,8
256,32,63239,1,0
96,288,63634,1,8
96,288,63831,1,0
176,344,64028,6,0,B|200:304|184:232,1,100
96,288,64423,2,0,B|72:248|88:176,1,100,8|0
248,72,64818,2,0,B|224:112|240:184,1,100
328,128,65213,2,0,B|352:168|336:240,1,100,8|0
264,288,65607,1,0
264,288,66002,5,8
264,288,66397,1,0
184,232,66594,1,0
264,176,66792,1,8
184,112,66989,1,0
256,192,67186,12,8,68370
80,192,68765,6,0,B|96:256|176:288,1,100,4|0
160,168,69160,2,0,B|144:104|64:72,2,100,8|0|0
256,192,69752,1,0
328,264,69949,1,8
400,192,70147,1,0
360,96,70344,5,0
264,96,70542,2,0,B|200:96|152:144,1,100,0|8
216,216,70936,2,0,B|216:280|168:328,1,100
88,272,71331,1,0
40,184,71528,5,8
64,88,71726,2,0,B|104:48|176:40,1,100
248,216,72318,1,8
408,88,72713,2,0,B|368:48|296:40,1,100
336,144,73107,1,8
392,224,73305,1,0
336,304,73502,21,0
152,224,73699,1,0
88,144,73897,1,8
152,64,74094,1,0
248,56,74292,2,0,B|304:48|344:96,1,100
272,168,74686,1,8
416,304,75081,5,4
320,344,75278,1,0
264,264,75476,2,0,B|224:312|176:320,1,100,8|0
184,216,75870,2,0,B|208:160|272:144,1,100
432,240,76265,1,8
432,240,76463,5,0
368,160,76660,2,0,B|320:136|320:72,1,100
320,80,76956,1,0
320,80,77055,1,8
240,144,77252,2,0,B|248:96|216:40,1,100
56,160,77647,2,0,B|40:208|72:264,1,100,0|8
144,320,78042,5,0
208,248,78239,2,0,B|264:272|256:344,1,100
344,272,78634,2,0,B|288:248|296:176,1,100,8|0
392,176,79028,1,0
392,176,79226,1,0
440,88,79423,2,0,B|496:112|488:184,1,100,8|0
256,192,79818,12,0,81397
64,192,84555,6,0,B|96:168|120:224|160:192,1,100,4|8
157,193,85048,5,0
157,193,85147,1,0
216,112,85344,1,0
240,192,85542,2,0,B|224:240|256:304,1,100,0|8
336,336,85936,2,0,B|360:272|328:216,1,100
400,48,86331,6,0,B|368:104|416:184,1,100,0|8
464,224,86726,1,0
397,144,86923,2,0,B|338:102|286:111,2,100,0|0|8
200,192,87713,2,0,B|144:192|104:240,2,100,0|0|8
200,296,88305,5,0
400,296,88502,1,0
456,216,88699,2,0,B|480:160|448:120,1,100,0|8
360,176,89094,1,0
360,176,89489,6,0,B|256:176,1,100,0|8
208,264,89884,1,0
152,176,90081,1,0
104,264,90278,1,0
56,176,90476,1,8
216,64,90871,2,0,B|272:64|304:112,1,100
272,208,91265,6,0,B|296:272|360:280,1,100,8|0
152,208,91660,2,0,B|128:272|64:272,1,100
82,271,91956,1,0
82,272,92055,1,8
56,176,92252,1,0
232,72,92647,2,0,B|296:72|328:120,2,100,0|8|0
256,168,93239,5,0
440,248,93436,1,0
352,296,93634,2,0,B|296:312|248:288,1,100,8|0
176,224,94028,1,0
360,144,94226,5,0
176,72,94423,1,8
88,112,94621,2,0,B|64:160|80:224,1,100
72,312,95015,1,0
168,328,95213,1,8
168,328,95410,2,0,B|232:328|264:288,1,100
260,294,95706,1,0
260,294,95805,5,0
320,216,96002,1,4
320,216,96101,1,0
320,216,96199,2,0,B|336:152|312:104,2,100
232,168,96792,1,4
80,304,97186,5,0
80,304,97285,1,0
80,304,97384,2,0,B|40:272|72:192,1,100,0|8
120,128,97778,1,0
208,88,97976,5,0
208,88,98173,2,0,B|272:88|304:136,1,100,0|8
312,224,98568,2,0,B|248:224|216:176,1,100
416,248,98963,2,0,B|416:312|368:344,1,100,0|8
280,312,99357,2,0,B|280:248|320:216,1,100
315,219,99653,1,0
315,219,99752,1,0
315,219,99851,1,0
315,219,99949,5,8
136,128,100344,1,0
136,128,100443,1,0
136,128,100542,1,0
136,128,100640,1,0
136,128,100739,6,0,B|160:80|240:80,1,100,8|0
208,184,101134,2,0,B|184:232|104:232,1,100
125,232,101430,1,0
125,232,101528,5,8
168,320,101726,1,0
264,320,101923,1,0
312,232,102121,1,0
360,320,102318,5,8
408,128,102515,1,0
456,320,102713,1,0
256,96,103009,1,4
56,320,103305,1,0
112,240,103502,1,0
112,240,103601,5,0
112,240,103699,1,0
112,240,103798,1,0
112,240,103897,6,0,B|128:184|72:136,2,100,8|0|0
184,312,104489,2,0,B|168:256|224:208,1,100,0|8
288,288,104884,2,0,B|328:240|312:176,1,100
192,40,105278,2,0,B|152:88|168:152,1,100,0|8
264,112,105673,6,0,B|320:128|376:112,1,100
432,40,106068,1,0
504,112,106265,1,8
432,184,106463,1,0
256,280,106660,1,0
256,280,106759,1,0
256,280,106857,6,0,B|200:296|160:248,2,100,0|8|0
104,152,107449,2,0,B|160:136|200:184,2,100,0|0|8
40,232,108042,1,4
120,296,108239,2,0,B|200:328|240:208|336:288,1,200
392,328,108831,1,0
440,240,109028,2,0,B|416:176|336:128|232:160,1,200
56,192,109818,1,4
56,192,109917,5,0
56,192,110015,1,0
56,192,110114,1,0
56,192,110213,1,8
56,192,110311,1,0
56,192,110410,6,0,B|48:144|104:104,1,100
160,192,110805,1,0
256,192,111002,2,0,B|256:248|208:280,2,100,8|0|0
240,96,111594,1,0
336,120,111792,1,8
360,216,111989,2,0,B|368:280|328:320,1,100
336,312,112285,5,0
336,312,112384,1,0
336,312,112482,1,0
336,312,112581,5,8
144,264,112976,1,0
144,264,113074,5,0
144,264,113173,1,0
144,264,113272,1,0
144,264,113371,6,0,B|120:216|144:152,1,100,8|0
216,104,113765,1,0
216,104,113963,2,0,B|240:152|216:216,1,100,0|8
352,48,114357,6,0,B|328:96|352:160,1,100
348,145,114653,1,0
348,145,114752,1,0
400,232,114949,1,8
352,320,115147,1,0
352,320,115344,5,0
80,192,115640,1,0
352,64,115936,1,0
256,80,116134,1,0
256,80,116232,5,0
256,80,116331,1,0
256,80,116430,1,0
256,80,116528,6,0,B|196:70|147:134,1,100,8|0
165,113,116824,1,0
165,113,116923,1,0
200,208,117121,1,0
200,208,117318,6,0,B|260:220|292:182,1,100,8|0
344,96,117713,1,0
376,192,117910,1,0
344,288,118107,1,8
144,288,118305,5,0
112,192,118502,1,0
144,96,118699,1,0
144,96,118798,1,0
144,96,118897,2,0,B|264:96,1,100,8|0
288,184,119292,1,0
288,184,119390,5,0
288,184,119489,1,0
288,184,119588,1,0
288,184,119686,1,8
288,184,119785,1,0
288,184,119884,6,0,B|320:240|304:296,1,100
307,280,120180,1,0
307,280,120278,1,0
216,312,120476,1,8
176,216,120673,1,0
176,216,120871,2,0,B|176:152|120:128|56:152|56:224,2,200,0|0|0
256,192,122548,12,0,124028
168,192,124818,5,0
80,144,125015,2,0,B|104:88|168:88,1,100,0|0
256,80,125410,1,0
424,192,125607,5,4
256,304,126002,1,8
88,192,126397,1,0
256,88,126792,1,8
336,152,126989,1,0
424,112,127186,2,0,B|464:160|416:216,1,100,0|0
425,203,127482,5,0
425,203,127581,1,8
425,203,127680,1,0
425,203,127778,5,0
360,280,127976,1,0
304,200,128173,1,0
104,200,128371,1,8
168,120,128568,1,0
72,104,128765,2,0,B|87:41|152:24,1,100
232,48,129160,6,0,B|217:111|159:122,1,100,8|0
224,312,129555,2,0,B|239:249|304:232,1,100
320,336,129949,1,8
287,241,130147,2,0,B|272:178|207:161,1,100
168,248,130542,1,0
112,168,130739,1,8
168,88,130936,1,0
256,128,131134,5,0
360,304,131331,1,0
464,128,131528,1,8
256,128,131923,5,0
152,304,132318,1,8
48,128,132713,1,0
256,128,133107,1,8
256,128,133305,6,0,B|304:160|304:232,1,100
256,128,133699,2,0,B|208:160|208:232,1,100,0|8
256,304,134094,1,0
184,376,134292,2,0,B|136:344|136:272,1,100
320,376,134686,2,0,B|368:344|368:272,1,100,8|0
416,208,135081,5,0
256,80,135476,1,8
104,208,135871,1,0
64,296,136068,2,0,B|88:352|160:352,1,100,0|8
232,304,136463,1,0
256,192,136660,12,8,137844
256,192,138239,6,0,B|272:256|352:288,1,100
256,192,138634,2,0,B|240:128|160:96,1,100,8|0
256,192,139028,2,0,B|304:168|360:176,1,100
256,192,139423,2,0,B|208:216|152:208,1,100,8|0
72,152,139818,5,0
144,88,140015,1,0
240,72,140213,2,0,B|304:56|360:96,1,100,8|0
392,168,140607,2,0,B|328:184|272:144,1,100
104,224,141002,6,0,B|168:208|224:248,1,100,8|0
184,136,141397,1,0
256,320,141792,1,8
328,136,142186,2,0,B|368:96|440:88,1,100
392,192,142581,1,8
344,280,142778,5,0
272,208,142976,1,0
176,240,143173,1,0
80,200,143371,5,8
104,104,143568,1,0
192,56,143765,2,0,B|248:48|288:96,1,100
200,144,144160,1,8
392,192,144555,5,0
320,344,144752,1,0
264,264,144949,2,0,B|224:312|176:320,1,100,8|0
184,216,145344,2,0,B|208:160|272:144,1,100
336,216,145739,1,8
216,56,145936,5,0
144,128,146134,2,0,B|96:104|96:40,1,100
96,48,146430,1,0
96,48,146528,1,8
56,240,146726,2,0,B|80:192|32:136,1,100
144,320,147121,2,0,B|112:272|160:216,1,100,0|8
232,168,147515,1,0
272,80,147713,6,0,B|328:104|320:176,1,100
280,248,148107,2,0,B|224:224|232:152,1,100,8|0
176,80,148502,1,0
128,168,148699,1,0
80,80,148897,1,8
32,168,149094,1,0
256,192,149292,12,0,150871
256,336,163502,6,0,B|176:248|208:120,1,200,0|8
264,72,164094,1,0
320,152,164292,2,0,B|328:272|243:346,1,200,0|8
256,192,164884,12,0,166265
64,72,166660,6,0,B|176:72,1,100
64,152,167055,2,0,B|184:152,1,100,8|0
64,232,167449,2,0,B|168:232,1,100
128,336,167844,2,0,B|264:336|272:184,1,200,8|0
272,120,168436,2,0,B|408:120|416:272,2,200
168,120,169423,2,0,B|168:232,1,100,8|0
264,200,169818,2,0,B|181:355|244:424|338:384|329:280|226:270|114:310,1,400
96,208,170805,6,0,B|152:208|176:160,1,100,0|8
224,72,171199,1,0
312,112,171397,2,0,B|440:112,1,100
472,192,171792,1,8
432,288,171989,2,0,B|368:312|296:312|216:280,1,200
72,96,172976,5,0
168,96,173173,1,0
120,184,173371,2,0,B|168:152|192:232|248:144,1,100,8|0
376,304,173765,2,0,B|328:272|304:352|248:264,1,100
336,216,174160,1,8
152,112,174555,5,0
360,112,174752,1,0
256,288,174949,1,8
152,112,175147,1,0
152,112,175246,1,0
152,112,175344,1,0
400,288,175739,5,8
112,288,176134,1,4
32,224,176331,5,0
32,176,176430,1,4
32,128,176528,1,8
32,80,176627,1,0
120,128,176824,1,4
120,176,176923,1,0
208,224,177121,1,0
208,176,177219,1,4
208,128,177318,1,8
208,80,177417,2,0,B|208:0,1,50
344,248,177713,6,0,B|424:72|480:168|424:256|360:160|328:56,1,300
240,96,178502,5,0
152,56,178699,1,0
168,152,178897,2,0,B|104:136|72:208,1,100,8|0
40,96,179292,1,0
40,96,179686,1,8
40,96,180081,1,0
152,320,180476,6,0,B|120:272|168:208,1,100,8|0
256,232,180871,2,0,B|288:168|248:128,1,100,0|0
256,137,181167,5,0
256,137,181265,1,8
256,137,181364,1,0
256,137,181463,5,0
160,104,181660,1,0
256,136,181857,1,0
352,104,182055,1,8
256,280,182252,5,0
256,280,182449,2,0,B|241:343|170:350,1,100
256,280,182844,2,0,B|271:343|342:350,1,100,8|0
376,264,183239,5,0
440,184,183436,1,0
376,104,183634,1,8
312,184,183831,1,0
136,104,184028,5,0
136,304,184226,1,0
32,200,184423,1,8
232,200,184621,2,0,B|360:200,1,100,0|0
376,112,185015,2,0,B|248:112,1,100,0|8
464,192,185607,6,0,B|464:256|400:256,1,100,4|0
464,192,186002,2,0,B|464:128|400:128,1,100,8|0
328,192,186397,1,0
152,288,186792,5,8
216,208,186989,2,0,B|208:161|150:117,1,100
161,127,187384,1,0
304,264,187581,2,0,B|280:224|296:152,1,100,8|0
392,192,187976,2,0,B|416:152|392:80,1,100
392,192,188371,2,0,B|416:232|392:304,1,100,8|0
304,336,188765,5,0
168,192,189160,1,8
304,48,189555,1,0
384,112,189752,2,0,B|480:200,2,100
256,192,190344,12,0,191134
48,192,191923,5,4
112,264,192121,1,0
152,168,192318,2,0,B|200:144|256:152,1,100,8|0
240,248,192713,2,0,B|288:272|344:264,1,100
408,192,193107,1,8
352,112,193305,1,0
256,88,193502,5,0
256,88,193699,1,0
256,192,193897,1,8
256,192,194094,1,0
256,296,194292,1,0
256,296,194489,1,0
160,328,194686,5,8
80,272,194884,2,0,B|120:232|192:224,1,100
169,227,195476,1,8
360,272,195871,2,0,B|320:232|248:224,1,100
344,160,196265,1,8
248,136,196463,5,0
56,192,196660,1,0
248,256,196857,1,0
128,96,197055,1,8
128,296,197252,1,0
248,136,197449,1,0
56,192,197647,1,0
248,256,197844,1,0
408,136,198239,5,0
456,224,198436,1,0
376,288,198634,2,0,B|336:336|288:344,1,100,8|0
248,256,199028,2,0,B|272:200|336:184,1,100
416,200,199423,1,8
432,104,199621,5,0
352,48,199818,2,0,B|304:72|304:136,1,100
304,128,200114,1,0
304,128,200213,1,8
208,120,200410,1,0
128,64,200607,1,0
112,160,200805,1,0
192,216,201002,1,8
376,296,201199,5,0
320,216,201397,2,0,B|264:240|280:312,1,100
376,296,201792,2,0,B|432:272|424:200,1,100,8|0
256,104,202186,5,0
80,192,202384,1,0
256,280,202581,1,8
432,192,202778,1,0
256,192,202976,12,4,204555
