osu file format v14

[General]
AudioFilename: 85046_newgrounds_parago.mp3
AudioLeadIn: 0
PreviewTime: -1
Countdown: 1
SampleSet: None
StackLeniency: 0.7
Mode: 0
LetterboxInBreaks: 1
WidescreenStoryboard: 1

[Editor]
DistanceSpacing: 1
BeatDivisor: 2
GridSize: 8
TimelineZoom: 1

[Metadata]
Title:Chaoz Looptasy REMIX
TitleUnicode:Chaoz Looptasy REMIX
Artist:Krank
ArtistUnicode:Krank
Creator:Sacorma
Version:Wide
Source:
Tags:
BeatmapID:668960
BeatmapSetID:298061

[Difficulty]
HPDrainRate:6
CircleSize:4
OverallDifficulty:6
ApproachRate:6
SliderMultiplier:0.600000005960464
SliderTickRate:1

[Events]
//Background and Video events
0,0,"space bg grey.jpg",0,0
//Break Periods
2,11402,20052
2,84152,94452
//Storyboard Layer 0 (Background)
//Storyboard Layer 1 (Fail)
//Storyboard Layer 2 (Pass)
//Storyboard Layer 3 (Foreground)
//Storyboard Sound Samples

[TimingPoints]
1152.2268370607,300,4,1,0,100,1,0
10421,-100,4,2,0,100,0,0
11352,-90.9090909090909,4,2,0,100,0,0
21083,-100,4,1,0,100,0,0
21102,-111.111111111111,4,1,0,100,0,0
21102,-125,4,1,0,100,0,0
21102,-111.111111111111,4,1,0,100,0,0
21202,-100,4,1,0,100,0,0
24552,-90.9090909090909,4,1,0,100,0,0
47383,-100,4,1,0,100,0,0
48402,-90.9090909090909,4,1,0,100,0,1
59052,-100,4,1,0,100,0,0
59952,-90.9090909090909,4,1,0,100,0,1
71873,-100,4,1,0,100,0,0
84102,-142.857142857143,4,1,0,100,0,0
84102,-125,4,1,0,100,0,0
84102,-111.111111111111,4,1,0,100,0,0
95502,-100,4,1,0,100,0,0
106193,-90.9090909090909,4,1,0,100,0,0
107403,-100,4,1,0,100,0,0
107502,-90.9090909090909,4,1,0,100,0,0
129973,-111.111111111111,4,1,0,100,0,0

[HitObjects]
256,192,9702,12,0,11202,0:0:0:0:
152,168,21102,5,0,0:0:0:0:
152,256,21402,1,0,0:0:0:0:
240,256,21702,1,0,0:0:0:0:
240,168,22002,1,0,0:0:0:0:
152,168,22302,1,0,0:0:0:0:
64,168,22452,1,0,0:0:0:0:
64,80,22602,1,0,0:0:0:0:
152,80,22752,1,0,0:0:0:0:
152,168,22902,1,0,0:0:0:0:
152,168,23202,6,0,L|152:304,3,120.000001192093
168,304,25152,5,0,0:0:0:0:
192,320,25302,1,0,0:0:0:0:
216,336,25452,1,0,0:0:0:0:
240,360,25752,6,0,B|352:360|400:360|400:360|400:288,1,231.000009344339
400,208,26952,5,0,0:0:0:0:
400,96,27252,1,0,0:0:0:0:
400,96,27552,6,0,B|272:96|272:96|208:96|208:168|208:168|208:280,1,330.000013349056
208,256,29352,6,0,L|168:256,2,33.0000013349056
208,256,29802,5,0,0:0:0:0:
288,256,29952,1,0,0:0:0:0:
368,256,30102,1,0,0:0:0:0:
368,256,30402,6,0,P|368:40|360:40,1,330.000013349056
368,40,32202,5,0,0:0:0:0:
368,104,32352,1,0,0:0:0:0:
368,160,32502,1,0,0:0:0:0:
368,216,32652,1,0,0:0:0:0:
368,216,32952,6,0,B|168:216|168:216|144:176,2,231.000009344339
368,216,35352,5,0,0:0:0:0:
368,216,35652,1,0,0:0:0:0:
368,216,35952,6,0,B|304:192|304:128|368:128|368:56|312:40,1,198.000008009434
192,120,37002,6,0,P|176:160|200:232,1,99.0000040047169
264,72,37902,2,0,P|240:152|264:272,2,198.000008009434
264,72,40002,5,0,0:0:0:0:
344,72,40302,1,0,0:0:0:0:
264,72,40452,1,0,0:0:0:0:
264,72,40752,6,0,B|192:128|192:128|272:192|272:192|200:264|200:264|280:320|280:320|248:352,1,429.000017353773
256,352,43002,6,0,P|184:352|120:296,2,132.000005339623
280,336,44502,5,0,0:0:0:0:
304,320,44802,6,0,B|352:272|352:272|352:136,1,198.000008009434
256,192,46002,12,0,47202,0:0:0:0:
208,184,47502,5,0,0:0:0:0:
208,208,47652,1,0,0:0:0:0:
208,184,47802,1,0,0:0:0:0:
208,160,47952,6,0,L|208:104,3,30.0000002980232
48,232,49152,6,0,B|160:232|160:232|160:256,1,132.000005339623
192,192,50202,6,0,B|192:40|192:40|224:40,1,165.000006674528
328,40,51252,5,0,0:0:0:0:
408,96,51552,6,0,P|408:152|368:224,1,132.000005339623
328,144,52452,5,0,0:0:0:0:
328,144,52602,1,0,0:0:0:0:
328,144,52902,6,0,B|192:144|192:144|136:144|136:80|136:16,1,264.000010679245
208,56,54402,5,0,0:0:0:0:
280,56,54702,1,0,0:0:0:0:
352,56,55002,1,0,0:0:0:0:
424,56,55302,1,0,0:0:0:0:
424,56,55902,6,0,B|424:200|424:200|360:200|360:200|360:328,1,330.000013349056
280,280,57852,6,0,L|224:280,2,33.0000013349056
360,216,58452,5,0,0:0:0:0:
280,152,58602,1,0,0:0:0:0:
280,280,58902,1,0,0:0:0:0:
280,280,59202,6,0,L|328:280,2,30.0000002980232
288,272,59802,6,0,P|240:216|296:48,1,270.000002682209
320,240,61452,2,0,P|272:192|320:72,2,198.000008009434
352,256,63552,5,0,0:0:0:0:
352,256,63702,1,0,0:0:0:0:
408,288,64002,1,0,0:0:0:0:
408,288,64152,1,0,0:0:0:0:
408,288,64452,6,0,B|456:224|456:224|392:176|392:176|440:96,1,231.000009344339
432,112,65802,5,0,0:0:0:0:
360,112,65952,1,0,0:0:0:0:
296,112,66102,1,0,0:0:0:0:
232,112,66402,1,0,0:0:0:0:
160,112,66702,6,0,L|160:256,2,132.000005339623
160,88,68052,5,0,0:0:0:0:
160,104,68202,6,0,B|160:168|160:168|208:104|208:104|208:168,1,198.000008009434
208,184,69402,5,0,0:0:0:0:
208,184,69552,1,0,0:0:0:0:
208,240,69852,1,0,0:0:0:0:
208,240,70002,1,0,0:0:0:0:
208,296,70302,1,0,0:0:0:0:
208,296,70452,1,0,0:0:0:0:
208,344,70752,1,0,0:0:0:0:
208,344,70902,1,0,0:0:0:0:
208,344,71052,6,0,B|272:328|296:280|296:184|192:176,1,231.000009344339
224,128,74202,5,0,0:0:0:0:
224,128,74652,6,0,L|224:168,2,30.0000002980232
224,128,75252,6,0,B|288:72|288:72|392:72|392:72|432:120,1,240.000002384186
424,112,76902,6,0,L|464:112,2,30.0000002980232
424,112,77502,5,0,0:0:0:0:
424,168,77652,1,0,0:0:0:0:
424,224,77802,1,0,0:0:0:0:
424,224,77952,6,0,B|240:232|120:256|80:344,1,360.000003576278
96,320,80052,5,0,0:0:0:0:
96,80,80352,1,0,0:0:0:0:
352,80,80652,1,0,0:0:0:0:
352,328,80952,1,0,0:0:0:0:
96,320,81252,1,0,0:0:0:0:
96,320,81552,6,0,B|176:288|176:288|208:304|208:304|304:272,2,210.000002086162
112,288,83802,5,0,0:0:0:0:
112,288,83952,1,0,0:0:0:0:
80,256,95502,6,0,B|80:168|80:160|80:160|80:88|160:88|168:88|168:88|272:88,1,314.999993516207
280,88,97302,5,0,0:0:0:0:
280,88,97452,1,0,0:0:0:0:
280,144,97602,1,0,0:0:0:0:
280,144,97752,1,0,0:0:0:0:
280,144,98052,6,0,L|280:184,3,30.0000002980232
280,144,98802,5,0,0:0:0:0:
256,128,98952,1,0,0:0:0:0:
256,160,99102,1,0,0:0:0:0:
280,144,99252,1,0,0:0:0:0:
256,128,99402,1,0,0:0:0:0:
256,160,99552,1,0,0:0:0:0:
256,160,100002,6,0,B|256:216|256:216|216:288,2,120.000001192093
256,128,101502,5,0,0:0:0:0:
256,128,101802,1,0,0:0:0:0:
256,128,102252,6,0,B|296:152|208:232|256:360,1,240.000002384186
256,360,103752,5,0,0:0:0:0:
256,336,103902,1,0,0:0:0:0:
256,312,104202,6,0,B|256:256|256:256|296:256|296:256|296:176,1,150.000001490116
256,192,105252,12,0,105852,0:0:0:0:
128,208,106152,6,0,L|160:152,1,60.0000005960464
200,128,106602,1,0,0:0:0:0:
264,96,106752,6,0,L|328:88,1,33.0000013349056
400,128,107052,1,0,0:0:0:0:
352,192,107352,6,0,P|360:224|360:344,1,132.000005339623
280,272,108402,5,0,0:0:0:0:
280,272,108702,6,0,B|224:224|224:224|224:88,2,198.000008009434
288,272,110802,5,0,0:0:0:0:
288,296,110952,1,0,0:0:0:0:
288,328,111102,1,0,0:0:0:0:
288,352,111252,6,0,L|344:352,2,33.0000013349056
288,352,112002,5,0,0:0:0:0:
288,272,112302,1,0,0:0:0:0:
288,352,112602,1,0,0:0:0:0:
288,272,112902,1,0,0:0:0:0:
288,272,113352,6,0,P|192:264|104:200,1,198.000008009434
288,272,114552,6,0,L|240:272,2,33.0000013349056
288,272,115152,5,0,0:0:0:0:
288,272,115302,1,0,0:0:0:0:
288,272,115752,6,0,B|256:240|256:192|304:152|296:80|256:40,1,231.000009344339
216,144,117102,5,0,0:0:0:0:
144,256,117402,1,0,0:0:0:0:
288,224,117702,1,0,0:0:0:0:
216,144,118002,1,0,0:0:0:0:
224,144,118452,6,2,P|264:104|400:80,1,198.000008009434
424,96,119502,5,0,0:0:0:0:
416,120,119802,6,0,B|416:216|416:216|368:184|368:184|368:336,2,297.000012014151
384,96,122802,5,0,0:0:0:0:
384,96,122952,1,0,0:0:0:0:
296,64,123402,1,0,0:0:0:0:
296,64,123552,1,0,0:0:0:0:
192,72,124152,6,0,P|144:96|96:240,1,198.000008009434
256,192,125502,12,0,128652,0:0:0:0:
208,248,128952,6,0,B|160:176|160:176|184:64,2,198.000008009434
272,320,131052,5,0,0:0:0:0:
272,320,131202,1,0,0:0:0:0:
