osu file format v12

[General]
AudioFilename: Thousand Sakura kradness.mp3
AudioLeadIn: 0
PreviewTime: 45180
Countdown: 0
SampleSet: Normal
StackLeniency: 0.7
Mode: 1
LetterboxInBreaks: 0
SkinPreference:taiko
WidescreenStoryboard: 1

[Editor]
Bookmarks: 1638,23580,34723,45523,67466,78438,89409,100380,122323
DistanceSpacing: 1
BeatDivisor: 4
GridSize: 8

[Metadata]
Title:Senbonzakura
TitleUnicode:千本桜
Artist:Kradness
ArtistUnicode:くらっどねす
Creator:OnosakiHito
Version:Muzukashii
Source:
Tags:KRAD VORTEX ギガP GigaMozuku
BeatmapID:340264
BeatmapSetID:135875

[Difficulty]
HPDrainRate:6
CircleSize:4
OverallDifficulty:4
ApproachRate:5
SliderMultiplier:1.4
SliderTickRate:1

[Events]
//Background and Video events
0,0,"Taiko_BG.jpg",0,0
//Break Periods
//Storyboard Layer 0 (Background)
//Storyboard Layer 1 (Fail)
//Storyboard Layer 2 (Pass)
//Storyboard Layer 3 (Foreground)
//Storyboard Sound Samples
//Background Colour Transformations
3,100,163,162,255

[TimingPoints]
1638,342.857142857143,4,1,0,90,1,0
45523,-100,4,1,0,90,0,1
67466,-100,4,1,0,90,0,0
100380,-100,4,1,0,90,0,1
122323,-100,4,1,0,90,0,0

[HitObjects]
256,192,1638,1,4,0:0:0:0:
256,192,1809,1,4,0:0:0:0:
256,192,3866,1,4,0:0:0:0:
256,192,4209,1,4,0:0:0:0:
256,192,4380,1,4,0:0:0:0:
256,192,4552,1,4,0:0:0:0:
256,192,5752,5,12,0:0:0:0:
256,192,6095,1,12,0:0:0:0:
256,192,6438,1,12,0:0:0:0:
256,192,6609,1,12,0:0:0:0:
256,192,6780,5,0,0:0:0:0:
256,192,7123,1,0,0:0:0:0:
256,192,7295,1,0,0:0:0:0:
256,192,7466,5,8,0:0:0:0:
256,192,7809,5,0,0:0:0:0:
256,192,7980,1,0,0:0:0:0:
256,192,8152,5,8,0:0:0:0:
256,192,8495,5,0,0:0:0:0:
256,192,8666,1,0,0:0:0:0:
256,192,8838,5,8,0:0:0:0:
256,192,9009,5,0,0:0:0:0:
256,192,9180,5,8,0:0:0:0:
256,192,9352,1,8,0:0:0:0:
256,192,9523,1,8,0:0:0:0:
256,192,9866,5,0,0:0:0:0:
256,192,10038,1,0,0:0:0:0:
256,192,10209,5,8,0:0:0:0:
256,192,10380,1,8,0:0:0:0:
256,192,10552,5,0,0:0:0:0:
256,192,10723,1,0,0:0:0:0:
256,192,10895,5,8,0:0:0:0:
256,192,11238,5,0,0:0:0:0:
256,192,11580,5,8,0:0:0:0:
256,192,11752,1,8,0:0:0:0:
256,192,11923,5,0,0:0:0:0:
256,192,12266,5,8,0:0:0:0:
256,192,12609,5,0,0:0:0:0:
256,192,12780,1,0,0:0:0:0:
256,192,12952,5,8,0:0:0:0:
256,192,13123,1,8,0:0:0:0:
256,192,13295,5,0,0:0:0:0:
256,192,13638,5,8,0:0:0:0:
256,192,13809,1,8,0:0:0:0:
256,192,13980,5,0,0:0:0:0:
256,192,14323,5,8,0:0:0:0:
256,192,14495,1,8,0:0:0:0:
256,192,14666,5,0,0:0:0:0:
256,192,14838,1,0,0:0:0:0:
256,192,15009,5,8,0:0:0:0:
256,192,15180,1,8,0:0:0:0:
256,192,15352,5,0,0:0:0:0:
256,192,15695,5,8,0:0:0:0:
256,192,15866,1,8,0:0:0:0:
256,192,16038,5,0,0:0:0:0:
256,192,16380,5,8,0:0:0:0:
256,192,16552,1,8,0:0:0:0:
256,192,16723,5,0,0:0:0:0:
256,192,16895,1,0,0:0:0:0:
256,192,17066,5,8,0:0:0:0:
256,192,17238,5,0,0:0:0:0:
256,192,17409,5,8,0:0:0:0:
256,192,17580,1,8,0:0:0:0:
256,192,17752,1,8,0:0:0:0:
256,192,18095,5,0,0:0:0:0:
256,192,18266,1,0,0:0:0:0:
256,192,18438,5,8,0:0:0:0:
256,192,18609,1,8,0:0:0:0:
256,192,18780,5,0,0:0:0:0:
256,192,19123,5,8,0:0:0:0:
256,192,19295,1,8,0:0:0:0:
256,192,19466,5,0,0:0:0:0:
256,192,19809,5,8,0:0:0:0:
256,192,19980,1,8,0:0:0:0:
256,192,20152,5,0,0:0:0:0:
256,192,20238,1,0,0:0:0:0:
256,192,20323,1,0,0:0:0:0:
256,192,20495,5,8,0:0:0:0:
256,192,20838,5,0,0:0:0:0:
256,192,21009,1,0,0:0:0:0:
256,192,21180,1,0,0:0:0:0:
256,192,21352,1,0,0:0:0:0:
256,192,21523,5,8,0:0:0:0:
256,192,21695,1,8,0:0:0:0:
256,192,21866,1,8,0:0:0:0:
256,192,22038,1,8,0:0:0:0:
256,192,22209,5,4,0:0:0:0:
256,192,22466,1,4,0:0:0:0:
256,192,22723,1,4,0:0:0:0:
256,192,22895,1,4,0:0:0:0:
256,192,23238,5,8,0:0:0:0:
256,192,23580,5,0,0:0:0:0:
256,192,23923,5,8,0:0:0:0:
256,192,24438,5,0,0:0:0:0:
256,192,24609,5,8,0:0:0:0:
256,192,24952,5,0,0:0:0:0:
256,192,25295,5,8,0:0:0:0:
256,192,25980,1,8,0:0:0:0:
256,192,26323,5,0,0:0:0:0:
256,192,26666,5,8,0:0:0:0:
256,192,27180,5,0,0:0:0:0:
256,192,27352,5,8,0:0:0:0:
256,192,27695,5,0,0:0:0:0:
256,192,28038,5,8,0:0:0:0:
256,192,28380,5,0,0:0:0:0:
256,192,28552,1,0,0:0:0:0:
256,192,28723,5,8,0:0:0:0:
256,192,29066,5,0,0:0:0:0:
256,192,29409,5,8,0:0:0:0:
256,192,29923,5,0,0:0:0:0:
256,192,30095,5,8,0:0:0:0:
256,192,30438,5,0,0:0:0:0:
256,192,30780,5,8,0:0:0:0:
256,192,31466,1,8,0:0:0:0:
256,192,31809,5,0,0:0:0:0:
256,192,32152,5,8,0:0:0:0:
256,192,32666,5,0,0:0:0:0:
256,192,32838,5,8,0:0:0:0:
256,192,33180,5,0,0:0:0:0:
256,192,33266,1,0,0:0:0:0:
256,192,33352,1,0,0:0:0:0:
256,192,33523,5,8,0:0:0:0:
256,192,33695,1,8,0:0:0:0:
256,192,33866,5,0,0:0:0:0:
256,192,34209,5,8,0:0:0:0:
256,192,34552,5,0,0:0:0:0:
256,192,35066,1,0,0:0:0:0:
256,192,35238,5,8,0:0:0:0:
256,192,35923,5,0,0:0:0:0:
256,192,36266,1,0,0:0:0:0:
256,192,36609,5,8,0:0:0:0:
256,192,37295,5,0,0:0:0:0:
256,192,37809,1,0,0:0:0:0:
256,192,37980,5,8,0:0:0:0:
256,192,38323,1,8,0:0:0:0:
256,192,38666,5,0,0:0:0:0:
256,192,39352,5,8,0:0:0:0:
256,192,40038,5,0,0:0:0:0:
256,192,40552,1,0,0:0:0:0:
256,192,40723,5,8,0:0:0:0:
256,192,41409,5,0,0:0:0:0:
256,192,41752,1,0,0:0:0:0:
256,192,41923,1,0,0:0:0:0:
256,192,42095,5,8,0:0:0:0:
256,192,42780,5,0,0:0:0:0:
256,192,42952,1,0,0:0:0:0:
256,192,43295,1,0,0:0:0:0:
256,192,43466,5,8,0:0:0:0:
256,192,43809,1,8,0:0:0:0:
256,192,44152,5,4,0:0:0:0:
256,192,44495,1,4,0:0:0:0:
256,192,44666,1,4,0:0:0:0:
256,192,45180,5,12,0:0:0:0:
256,192,45523,5,0,0:0:0:0:
256,192,45866,5,8,0:0:0:0:
256,192,46038,1,8,0:0:0:0:
256,192,46209,5,0,0:0:0:0:
256,192,46380,1,0,0:0:0:0:
256,192,46552,5,8,0:0:0:0:
256,192,46895,5,0,0:0:0:0:
256,192,47066,1,0,0:0:0:0:
256,192,47238,5,8,0:0:0:0:
256,192,47409,1,8,0:0:0:0:
256,192,47580,5,0,0:0:0:0:
256,192,47923,5,8,0:0:0:0:
256,192,48266,5,0,0:0:0:0:
256,192,48609,5,8,0:0:0:0:
256,192,48780,1,8,0:0:0:0:
256,192,48952,5,0,0:0:0:0:
256,192,49295,5,8,0:0:0:0:
256,192,49638,5,0,0:0:0:0:
256,192,49809,1,0,0:0:0:0:
256,192,49980,5,8,0:0:0:0:
256,192,50152,1,8,0:0:0:0:
256,192,50323,5,0,0:0:0:0:
256,192,50666,5,8,0:0:0:0:
256,192,51009,5,0,0:0:0:0:
256,192,51352,5,8,0:0:0:0:
256,192,51523,1,8,0:0:0:0:
256,192,51695,5,0,0:0:0:0:
256,192,52038,5,8,0:0:0:0:
256,192,52209,1,8,0:0:0:0:
256,192,52380,5,0,0:0:0:0:
256,192,52552,1,0,0:0:0:0:
256,192,52723,5,8,0:0:0:0:
256,192,52895,1,8,0:0:0:0:
256,192,53066,5,0,0:0:0:0:
256,192,53409,5,8,0:0:0:0:
256,192,53752,5,0,0:0:0:0:
256,192,53838,1,0,0:0:0:0:
256,192,53923,1,0,0:0:0:0:
256,192,54095,5,8,0:0:0:0:
256,192,54438,5,0,0:0:0:0:
256,192,54523,1,0,0:0:0:0:
256,192,54609,1,0,0:0:0:0:
256,192,54780,5,8,0:0:0:0:
256,192,55123,5,0,0:0:0:0:
256,192,55295,5,8,0:0:0:0:
256,192,55466,5,0,0:0:0:0:
256,192,55638,5,8,0:0:0:0:
256,192,55809,5,0,0:0:0:0:
256,192,56152,5,8,0:0:0:0:
256,192,56495,5,0,0:0:0:0:
256,192,56838,5,8,0:0:0:0:
256,192,57009,1,8,0:0:0:0:
256,192,57180,5,0,0:0:0:0:
256,192,57352,1,0,0:0:0:0:
256,192,57523,5,8,0:0:0:0:
256,192,57866,5,0,0:0:0:0:
256,192,58038,5,8,0:0:0:0:
256,192,58209,5,0,0:0:0:0:
256,192,58380,5,8,0:0:0:0:
256,192,58552,5,0,0:0:0:0:
256,192,58895,5,8,0:0:0:0:
256,192,59238,5,0,0:0:0:0:
256,192,59409,1,0,0:0:0:0:
256,192,59580,5,8,0:0:0:0:
256,192,59752,1,8,0:0:0:0:
256,192,59923,5,0,0:0:0:0:
256,192,60266,5,8,0:0:0:0:
256,192,60609,5,0,0:0:0:0:
256,192,60780,1,0,0:0:0:0:
256,192,60952,5,8,0:0:0:0:
256,192,61123,5,0,0:0:0:0:
256,192,61295,1,0,0:0:0:0:
256,192,61638,5,8,0:0:0:0:
256,192,61980,5,0,0:0:0:0:
256,192,62323,5,8,0:0:0:0:
256,192,62495,1,8,0:0:0:0:
256,192,62666,5,0,0:0:0:0:
256,192,62838,1,0,0:0:0:0:
256,192,63009,5,8,0:0:0:0:
256,192,63352,5,0,0:0:0:0:
256,192,63523,5,8,0:0:0:0:
256,192,63694,5,0,0:0:0:0:
256,192,63866,5,8,0:0:0:0:
256,192,64038,5,0,0:0:0:0:
256,192,64380,5,8,0:0:0:0:
256,192,64552,1,8,0:0:0:0:
256,192,64723,5,4,0:0:0:0:
256,192,65066,5,12,0:0:0:0:
256,192,65409,5,4,0:0:0:0:
256,192,65752,5,12,0:0:0:0:
256,192,66095,5,4,0:0:0:0:
256,192,66266,1,4,0:0:0:0:
256,192,66438,5,12,0:0:0:0:
256,192,66609,1,12,0:0:0:0:
256,192,66780,5,4,0:0:0:0:
256,192,67123,5,8,0:0:0:0:
256,192,67466,5,0,0:0:0:0:
256,192,67809,5,8,0:0:0:0:
256,192,67980,1,8,0:0:0:0:
256,192,68152,5,0,0:0:0:0:
256,192,68495,5,8,0:0:0:0:
256,192,68838,5,0,0:0:0:0:
256,192,69009,1,0,0:0:0:0:
256,192,69180,5,8,0:0:0:0:
256,192,69695,5,0,0:0:0:0:
256,192,69866,5,8,0:0:0:0:
256,192,70209,5,0,0:0:0:0:
256,192,70552,5,8,0:0:0:0:
256,192,70723,1,8,0:0:0:0:
256,192,70895,5,0,0:0:0:0:
256,192,71238,5,8,0:0:0:0:
256,192,71580,5,0,0:0:0:0:
256,192,71752,1,0,0:0:0:0:
256,192,71923,5,8,0:0:0:0:
256,192,72095,5,0,0:0:0:0:
256,192,72438,1,0,0:0:0:0:
256,192,72609,5,8,0:0:0:0:
256,192,72952,5,0,0:0:0:0:
256,192,73295,5,8,0:0:0:0:
256,192,73466,1,8,0:0:0:0:
256,192,73638,5,0,0:0:0:0:
256,192,73980,5,8,0:0:0:0:
256,192,74323,5,0,0:0:0:0:
256,192,74495,1,0,0:0:0:0:
256,192,74666,5,8,0:0:0:0:
256,192,75180,5,0,0:0:0:0:
256,192,75352,5,8,0:0:0:0:
256,192,75695,5,0,0:0:0:0:
256,192,75780,1,0,0:0:0:0:
256,192,75866,1,0,0:0:0:0:
256,192,76038,5,8,0:0:0:0:
256,192,76209,1,8,0:0:0:0:
256,192,76380,5,0,0:0:0:0:
256,192,76723,1,0,0:0:0:0:
256,192,76895,1,0,0:0:0:0:
256,192,77066,5,12,0:0:0:0:
256,192,77323,1,12,0:0:0:0:
256,192,77580,1,12,0:0:0:0:
256,192,77752,1,12,0:0:0:0:
256,192,78438,5,0,0:0:0:0:
256,192,78952,1,0,0:0:0:0:
256,192,79123,1,0,0:0:0:0:
256,192,79809,1,0,0:0:0:0:
256,192,80323,1,0,0:0:0:0:
256,192,80495,1,0,0:0:0:0:
256,192,80838,1,0,0:0:0:0:
256,192,81180,1,0,0:0:0:0:
256,192,81695,1,0,0:0:0:0:
256,192,81866,1,0,0:0:0:0:
256,192,82552,5,12,0:0:0:0:
256,192,82895,1,12,0:0:0:0:
256,192,83238,5,4,0:0:0:0:
256,192,83580,5,12,0:0:0:0:
256,192,83923,5,0,0:0:0:0:
256,192,84438,5,8,0:0:0:0:
256,192,84609,5,0,0:0:0:0:
256,192,85295,1,0,0:0:0:0:
256,192,85809,5,8,0:0:0:0:
256,192,85980,5,0,0:0:0:0:
256,192,86323,1,0,0:0:0:0:
256,192,86666,5,0,0:0:0:0:
256,192,87180,5,8,0:0:0:0:
256,192,87352,5,0,0:0:0:0:
256,192,88038,5,12,0:0:0:0:
256,192,88380,1,12,0:0:0:0:
256,192,88723,5,4,0:0:0:0:
256,192,89066,5,12,0:0:0:0:
256,192,89409,5,0,0:0:0:0:
256,192,89580,1,0,0:0:0:0:
256,192,89752,5,8,0:0:0:0:
256,192,89923,1,8,0:0:0:0:
256,192,90095,5,0,0:0:0:0:
256,192,90438,5,8,0:0:0:0:
256,192,90780,5,0,0:0:0:0:
256,192,90952,5,8,0:0:0:0:
256,192,91123,1,8,0:0:0:0:
256,192,91295,5,0,0:0:0:0:
256,192,91466,1,4,0:0:0:0:
256,192,92152,5,0,0:0:0:0:
256,192,92323,1,0,0:0:0:0:
256,192,92495,5,8,0:0:0:0:
256,192,92838,5,0,0:0:0:0:
256,192,93009,1,0,0:0:0:0:
256,192,93180,5,8,0:0:0:0:
256,192,93523,5,0,0:0:0:0:
256,192,93695,1,0,0:0:0:0:
256,192,93866,5,8,0:0:0:0:
256,192,94038,1,8,0:0:0:0:
256,192,94209,5,4,0:0:0:0:
256,192,94895,5,8,0:0:0:0:
256,192,95066,1,8,0:0:0:0:
256,192,95238,5,0,0:0:0:0:
256,192,95580,5,0,0:0:0:0:
256,192,95752,1,0,0:0:0:0:
256,192,95923,5,8,0:0:0:0:
256,192,96266,5,8,0:0:0:0:
256,192,96438,1,8,0:0:0:0:
256,192,96609,5,0,0:0:0:0:
256,192,96780,1,0,0:0:0:0:
256,192,96952,5,12,0:0:0:0:
256,192,97638,5,0,0:0:0:0:
256,192,97809,1,0,0:0:0:0:
256,192,98152,1,0,0:0:0:0:
256,192,98323,5,8,0:0:0:0:
256,192,98495,1,8,0:0:0:0:
256,192,98666,5,0,0:0:0:0:
256,192,99009,5,8,0:0:0:0:
256,192,99352,5,0,0:0:0:0:
256,192,99523,5,12,0:0:0:0:
256,192,100038,1,8,0:0:0:0:
256,192,100380,5,0,0:0:0:0:
256,192,100723,5,8,0:0:0:0:
256,192,100895,1,8,0:0:0:0:
256,192,101066,5,0,0:0:0:0:
256,192,101409,5,8,0:0:0:0:
256,192,101752,5,0,0:0:0:0:
256,192,101923,1,0,0:0:0:0:
256,192,102095,5,8,0:0:0:0:
256,192,102266,1,8,0:0:0:0:
256,192,102438,5,0,0:0:0:0:
256,192,102780,5,8,0:0:0:0:
256,192,103123,5,0,0:0:0:0:
256,192,103466,5,8,0:0:0:0:
256,192,103638,1,8,0:0:0:0:
256,192,103809,5,0,0:0:0:0:
256,192,104152,5,8,0:0:0:0:
256,192,104495,5,0,0:0:0:0:
256,192,104666,1,0,0:0:0:0:
256,192,104838,5,8,0:0:0:0:
256,192,104923,1,8,0:0:0:0:
256,192,105009,1,8,0:0:0:0:
256,192,105180,5,0,0:0:0:0:
256,192,105523,5,8,0:0:0:0:
256,192,105866,5,0,0:0:0:0:
256,192,106209,5,8,0:0:0:0:
256,192,106380,1,8,0:0:0:0:
256,192,106552,5,0,0:0:0:0:
256,192,106895,5,8,0:0:0:0:
256,192,107238,5,0,0:0:0:0:
256,192,107409,1,0,0:0:0:0:
256,192,107580,5,8,0:0:0:0:
256,192,107752,1,8,0:0:0:0:
256,192,107923,5,0,0:0:0:0:
256,192,108266,5,8,0:0:0:0:
256,192,108438,1,8,0:0:0:0:
256,192,108609,5,0,0:0:0:0:
256,192,108695,1,0,0:0:0:0:
256,192,108780,1,0,0:0:0:0:
256,192,108952,5,8,0:0:0:0:
256,192,109295,5,0,0:0:0:0:
256,192,109380,1,0,0:0:0:0:
256,192,109466,1,0,0:0:0:0:
256,192,109638,5,8,0:0:0:0:
256,192,109980,5,0,0:0:0:0:
256,192,110152,5,8,0:0:0:0:
256,192,110323,5,0,0:0:0:0:
256,192,110495,5,8,0:0:0:0:
256,192,110666,5,0,0:0:0:0:
256,192,111009,5,8,0:0:0:0:
256,192,111352,5,0,0:0:0:0:
256,192,111523,1,0,0:0:0:0:
256,192,111695,5,8,0:0:0:0:
256,192,112209,5,0,0:0:0:0:
256,192,112380,5,8,0:0:0:0:
256,192,112723,5,0,0:0:0:0:
256,192,112895,1,0,0:0:0:0:
256,192,113066,5,8,0:0:0:0:
256,192,113238,1,8,0:0:0:0:
256,192,113409,5,0,0:0:0:0:
256,192,113752,5,8,0:0:0:0:
256,192,114095,5,0,0:0:0:0:
256,192,114266,1,0,0:0:0:0:
256,192,114438,5,8,0:0:0:0:
256,192,114609,5,0,0:0:0:0:
256,192,114952,1,0,0:0:0:0:
256,192,115123,5,8,0:0:0:0:
256,192,115466,5,0,0:0:0:0:
256,192,115638,1,0,0:0:0:0:
256,192,115809,5,8,0:0:0:0:
256,192,115980,1,8,0:0:0:0:
256,192,116152,5,0,0:0:0:0:
256,192,116495,5,8,0:0:0:0:
256,192,116838,5,0,0:0:0:0:
256,192,117009,1,0,0:0:0:0:
256,192,117180,5,8,0:0:0:0:
256,192,117695,5,0,0:0:0:0:
256,192,117866,5,8,0:0:0:0:
256,192,118209,5,0,0:0:0:0:
256,192,118380,5,8,0:0:0:0:
256,192,118552,5,0,0:0:0:0:
256,192,118723,5,8,0:0:0:0:
256,192,118895,5,0,0:0:0:0:
256,192,119238,5,8,0:0:0:0:
256,192,119580,5,4,0:0:0:0:
256,192,119923,5,12,0:0:0:0:
256,192,120266,5,4,0:0:0:0:
256,192,120609,5,12,0:0:0:0:
256,192,120952,5,4,0:0:0:0:
256,192,121123,1,4,0:0:0:0:
256,192,121295,5,12,0:0:0:0:
256,192,121466,1,12,0:0:0:0:
256,192,121638,5,0,0:0:0:0:
256,192,121980,5,8,0:0:0:0:
256,192,122323,5,4,0:0:0:0:
