osu file format v5

[General]
AudioFilename: Kizuna.mp3
AudioLeadIn: 0
PreviewTime: -1
Countdown: 1
SampleSet: None
StackLeniency: 0.7
Mode: 0
LetterboxInBreaks: 1
SkinPreference:XiStyle
EditorBookmarks: 48294,59276,101874,113398,176691,187069

[Metadata]
Title:Kizuna
Artist:Kra
Creator:Ikari_jn0594
Version:Hayai
Source:
Tags:

[Difficulty]
HPDrainRate:9
CircleSize:7
OverallDifficulty:9
SliderMultiplier:1.4
SliderTickRate:3

[Events]
//Background and Video events
0,0,"Aki_Izayoi.jpg"
//Break Periods
2,48374,58496
2,101832,112679
2,174961,186831
//Storyboard Layer 0 (Background)
//Storyboard Layer 1 (Failing)
//Storyboard Layer 2 (Passing)
//Storyboard Layer 3 (Foreground)
//Storyboard Sound Samples
//Background Colour Transformations
3,100,192,192,192

[TimingPoints]
4430,362.021265511432,4,0,0,100

[Colours]
Combo1 : 0,0,0
Combo2 : 192,192,192
Combo3 : 150,150,150
Combo4 : 107,107,107

[HitObjects]
256,192,5606,1,0
256,192,6240,1,4
256,112,7326,5,0
256,288,8231,5,0
368,288,8593,1,0
368,144,9045,1,0
256,144,9407,1,0
112,144,9860,1,0
112,144,10041,1,0
256,192,11127,5,0
256,192,11489,1,0
256,192,11941,1,4
512,192,12756,5,0
512,192,13118,1,0
512,48,13571,1,2
400,48,13933,1,2
288,48,14295,1,0
288,48,14476,1,4
288,208,15019,5,0
96,208,15652,1,0
400,208,16648,5,0
176,176,17372,1,0
400,176,18096,1,0
256,96,18639,1,0
256,320,19363,1,0
256,320,19815,1,0
256,80,20811,5,0
256,80,20992,1,0
256,240,21535,1,0
256,240,22078,1,0
496,192,22893,5,0
304,192,23526,1,0
16,16,24612,5,0
240,16,25336,1,0
256,208,25970,1,0
448,208,26603,1,0
448,208,26875,1,0
304,208,27327,1,0
112,208,27961,1,0
336,208,28685,5,0
112,208,29409,1,0
256,80,30043,1,0
256,192,30948,1,0
256,192,31310,1,0
448,192,31943,5,0
224,192,32667,1,0
352,48,33301,1,0
352,272,34025,1,0
176,128,34749,1,0
368,128,35382,1,0
176,240,36106,1,0
256,64,36740,5,0
256,144,37011,1,0
256,256,37373,1,0
32,256,38097,1,0
240,192,38822,1,0
240,352,39365,1,0
256,160,39998,5,0
32,336,40903,5,0
160,240,41446,1,0
240,192,41718,1,0
336,128,42080,1,0
384,96,42261,1,0
272,176,42713,1,0
112,304,43347,1,0
256,128,44071,5,0
256,320,44704,1,0
256,320,44885,1,0
256,320,45247,1,0
256,96,45971,1,0
480,96,46695,1,0
496,320,47420,1,0
496,320,47601,1,0
496,320,47963,1,0
256,192,59366,5,0
256,192,60000,1,0
32,192,60724,1,0
32,192,61267,1,0
288,192,62081,1,0
96,64,62805,5,0
288,64,63439,1,0
288,224,63982,1,0
288,224,64254,1,0
288,224,64706,1,0
96,224,65340,1,0
96,0,66064,5,0
208,96,66516,1,0
464,96,67331,1,0
256,192,68055,5,0
256,16,68598,1,0
256,64,68779,1,0
256,112,68960,1,0
256,224,69322,1,0
496,224,69955,2,0,B|0:224,2,490
256,192,73576,5,0
0,16,74571,1,0
0,272,75386,2,0,B|512:272,2,490
256,192,78644,1,0
256,192,78915,1,0
144,192,79368,2,0,B|368:192,3,210
256,192,81540,1,0
256,192,82083,1,0
256,192,82355,1,0
256,192,82807,1,0
256,192,83079,1,0
208,144,84255,5,0
352,144,84708,1,0
240,144,85070,1,0
240,256,85432,1,0
352,256,85794,1,0
352,144,86156,1,0
352,224,86427,1,0
160,224,87061,5,0
160,112,87423,1,0
272,112,87785,1,0
160,112,88147,1,0
272,112,88509,1,0
384,112,88871,1,0
208,112,89414,1,0
208,112,89595,2,0,B|400:112,4,175
400,112,92039,5,0
224,112,92582,1,0
256,192,92944,1,0
256,192,93306,1,0
256,192,93668,1,0
256,192,94211,1,0
416,192,95116,5,2
304,192,95478,1,2
304,80,95840,1,2
304,192,96202,1,2
368,128,96473,1,2
304,192,96745,1,2
112,128,97378,5,2
112,176,97559,1,2
256,176,98012,1,2
160,128,98374,1,2
304,128,98827,1,2
208,176,99189,1,2
208,256,99460,1,2
256,256,99641,1,2
256,192,100003,12,2,101451
256,192,113126,1,0
80,192,113669,1,2
256,192,114484,5,2
32,192,115208,1,2
288,192,116023,1,2
64,192,116747,1,2
256,96,117471,5,2
256,320,118195,1,2
256,144,118738,1,2
480,144,119462,1,2
480,304,120005,5,2
288,304,120638,1,2
288,48,121453,1,2
288,240,122086,5,2
112,240,122629,1,2
112,16,123353,1,2
256,192,124078,5,2
256,192,124349,1,0
112,192,124802,1,2
112,16,125345,1,2
224,16,125707,1,2
224,160,126159,1,2
416,160,126793,5,2
304,160,127155,1,2
416,160,127517,1,2
240,160,128060,1,2
240,96,128241,1,2
96,96,128693,1,2
96,288,129327,5,2
288,288,129960,1,2
224,288,130141,1,2
224,160,131227,5,2
416,160,131861,1,2
192,160,132585,1,2
192,80,132857,1,2
336,80,133309,1,2
336,336,134124,5,2
112,336,134848,1,2
224,224,135391,1,2
448,224,136115,1,2
224,224,136839,1,2
0,224,137563,5,2
224,224,138287,1,2
224,48,138830,1,2
224,272,139554,1,2
368,144,140187,1,2
176,144,140821,1,2
368,144,141455,5,2
176,144,142088,1,2
432,144,142903,1,2
240,208,143536,1,2
240,32,144079,1,2
48,32,144713,2,2,B|448:32,2,385
352,32,147699,5,2
208,32,148152,1,2
16,32,148785,1,2
16,192,149329,1,2
208,192,149962,6,2,B|352:192,6,140
288,192,152406,1,2
0,192,153311,1,2
144,192,153763,1,2
256,192,154125,1,2
144,112,154578,5,2
224,112,154849,1,2
112,112,155211,1,2
112,304,155845,1,2
112,224,156116,1,2
112,304,156388,1,2
112,192,156750,1,2
256,192,157202,1,2
256,80,157564,1,2
256,192,157927,1,2
256,192,158922,1,0
256,192,159284,1,0
400,192,159737,5,2
400,80,160099,1,2
400,192,160461,1,2
400,192,160823,1,2
320,192,161094,1,2
128,192,161728,5,2
128,80,162090,1,2
128,192,162452,1,2
128,192,162814,1,2
208,192,163085,1,2
320,192,163447,1,2
320,16,163990,1,2
256,16,164171,2,2,B|256:208,2,175
256,192,165981,1,0
32,192,166706,5,0
112,192,166977,1,0
0,192,167339,1,0
144,192,167792,1,0
256,192,168154,1,0
144,192,168516,1,0
480,192,169602,5,0
368,192,169964,1,0
256,192,170326,1,0
400,192,170778,1,0
400,80,171140,1,0
320,80,171412,1,0
176,80,171864,1,0
224,80,172045,1,0
224,224,172498,5,0
160,224,172679,1,0
304,224,173131,1,0
304,112,173493,1,0
160,112,173946,1,0
352,112,174579,1,0
352,160,174761,1,0
256,192,187431,5,0
80,192,187974,1,0
80,80,188336,1,0
192,80,188698,1,0
192,224,189151,1,0
304,224,189513,1,0
304,48,190056,1,4
448,352,191142,5,0
368,352,191413,1,0
448,272,191776,1,0
368,352,192138,1,0
448,272,192500,1,0
448,352,192771,1,0
336,256,193224,1,0
448,352,193676,1,0
368,352,193948,1,0
320,240,194310,1,0
432,240,194672,1,0
432,352,195034,1,0
352,272,195396,1,0
352,96,195939,1,0
352,144,196120,2,0,B|304:144,13,35
224,144,197568,1,0
112,144,197930,1,0
112,336,198563,5,0
192,336,198835,1,0
336,336,199287,1,0
336,224,199649,1,0
224,224,200011,1,0
224,144,200283,1,0
336,144,200645,1,0
0,192,201731,5,0
112,192,202093,1,0
0,192,202455,1,0
0,192,202727,1,0
112,192,203089,1,0
192,192,203360,1,0
192,80,203722,1,0
384,80,204356,5,0
384,192,204718,1,0
384,80,205080,1,0
384,192,205442,1,0
304,192,205713,1,0
304,80,206075,1,0
224,80,206347,1,0
160,80,206528,1,0
160,128,206709,1,0
352,80,207342,5,0
240,80,207704,1,0
240,192,208066,1,0
240,80,208428,1,0
240,192,208791,1,0
368,96,209334,5,0
288,96,209605,1,0
288,208,209967,1,0
288,96,210329,1,0
400,96,210691,1,0
400,176,210963,1,0
320,176,211234,1,0
80,192,212411,5,0
128,192,212592,1,0
128,128,212773,1,0
240,128,213135,1,0
352,128,213497,1,0
352,208,213768,1,0
352,320,214130,1,0
272,320,214402,1,0
96,320,214945,5,0
96,208,215307,1,0
240,208,215759,1,0
240,96,216121,1,0
160,96,216393,1,0
48,96,216755,1,0
48,240,217207,1,0
96,240,217389,1,0
320,240,218113,1,0
320,128,218475,1,0
320,48,218746,1,0
208,48,219108,1,0
208,192,219561,1,0
256,192,220013,6,0,B|0:192|0:192|0:0,5,420
0,0,225353,6,0,L|256:0|256:208,4,455
256,224,230240,2,0,L|0:224|0:16,3,455
256,192,234041,12,0,241003
