osu file format v9

[General]
AudioFilename: Kozato snow.mp3
AudioLeadIn: 1000
PreviewTime: 173263
Countdown: 0
SampleSet: Soft
StackLeniency: 0.5
Mode: 0
LetterboxInBreaks: 0

[Editor]
Bookmarks: 14893,27933,40766,54427,67053,80300,94167,107414,120247,133919,147166,160424,173673,187336,200172
DistanceSpacing: 0.5
BeatDivisor: 4
GridSize: 8

[Metadata]
Title:Rengetsu Ouka
Artist:Kozato snow
Creator:_Kiva
Version:Yuki YukI
Source:
Tags:Kiva Snowy Dream Yumeko Yuki HakuNoKaemi wmfchris aabc271

[Difficulty]
HPDrainRate:8
CircleSize:4
OverallDifficulty:7
ApproachRate:8
SliderMultiplier:1.8
SliderTickRate:0.5

[Events]
//Background and Video events
0,0,"BG_example.JPG"
//Break Periods
2,54644,66322
2,67893,79572
2,107641,119526
2,160627,172513
//Storyboard Layer 0 (Background)
Sprite,Background,Centre,"SB\bg2.png",320,240 S,0,26288,26495,1,1.04096 F,0,26288,27530,1,0 S,0,26495,27530,1.04096,1.26624
Sprite,Background,Centre,"SB\C32.png",320,240 M,0,41193,54436,259,283,320,240 F,0,41193,54436,1 S,0,41193,54436,1.2048,1.13312 R,0,41193,54436,0,0.1023999 F,0,54436,55264,1,0 S,0,54436,55264,1.13312,1.29696
Sprite,Background,Centre,"SB\bg1.png",320,240 F,0,27944,,1 S,0,27944,41193,1,1.327681 S,0,41193,,1.327681
Sprite,Background,Centre,"SB\bg3.png",320,240 F,0,160427,162083,0,1 S,0,160427,162083,1 S,0,162083,166829,1,1.035869 F,0,162083,173677,1,0.9987923 S,0,166829,173677,1.035869,1.11264 F,0,173677,173780,0.9987923,0.8605523
//Storyboard Layer 1 (Fail)
//Storyboard Layer 2 (Pass)
//Storyboard Layer 3 (Foreground)
Sprite,Foreground,Centre,"SB\bg2.png",320,240 F,0,1445,2687,0.8,0 S,0,1445,2687,1,1.16
Sprite,Foreground,Centre,"SB\Mini Light.png",320,240 M,0,24631,,140,147 S,0,24631,24838,0.19104,0.488 F,0,24631,25045,1,0 S,0,24838,25045,0.488,0.5903998
Sprite,Foreground,Centre,"SB\MINI SNOW.png",320,240 M,0,25045,,472,224 S,0,25045,25252,0.32416,0.5392001 F,0,25045,25459,1,0 S,0,25252,25459,0.5392001,0.6518402
Sprite,Foreground,Centre,"SB\black.png",320,240 F,0,26702,27944,0,1 F,0,27944,28358,1,0.55296 F,0,28358,28772,0.55296,0.005119934
Sprite,Foreground,Centre,"SB\OP effect.png",320,240 M,0,25459,,193,293 F,0,25459,25666,1,0 S,0,25459,25666,0.61088,1.24576
Sprite,Foreground,Centre,"SB\OP effect.png",320,240 M,0,25666,,387,373 P,0,25666,,H V,0,25666,,1.06144,1 V,0,25666,,1.06144,1 F,0,25666,25873,1,0 S,0,25666,25873,0.6313599,1.4096
Sprite,Foreground,Centre,"SB\OP effect.png",320,240 M,0,25873,,417,134 M,0,25873,,417,134 P,0,25873,,V F,0,25873,26080,1,0 S,0,25873,26080,1,1.52224
Sprite,Foreground,Centre,"SB\OP effect.png",320,240 F,0,26080,26288,1,0 S,0,26080,26288,1,1.54272
Sprite,Foreground,Centre,"SB\sakura_b.png",320,240 S,0,26288,26391,0.3,0.7 F,0,26288,27116,1 S,0,26391,27530,0.7,0.9 F,0,27116,27530,1,0
Sprite,Foreground,Centre,"SB\sakura_b.png",320,240 M,0,26288,,529,377 P,0,26288,,H S,0,26288,26391,0.4,0.55 F,0,26288,26702,1,0 S,0,26391,26702,0.55,0.9
Sprite,Foreground,Centre,"SB\sakura_b.png",320,240 M,0,26288,,202,210 P,0,26288,,H P,0,26288,,V S,0,26288,26391,0.4,0.64 F,0,26288,26702,1,0 S,0,26391,26702,0.64,0.7
Sprite,Foreground,Centre,"SB\azure.png",320,240 F,0,40779,41193,0,1 F,0,41193,41814,1,0
Sprite,Foreground,Centre,"SB\sakura_b",320,240 F,0,54436,55264,0,1 R,0,54436,61060,0.2252804,0 S,0,54443,,1.5625 M,0,54443,61060,378,177,304,342 F,0,55264,59404,1 F,0,59404,61060,1,0
Sprite,Foreground,Centre,"SB\bg2.png",320,240 F,0,61060,61267,0,0.7122133 S,0,61060,62302,1,1.1024 F,0,61267,62302,0.7122133,0
Sprite,Foreground,Centre,"SB\bg2.png",320,240 F,0,67685,67892,0,0.8333333 S,0,67685,68927,1,1.13312 F,0,67892,68927,0.8333333,0
Sprite,Foreground,Centre,"SB\wakka.png",320,240 M,0,80935,,305,116 F,0,80935,81038,1,0.9206253 S,0,80935,81038,0.3548797,0.7181275 S,0,81038,,0.7181275 F,0,81038,81349,0.9206253,0.6809599 S,0,81038,81556,0.7181275,0.8000475 F,0,81349,81556,0.6809599,0
Sprite,Foreground,Centre,"SB\wakka.png",320,240 F,0,14694,14901,0,0.8333333 S,0,14694,14901,0.7337599,1.41984 S,0,14901,15108,1.41984,1.6144 F,0,14901,15936,0.8333333,0 S,0,15108,15522,1.6144,1.80896 S,0,15522,15936,1.80896,1.94208
Animation,Foreground,Centre,"SB\am2\am2.png",320,240,5,500,LoopForever S,0,67685,,1 R,0,67685,,0 F,0,67685,68513,0,0.7696 M,0,67685,74310,102,25,93,434 F,0,68513,69341,0.7696,1 F,0,69341,70169,1,0.7696 F,0,70169,70998,0.7696,1 F,0,70998,71826,1,0.8771199 F,0,71826,72654,0.8771199,1 F,0,72654,73482,1,0.73888 F,0,73482,74310,0.73888,0
Animation,Foreground,Centre,"SB\am2\am2.png",320,240,5,500,LoopForever S,0,67685,,1 R,0,67685,,0 F,0,67685,68513,0,0.7696 M,0,67685,74310,411,130,387,308 F,0,68513,69341,0.7696,1 F,0,69341,70169,1,0.7696 F,0,70169,70998,0.7696,1 F,0,70998,71826,1,0.8771199 F,0,71826,72654,0.8771199,1 F,0,72654,73482,1,0.73888 F,0,73482,74310,0.73888,0
Animation,Foreground,Centre,"SB\am2\am2.png",320,240,5,500,LoopForever S,0,67685,,1 R,0,67685,,0 F,0,67685,68513,0,0.7696 M,0,67685,74310,102,25,93,434 F,0,68513,69341,0.7696,1 F,0,69341,70169,1,0.7696 F,0,70169,70998,0.7696,1 F,0,70998,71826,1,0.8771199 F,0,71826,72654,0.8771199,1 F,0,72654,73482,1,0.73888 F,0,73482,74310,0.73888,0
Animation,Foreground,Centre,"SB\am2\am2.png",320,240,5,500,LoopForever S,0,67685,,1 R,0,67685,,0 F,0,67685,68513,0,0.7696 M,0,67685,74310,179,179,203,467 F,0,68513,69341,0.7696,1 F,0,69341,70169,1,0.7696 F,0,70169,70998,0.7696,1 F,0,70998,71826,1,0.8771199 F,0,71826,72654,0.8771199,1 F,0,72654,73482,1,0.73888 F,0,73482,74310,0.73888,0
Animation,Foreground,Centre,"SB\am2\am2.png",320,240,5,500,LoopForever S,0,67685,,1 R,0,67685,,0 F,0,67685,68513,0,0.7696 M,0,67685,74310,237,361,274,534 F,0,68513,69341,0.7696,1 F,0,69341,70169,1,0.7696 F,0,70169,70998,0.7696,1 F,0,70998,71826,1,0.8771199 F,0,71826,72654,0.8771199,1 F,0,72654,73482,1,0.73888 F,0,73482,74310,0.73888,0
Animation,Foreground,Centre,"SB\am2\am2.png",320,240,5,500,LoopForever S,0,67685,,0.63136 R,0,67685,,0 F,0,67685,68513,0,0.7696 M,0,67685,74310,227,175,267,525 F,0,68513,69341,0.7696,1 F,0,69341,70169,1,0.7696 F,0,70169,70998,0.7696,1 F,0,70998,71826,1,0.8771199 F,0,71826,72654,0.8771199,1 F,0,72654,73482,1,0.73888 F,0,73482,74310,0.73888,0
Animation,Foreground,Centre,"SB\am2\am2.png",320,240,5,500,LoopForever S,0,67685,,0.41632 R,0,67685,,0 F,0,67685,68513,0,0.7696 M,0,67685,74310,564,-67,619,531 F,0,68513,69341,0.7696,1 F,0,69341,70169,1,0.7696 F,0,70169,70998,0.7696,1 F,0,70998,71826,1,0.8771199 F,0,71826,72654,0.8771199,1 F,0,72654,73482,1,0.73888 F,0,73482,74310,0.73888,0
Sprite,Foreground,Centre,"SB\SNOW.png",320,240 S,0,67685,,2.35168 F,0,67685,70998,0,1 M,0,67685,80314,320,-211,317,693 F,0,68513,80314,1,0 F,0,70998,79279,1 F,0,79279,80314,1,0
Animation,Foreground,Centre,"SB\am2\am2.png",320,240,5,500,LoopForever F,0,70998,71826,0,1 M,0,70998,74299,257,66,263,208 F,0,71826,72654,1,0.7132799 F,0,72654,73689,0.7132799,1 F,0,73689,74310,1,0
Animation,Foreground,Centre,"SB\am2\am2.png",320,240,5,500,LoopForever S,0,70998,,0.7030401 F,0,70998,71826,0,1 M,0,70998,74310,431,109,422,223 F,0,71826,72654,1,0.7132799 F,0,72654,73689,0.7132799,1 F,0,73689,74310,1,0
Animation,Foreground,Centre,"SB\am2\am2.png",320,240,5,500,LoopForever F,0,70998,71826,0,1 M,0,70998,74299,73,-34,66,270 F,0,71826,72654,1,0.7132799 F,0,72654,73689,0.7132799,1 F,0,73689,74310,1,0
Animation,Foreground,Centre,"SB\am2\am2.png",320,240,5,500,LoopForever S,0,70998,,0.6825599 F,0,70998,71826,0,1 M,0,70998,74299,390,75,370,115 F,0,71826,72654,1,0.7132799 F,0,72654,73689,0.7132799,1 F,0,73689,74310,1,0
Sprite,Foreground,Centre,"SB\wakka.png",320,240 M,0,81763,,249,251 S,0,81763,81866,0.39584,0.6620799 F,0,81763,82384,1,0 S,0,81866,82384,0.6620799,0.8975999
Sprite,Foreground,Centre,"SB\wakka.png",320,240 M,0,82591,,152,394 S,0,82591,82694,0.3651201,0.7952 F,0,82591,83212,1,0 S,0,82694,83212,0.7952,1.01024
Sprite,Foreground,Centre,"SB\wakka.png",320,240 M,0,83419,,456,324 S,0,83419,83523,0.3856,0.744 F,0,83419,84040,1,0 S,0,83523,84040,0.744,1.02048
Sprite,Foreground,Centre,"SB\wakka.png",320,240 M,0,85075,,321,197 S,0,85075,85179,0.37536,0.80544 F,0,85075,85696,0.9948799,0 S,0,85179,85696,0.80544,1.12288
Sprite,Foreground,Centre,"SB\wakka.png",320,240 M,0,85903,,248,284 S,0,85903,86007,0.3344,0.8464 F,0,85903,86524,1,0 S,0,86007,86524,0.8464,1.2048
Sprite,Foreground,Centre,"SB\wakka.png",320,240 M,0,86731,,207,101 S,0,86731,86835,0.37536,0.8 F,0,86731,87352,1,0 S,0,86835,87352,0.8463999,1.22528
Sprite,Foreground,Centre,"SB\wakka.png",320,240 M,0,87560,,472,229 S,0,87560,87663,0.3,0.8 F,0,87560,88180,1,0 S,0,87663,88180,0.8,1.12
Sprite,Foreground,Centre,"SB\wakka.png",320,240 M,0,88388,,408,373 S,0,88388,88491,0.3,0.8 F,0,88388,88905,1,0 S,0,88491,88905,0.8,1.12
Sprite,Foreground,Centre,"SB\wakka.png",320,240 M,0,89216,,321,136 S,0,89216,89319,0.3,0.8 F,0,89216,89733,1,0 S,0,89319,89733,0.8,1.12
Sprite,Foreground,Centre,"SB\wakka.png",320,240 M,0,90044,,257,252 S,0,90044,90147,0.3,0.8 F,0,90044,90561,1,0 S,0,90147,90561,0.8,1.12
Sprite,Foreground,Centre,"SB\wakka.png",320,240 M,0,90872,,265,292 S,0,90872,90975,0.3,0.8 F,0,90872,91389,1,0 S,0,90975,91389,0.8,1.12
Sprite,Foreground,Centre,"SB\wakka.png",320,240 M,0,91700,,265,132 S,0,91700,91804,0.3,0.8 F,0,91700,92217,1,0 S,0,91804,92217,0.8,1.12
Sprite,Foreground,Centre,"SB\wakka.png",320,240 M,0,92528,,521,252 S,0,92528,92632,0.3,0.8 F,0,92528,93045,1,0 S,0,92632,93045,0.8,1.12
Sprite,Foreground,Centre,"SB\wakka.png",320,240 M,0,93356,,304,309 S,0,93356,93460,0.3,0.8 F,0,93356,93873,1,0 S,0,93460,93873,0.8,1.12
Sprite,Foreground,Centre,"SB\wakka.png",320,240 M,0,84247,,495,122 S,0,84247,84351,0.3855998,0.7849598 F,0,84247,84868,1,0 S,0,84351,84868,0.7849598,1.13312
Sprite,Foreground,Centre,"SB\bg2.png",320,240 M,0,94184,,320,240 S,0,94184,94391,1,1.05632 F,0,94184,95012,1,0 S,0,94391,95012,1.05632,1.19456
Sprite,Foreground,Centre,"SB\azure.png",320,240 F,0,100809,102051,0.38048,0
Sprite,Foreground,Centre,"SB\azure.png",320,240 R,0,120276,,0 F,0,120276,120690,0,1 F,0,120690,121518,1,0
Sprite,Foreground,Centre,"SB\bg4.png",320,240 F,0,107441,133112,1 S,0,107441,133112,1.3,1 R,0,107441,133112,0.2,0
Sprite,Foreground,Centre,"SB\azure.png",320,240 F,0,107020,107434,0,1 F,0,107434,108269,1,0
Sprite,Foreground,Centre,"SB\C32.png",320,240 F,0,173682,190322,1 M,0,173682,200181,228,268,320,240 S,0,173682,200181,1.70656,1 R,0,173682,200181,0.3072,0 F,0,190322,192412,1 F,0,192412,200181,1 F,0,200181,201009,1,0
Sprite,Foreground,Centre,"SB\sakura_b.png",320,240 F,0,173677,173682,0.69792,0.3702399 S,0,173682,180306,1,1.43008 R,0,173682,180306,0.04096008,2.7648 F,0,173682,186103,0.3702399 S,0,180306,186931,1.43008,1.64512 R,0,180306,186931,2.7648,4.68992 F,0,186103,186931,0.3702399,0
Sprite,Foreground,Centre,"SB\MINI SNOW.png",320,240 F,0,186931,187759,0,1 S,0,186931,200181,1,1.53248 R,0,186931,200181,1.92512,0 F,0,187759,199353,1 F,0,199353,200181,1,0
Sprite,Foreground,Centre,"SB\sakura_b.png",320,240 F,0,186931,188173,0,0.3503307 S,0,186931,199353,1,1.28672 R,0,186931,199353,-3.23584,-1.76128 F,0,188173,198110,0.3503307,0.19104 F,0,198110,199353,0.19104,0.005120086 F,0,199353,200724,0.005120086,0
Animation,Foreground,Centre,"SB\am1\am1.jpg",320,240,5,500,LoopForever M,0,74310,,313,234 F,0,74310,74724,0.05792008,1 F,0,74724,75345,1,0.8813094 F,0,75345,75966,0.8813094,0.9981386 F,0,75966,76794,0.9981386,0.8279376 F,0,76794,77622,0.8279376,0.9956568 F,0,77622,78450,0.9956568,0.7588959 F,0,78450,79279,0.7588959,0.9931734 F,0,79279,80107,0.9931734,0.01013343
Sprite,Foreground,Centre,"SB\wakka.png",320,240 M,0,74310,,313,232 S,0,74310,74413,0.3139198,0.6415999 F,0,74310,75138,1,0 S,0,74413,75138,0.6415999,0.7961942
Sprite,Foreground,Centre,"SB\bg2.png",320,240 F,0,133112,133940,0,1 F,0,133940,147178,1 S,0,133940,147178,1,1.16384 F,0,147178,147592,1,0 S,0,147178,147592,1.16384,1.33792
Sprite,Foreground,Centre,"SB\sakura_b.png",320,240 M,0,120690,,320,240 S,0,120690,120794,1,1.29696 F,0,120690,121104,1 S,0,120794,121932,1.29696,1.44032 F,0,121104,121932,1,0.002415478
Sprite,Foreground,Centre,"SB\wakka.png",320,240 S,0,160427,160531,0.7337601,1.4608 F,0,160427,162083,1,0 S,0,160531,161255,1.4608,1.77824 S,0,161255,162083,1.77824,2.03615
Sprite,Foreground,Centre,"SB\azure.png",320,240 R,0,132284,,0 F,0,132284,133112,0,1 F,0,133112,133940,1,0
Sprite,Foreground,Centre,"SB\wakka.png",320,240 S,0,133940,134043,1,1.38912 F,0,133940,134457,1,0.80544 S,0,134043,134975,1.38912,1.89088 F,0,134457,134975,0.80544,0
Sprite,Foreground,Centre,"SB\SNOW.png",320,240 S,0,108269,,2.37216 F,0,108269,109097,0,1 M,0,108269,120173,314,-250,315,229 F,0,109097,112409,1 F,0,112409,112823,1,0.80032 F,0,112823,113237,0.80032,1 F,0,113237,119344,1 F,0,119344,120173,1,0
Sprite,Foreground,Centre,"SB\black.png",320,240 S,0,173263,,1 F,0,173263,173682,0,1 F,0,173682,174510,1,0 F,0,173682,174510,1,0.004830897
Sprite,Foreground,Centre,"SB\White Effect.png",320,240 M,0,173677,,217,128 F,0,173677,174510,1,0 S,0,173677,174510,0.2115199,1.09216
//Storyboard Sound Samples
//Background Colour Transformations
3,100,163,162,255

[TimingPoints]
1445,414.050100062108,4,2,1,70,1,0
13659,-100,4,2,1,40,0,0
13762,-100,4,2,1,45,0,0
13866,-100,4,2,1,50,0,0
13970,-100,4,2,1,55,0,0
14073,-100,4,2,1,50,0,0
14177,-100,4,2,1,55,0,0
14280,-100,4,2,1,60,0,0
14384,-100,4,2,1,75,0,0
14487,-100,4,2,1,80,0,0
14591,-100,4,2,1,85,0,0
14694,-100,4,2,1,60,0,0
14901,-100,4,2,0,45,0,0
15005,-100,4,2,1,60,0,0
15315,-100,4,2,0,45,0,0
15419,-100,4,2,1,60,0,0
15626,-100,4,2,0,45,0,0
15833,-100,4,2,1,60,0,0
16040,-100,4,2,0,45,0,0
16247,-100,4,2,1,60,0,0
16454,-100,4,2,0,45,0,0
16764,-100,4,2,1,60,0,0
16868,-100,4,2,0,45,0,0
17178,-100,4,2,1,60,0,0
17282,-100,4,2,0,45,0,0
17489,-100,4,2,1,60,0,0
17696,-100,4,2,0,45,0,0
17903,-100,4,2,1,60,0,0
18110,-100,4,2,0,45,0,0
18317,-100,4,2,1,60,0,0
18628,-100,4,2,0,45,0,0
18731,-100,4,2,1,60,0,0
18938,-100,4,2,0,45,0,0
19145,-100,4,2,1,60,0,0
19352,-100,4,2,0,45,0,0
19559,-100,4,2,1,60,0,0
19766,-100,4,2,0,45,0,0
19973,-100,4,2,1,60,0,0
20180,-100,4,2,0,45,0,0
20387,-100,4,2,1,60,0,0
20594,-100,4,2,0,45,0,0
20801,-100,4,2,1,60,0,0
21112,-100,4,2,0,45,0,0
21215,-100,4,2,1,60,0,0
21422,-100,4,2,0,45,0,0
21629,-100,4,2,1,60,0,0
21836,-100,4,2,0,45,0,0
22043,-100,4,2,1,60,0,0
22354,-100,4,2,0,45,0,0
22458,-100,4,2,1,60,0,0
22768,-100,4,2,0,45,0,0
22872,-100,4,2,1,60,0,0
23079,-100,4,2,0,45,0,0
23286,-100,4,2,1,60,0,0
23596,-100,4,2,0,45,0,0
23700,-100,4,2,1,60,0,0
23907,-100,4,2,0,45,0,0
24114,-100,4,2,1,60,0,0
24321,-100,4,2,0,45,0,0
24528,-100,4,1,1,60,0,0
27323,-100,4,2,1,60,0,0
27530,-100,4,2,1,60,0,0
27944,-100,4,2,1,60,0,0
29082,-100,4,2,1,65,0,0
39951,-100,4,2,1,80,0,0
40158,-100,4,2,1,85,0,0
40766,-100,4,2,1,30,0,0
41193,-100,4,2,1,85,0,0
41814,-100,4,2,1,85,0,0
43471,-100,4,2,1,75,0,0
44092,-100,4,2,1,65,0,0
44299,-100,4,2,1,55,0,0
44506,-100,4,2,1,45,0,0
44920,-100,4,2,1,50,0,0
45437,-100,4,2,1,55,0,0
46162,-100,4,2,1,60,0,0
47094,-100,4,2,1,65,0,0
47818,-100,4,2,1,55,0,0
48750,-100,4,2,1,60,0,0
50095,-100,4,2,1,65,0,0
54444,414.050100062108,4,2,1,70,1,0
67383,-100,4,2,1,50,0,0
67590,-100,4,2,1,70,0,0
102680,-200,4,2,1,70,0,0
105993,-100,4,2,1,70,0,0
107441,414.050100062108,4,2,1,70,1,0
107648,-100,4,2,1,70,0,0
120380,-100,4,2,1,75,0,0
132905,-100,4,2,1,35,0,0
133008,-100,4,2,1,40,0,0
133112,-100,4,2,1,45,0,0
133215,-100,4,2,1,45,0,0
133319,-100,4,2,1,50,0,0
133422,-100,4,2,1,55,0,0
133526,-100,4,2,1,60,0,0
133629,-100,4,2,1,65,0,0
133733,-100,4,2,1,70,0,0
133836,-100,4,2,1,75,0,0
133940,-100,4,2,1,80,0,1
136217,-100,4,2,1,60,0,1
137045,-100,4,2,1,80,0,1
147174,-100,4,2,1,80,0,0
147178,414.050100062108,4,2,1,70,1,0
173263,-100,4,2,1,60,0,0
173682,414.050100062108,4,2,1,70,1,0
174303,-100,4,2,1,40,0,0
174406,-100,4,2,1,45,0,0
174510,-100,4,2,1,50,0,0
174613,-100,4,2,1,55,0,0
174717,-100,4,2,1,60,0,0
174820,-100,4,2,1,65,0,0
174924,-100,4,2,1,70,0,0
175027,-100,4,2,1,75,0,0
175131,-100,4,2,1,80,0,0
186517,-100,4,2,1,30,0,0
186931,-100,4,2,1,80,0,1
187035,-100,4,2,1,80,0,1
196247,-100,4,2,1,70,0,1
196454,-100,4,2,1,60,0,1
196661,-100,4,2,1,50,0,1
196868,-100,4,2,1,80,0,1
200181,-100,4,2,1,80,0,0

[Colours]
Combo1 : 152,48,207
Combo2 : 254,75,169
Combo3 : 226,5,221
SliderBorder : 224,224,224

[HitObjects]
112,96,1030,1,0
144,108,1134,1,0
176,92,1237,1,0
208,108,1341,1,0
240,96,1445,1,0
408,272,2894,5,0
408,272,2997,1,0
408,272,3101,2,0,B|360:280|312:272,1,90
104,276,3515,2,0,B|152:268|200:276,1,90
216,184,3929,1,0
168,88,4136,1,0
256,144,4343,1,0
208,48,4550,1,0
312,64,4757,5,0
416,64,4964,1,0
416,64,5067,2,0,B|448:104|464:144|464:200,1,135
463,187,5481,1,0
463,187,5585,1,0
437,289,5792,1,0
337,262,5999,1,0
364,162,6206,1,0
464,188,6413,1,0
464,88,6620,6,0,B|424:64|368:56,1,90
280,56,7034,2,0,B|184:56,1,90
190,56,7448,1,0
128,136,7655,1,0
120,168,7759,1,0
128,200,7862,1,0
136,232,7966,1,0
128,264,8069,1,0
192,336,8276,5,0
192,336,8380,2,0,B|240:336|288:328|336:312,1,135
324,315,8794,1,0
324,315,8897,1,0
336,216,9104,1,0
440,200,9311,1,0
480,104,9518,1,0
392,40,9726,6,0,B|288:40,1,90
224,88,10140,1,0
216,104,10243,1,0
208,120,10347,1,0
200,136,10450,1,0
192,152,10554,1,0
256,296,10761,1,0
256,152,10968,1,0
256,296,11175,1,0
168,344,11382,5,0
168,248,11589,1,0
168,248,11692,1,0
128,112,12003,1,0
128,112,12106,1,0
128,112,12210,2,0,B|144:160|128:208,1,90
48,248,12624,2,0,B|32:200|48:152,1,90
48,64,13038,5,0
48,64,13245,2,0,B|96:64,2,45
208,64,13659,1,0
240,64,13762,1,0
272,72,13866,1,0
304,88,13970,1,0
328,112,14073,1,8
344,144,14177,1,8
352,176,14280,1,8
352,208,14384,5,0
344,240,14487,1,0
328,272,14591,1,0
304,296,14694,2,0,B|264:320|216:328,1,90,0|2
104,280,15108,2,0,B|144:256|192:248,1,90,0|2
280,224,15522,1,0
296,120,15729,1,2
192,96,15936,1,0
168,192,16143,5,2
168,192,16247,1,0
168,192,16350,1,0
144,288,16557,2,0,B|208:288|208:288|232:264,1,90,2|0
168,192,16971,2,0,B|104:192|104:192|80:216,1,90,2|0
144,288,17385,1,2
256,352,17592,1,0
368,288,17799,1,2
256,104,18007,5,0
256,104,18214,1,2
256,104,18317,2,0,B|256:240,1,135,0|2
256,239,18731,1,0
256,239,18835,1,0
168,296,19042,1,2
256,352,19249,1,0
168,296,19456,1,2
256,239,19663,1,0
344,296,19870,1,2
256,239,20077,1,0
136,152,20284,5,2
256,96,20491,1,0
376,152,20698,1,2
424,264,20905,1,0
416,264,21008,1,0
408,264,21112,1,2
400,264,21215,1,0
392,264,21319,1,0
288,264,21526,1,2
288,264,21629,1,0
136,208,21940,5,2
136,208,22043,1,0
136,208,22147,2,0,B|136:144|136:144|160:128,1,90,0|2
248,104,22561,2,0,B|248:168|248:168|224:184,1,90,0|2
136,104,22975,1,0
248,56,23182,1,2
360,104,23389,1,0
376,120,23493,1,0
392,136,23596,1,2
408,152,23700,1,0
424,168,23803,1,0
432,280,24010,5,2
256,328,24217,1,0
80,280,24424,1,2
256,192,24631,12,0,27116
256,192,27323,5,0
256,192,27426,1,0
256,192,27530,1,4
72,136,27944,5,0
161,84,28151,1,0
158,182,28358,1,0
96,80,28565,1,0
192,32,28772,5,0
224,32,28875,1,0
256,32,28979,1,0
288,32,29082,1,0
320,32,29186,2,0,B|368:32,4,45
272,112,29807,6,0,B|248:160|272:200,1,90
360,160,30221,1,0
368,168,30324,1,0
376,176,30428,1,0
384,184,30532,1,0
392,192,30635,2,0,B|448:192,4,45
328,280,31256,5,0
224,296,31463,1,0
128,248,31670,2,0,B|96:216|104:160,1,90
176,88,32084,2,0,B|208:120|200:176,1,90
128,248,32498,2,0,B|96:280,2,45
216,192,32912,2,0,B|256:168|304:192,1,90
264,288,33326,2,0,B|304:312|352:288,1,90
408,208,33740,1,0
424,104,33947,1,0
336,40,34154,6,0,B|288:40,4,45,0|0|0|0|8
336,136,34776,1,0
176,136,34983,1,0
256,72,35190,1,0
256,112,35293,1,0
256,160,35397,1,0
88,264,35604,2,0,B|128:240|176:240,1,90
424,264,36018,2,0,B|384:240|336:240,1,90
208,320,36432,6,0,B|208:232,1,90
304,320,36846,2,0,B|304:232,1,90
256,144,37260,1,0
256,144,37467,1,0
256,144,37570,1,0
256,144,37674,1,0
336,80,37881,1,0
424,136,38088,1,0
424,136,38191,1,0
424,136,38295,2,0,B|424:232,1,90
344,272,38709,5,0
344,176,38916,1,0
256,328,39123,1,0
256,120,39330,1,0
176,224,39537,5,0
176,224,39744,1,0
176,224,39848,1,0
176,224,39951,1,0
120,128,40158,1,0
120,128,40262,1,0
120,128,40365,1,0
224,128,40572,1,0
224,128,40676,1,0
224,128,40779,6,0,B|224:96,7,22.5
224,105,41193,6,0,B|312:104,1,90,4|0
400,152,41607,1,0
400,256,41814,2,0,B|432:288,4,45
304,312,42435,1,0
208,256,42642,1,0
208,256,42746,1,0
208,256,42850,2,0,B|208:168,1,90
168,80,43264,6,0,B|208:56|256:80,1,90
272,112,43574,1,0
288,144,43678,2,0,B|312:184|368:192,1,90
368,96,44092,1,0
368,288,44299,1,0
280,336,44506,6,0,B|240:368,4,45
232,248,45127,1,0
232,248,45230,1,0
128,248,45437,1,0
120,248,45541,1,0
112,248,45644,1,0
104,248,45748,1,0
48,168,45955,1,0
104,80,46162,5,0
120,80,46265,1,0
136,80,46369,1,0
152,80,46472,1,0
168,80,46576,1,0
272,80,46783,1,0
272,80,46886,1,0
376,80,47094,1,0
400,80,47197,1,0
424,80,47301,1,0
448,80,47404,1,0
456,176,47611,5,0
400,256,47818,1,8
368,256,47922,1,0
336,256,48025,1,0
304,256,48129,1,0
272,256,48232,1,0
176,256,48439,1,0
176,256,48543,1,0
80,256,48750,5,0
80,256,48853,1,0
80,256,48957,1,0
80,256,49060,1,0
128,168,49267,1,0
32,168,49474,1,0
32,168,49578,1,0
32,168,49681,1,0
32,168,49785,1,0
32,168,49888,1,0
80,80,50095,5,0
96,72,50199,1,0
200,40,50406,1,0
224,40,50509,1,0
248,40,50613,1,0
272,40,50716,1,0
360,96,50923,1,0
415,175,51131,5,0
336,230,51338,1,0
281,151,51545,1,0
360,96,51752,1,0
360,96,51855,1,0
360,96,51959,1,0
442,214,52166,1,0
323,297,52373,1,0
241,178,52580,1,0
241,178,52683,1,0
241,178,52787,1,0
256,192,52890,12,4,54444
168,112,67072,5,0
168,112,67176,1,0
168,112,67279,1,0
168,112,67486,1,8
168,112,67693,1,4
144,96,80322,5,0
144,96,80425,1,0
144,96,80529,1,0
144,96,80736,1,0
240,56,80943,1,12
280,152,81150,1,0
280,152,81253,1,0
280,152,81357,1,0
184,192,81564,1,0
184,192,81771,1,4
88,232,81978,5,0
88,232,82185,1,0
88,232,82392,1,0
88,336,82599,2,8,B|184:336,1,90,8|0
208,336,82909,1,0
240,336,83013,2,0,B|328:336,1,90
392,264,83427,1,4
464,168,83634,1,0
392,264,83841,1,0
464,168,84048,1,0
432,64,84255,6,8,B|336:64,1,90,8|0
80,64,84669,2,8,B|176:64,1,90,0|0
256,136,85083,1,4
256,304,85290,1,0
256,136,85497,1,0
256,304,85704,1,0
184,224,85911,5,8
88,224,86118,1,0
80,216,86222,1,0
72,208,86325,1,0
72,112,86532,1,0
144,40,86739,2,0,B|240:40,1,90,4|0
224,128,87153,2,0,B|312:128,1,90
408,168,87568,6,0,B|432:208|416:256,1,90,8|0
416,254,87878,1,0
416,254,87982,1,0
344,312,88189,1,0
344,312,88396,1,4
168,256,88603,1,0
344,200,88810,1,0
168,144,89017,1,0
256,76,89224,5,8
256,160,89431,1,0
256,192,89534,1,0
256,224,89638,1,0
256,307,89845,1,0
192,192,90052,1,4
256,76,90259,1,0
320,192,90466,1,0
256,307,90673,1,0
200,232,90880,5,8
312,232,91087,1,0
152,152,91294,1,0
360,152,91501,1,0
200,72,91708,5,4
312,72,91915,1,0
152,152,92122,1,0
360,152,92329,1,0
456,192,92536,5,8
416,288,92743,1,0
384,288,92847,1,0
352,288,92950,1,0
264,336,93157,2,0,B|240:296|240:240,1,90,0|4
240,160,93571,1,0
208,64,93778,1,0
176,72,93882,1,0
152,96,93985,1,0
136,128,94089,1,0
136,160,94192,5,8
72,240,94399,2,0,B|16:256,2,45
136,312,94813,1,0
192,232,95020,2,0,B|240:152,1,90
376,112,95434,2,0,B|328:192,1,90
464,112,96056,5,0
496,192,96263,1,0
464,272,96470,1,0
48,272,96884,1,0
16,192,97091,1,0
48,112,97298,1,0
152,64,97505,5,0
224,136,97712,1,0
152,64,97919,1,0
248,40,98126,1,0
344,72,98333,2,0,B|392:88|416:144,1,90
392,224,98747,2,0,B|344:208|320:152,1,90
224,136,99161,5,0
152,208,99368,1,0
144,240,99471,1,0
152,272,99575,1,0
248,222,99782,1,0
248,312,99989,2,0,B|248:216,1,90
328,112,100403,2,0,B|328:216,1,90
360,288,100817,5,2
432,216,101024,1,0
432,184,101128,1,0
432,152,101231,1,0
400,64,101438,1,0
304,40,101645,2,0,B|256:40|216:72,1,90
200,168,102059,2,0,B|248:168|288:136,1,90
176,280,102680,6,0,B|176:336,2,45
336,104,103508,2,0,B|336:48,2,45
336,104,104130,5,0
416,192,104337,1,0
336,280,104544,1,0
256,192,104751,1,0
176,280,104958,1,0
96,192,105165,1,0
176,104,105372,1,0
256,192,105579,1,0
256,192,105786,5,0
256,192,105993,2,0,B|256:136,2,45
256,192,106407,1,0
256,288,106614,1,0
256,288,106821,2,0,B|160:288,1,90
144,288,107131,1,0
128,288,107235,1,0
112,288,107338,1,0
96,288,107441,1,4
256,56,120276,5,0
248,88,120380,1,0
256,120,120483,1,0
264,152,120587,1,0
256,184,120690,5,4
160,208,120897,2,0,B|176:256|224:280,1,90
296,208,121311,1,0
312,192,121415,1,0
336,184,121518,5,0
360,184,121622,1,0
376,192,121725,1,0
392,208,121829,1,0
400,232,121932,1,0
376,336,122139,1,0
376,336,122243,1,0
376,336,122346,6,0,B|336:360|288:360,1,90
192,336,122760,2,0,B|168:296|168:248,1,90
272,208,123174,1,0
216,104,123381,1,0
336,88,123588,2,0,B|304:120|304:176,2,90
416,168,124210,1,0
416,168,124313,2,0,B|472:192|472:256|424:280,1,135
432,275,124727,1,0
432,275,124831,1,0
344,224,125038,1,0
240,208,125245,2,0,B|248:160|304:136,1,90
360,80,125659,6,0,B|328:40|272:56,1,90
216,144,126073,1,0
104,136,126280,1,0
104,136,126383,1,0
104,136,126487,2,0,B|64:168|64:224,1,90
136,296,126901,5,0
160,320,127004,1,0
192,328,127108,1,0
224,320,127211,1,0
248,296,127315,2,0,B|280:264|296:216,1,90
294,219,127625,1,0
408,80,127936,5,0
368,80,128039,1,0
328,80,128143,1,0
224,80,128350,1,0
72,40,128557,1,0
104,192,128764,1,0
272,144,128971,5,0
120,104,129178,1,0
152,256,129385,1,0
152,256,129489,1,0
152,256,129592,1,0
152,256,129696,1,0
152,256,129799,2,0,B|200:280|240:256,1,90
328,128,130213,2,0,B|280:104|240:128,1,90
240,224,130627,5,0
336,256,130834,1,0
320,288,130938,1,0
296,312,131041,2,0,B|256:344|208:352,1,90
184,352,131352,1,0
152,352,131455,1,0
64,264,131662,1,0
160,264,131869,1,0
32,248,132076,1,0
192,248,132284,1,0
96,160,132491,1,0
120,136,132594,1,0
152,128,132698,1,0
248,128,132905,5,0
280,120,133008,1,0
312,120,133112,1,0
344,128,133215,1,0
372,144,133319,1,0
392,176,133422,1,0
400,208,133526,1,0
400,240,133629,1,0
392,272,133733,1,0
376,304,133836,1,0
344,320,133940,6,0,B|304:344|256:344,1,90,4|0
192,280,134354,1,0
92,264,134561,1,0
80,232,134664,1,0
76,196,134768,1,0
80,160,134871,1,0
88,128,134975,2,0,B|104:88|144:56,1,90
232,104,135389,6,0,B|256:152,2,45,0|0|8
232,104,135803,1,0
380,49,136010,1,0
289,185,136217,1,0
283,14,136424,1,0
389,149,136631,1,0
232,104,136838,1,0
380,49,137045,1,0
289,185,137252,5,4
289,185,137459,1,0
289,185,137563,1,0
112,256,137873,1,0
112,256,137977,1,0
112,256,138080,2,0,B|160:272|208:256,1,90
400,256,138494,2,0,B|352:240|304:256,1,90
256,184,138908,5,8
288,72,139115,1,0
232,152,139322,1,0
264,40,139529,1,0
168,72,139736,1,0
168,72,139943,1,0
100,160,140150,1,0
88,192,140254,1,0
84,224,140357,1,0
88,256,140461,1,0
96,288,140565,6,0,B|128:328|184:336,1,90,4|0
208,336,140875,1,0
248,336,140979,2,0,B|336:336,1,90
376,336,141289,1,0
408,336,141393,1,0
455,255,141600,1,0
460,82,141807,1,0
351,217,142014,1,0
512,172,142221,5,8
361,117,142428,1,0
256,116,142635,2,0,B|208:116,3,45
184,132,143049,2,0,B|144:160|144:216,1,90
256,280,143463,2,0,B|296:252|296:196,1,90
256,192,143877,12,4,147178
152,120,148627,6,0,B|184:88,2,45
152,232,149041,1,0
264,232,149248,2,0,B|264:280|224:320,1,90
152,232,149662,2,0,B|152:184|192:144,1,90
288,128,150076,5,0
416,64,150283,1,0
288,128,150490,1,8
392,184,150697,1,0
392,184,150800,2,0,B|408:232|408:280|352:320,1,135
367,307,151214,1,0
367,307,151318,5,0
256,344,151525,1,0
98,316,151732,1,0
126,158,151939,1,0
283,186,152146,1,0
194,290,152353,1,0
36,262,152560,1,0
64,104,152767,1,0
221,132,152974,5,0
194,290,153181,1,0
128,192,153388,1,0
144,192,153492,1,0
160,192,153595,1,0
176,192,153699,1,0
192,192,153802,2,0,B|320:192,1,90,4|0
280,192,154113,1,0
472,152,154423,5,0
480,192,154527,1,0
472,232,154630,1,0
336,192,154837,1,0
456,112,155044,1,0
456,272,155251,1,0
360,328,155459,5,0
152,328,155666,1,0
256,272,155873,1,0
256,240,155976,1,0
256,208,156080,1,0
256,176,156183,1,0
256,144,156287,1,0
320,64,156494,2,0,B|376:64|392:112,2,90,0|0|0
216,64,157115,5,8
216,64,157322,1,0
216,64,157425,1,0
88,104,157736,1,0
88,104,157839,1,0
88,104,157943,2,0,B|88:200,1,90
184,256,158357,2,0,B|184:160,1,90
88,228,158771,2,0,B|88:324,1,90
88,318,159081,1,0
88,318,159185,1,0
192,320,159392,5,0
208,320,159495,1,0
224,320,159599,1,0
240,320,159703,1,0
256,320,159806,1,0
272,320,159910,1,0
288,320,160013,1,0
304,320,160117,1,0
320,320,160220,1,0
336,320,160324,1,0
352,320,160427,1,4
152,72,173263,6,0,B|152:128,4,45,0|0|0|0|8
248,48,173889,2,0,B|336:48,1,90,0|0
408,120,174303,2,0,B|456:120,2,45,0|0|0
376,152,174613,2,0,B|328:152,2,45
408,184,174924,2,0,B|464:184,2,45
376,216,175234,1,0
344,240,175338,6,0,B|240:240,1,90,0|0
184,184,175752,1,0
144,296,175959,1,0
152,160,176166,1,0
112,272,176373,1,0
32,216,176580,1,0
32,112,176787,2,0,B|48:72|96:48,1,90,0|0
200,48,177201,5,0
200,48,177304,2,0,B|344:48,1,135
368,48,177718,1,0
400,48,177822,1,0
448,144,178029,1,0
424,256,178236,2,0,B|376:240|352:192,1,90,0|0
344,160,178547,1,0
336,120,178650,2,0,B|288:128|248:168,1,90,0|0
160,224,179064,6,0,B|256:248,1,90
352,160,179478,2,0,B|256:136,1,90
176,88,179892,1,0
144,72,179996,1,0
112,88,180099,1,0
80,72,180203,1,0
56,88,180306,5,0
56,176,180513,1,0
56,176,180617,2,0,B|56:312,1,135
56,311,181031,1,0
56,311,181134,1,0
168,312,181341,1,0
256,256,181548,1,0
344,312,181755,1,0
440,280,181963,2,0,B|472:240|464:192,1,90,0|0
440,96,182377,5,0
432,80,182480,1,0
424,64,182584,1,0
416,48,182687,1,0
408,32,182791,2,0,B|344:32|344:32|328:56,1,90
288,136,183205,2,0,B|200:136,1,90
128,64,183619,2,0,B|120:32|120:32|56:32,1,90
32,32,183929,2,0,B|32:168,1,135
32,200,184343,1,0
32,232,184447,5,0
128,272,184654,2,0,B|216:320,1,90
328,272,185068,2,0,B|240:224,1,90
168,160,185482,1,0
176,120,185585,1,0
208,96,185689,1,0
320,80,185896,5,0
352,88,185999,1,0
376,112,186103,1,0
384,152,186207,1,0
376,184,186310,1,0
344,208,186414,1,0
312,208,186517,2,0,B|280:192,8,22.5,0|0|0|0|0|0|0|0|4
256,192,187035,12,0,188173
256,96,188380,5,0
256,96,188484,1,0
256,96,188587,1,8
376,96,188794,1,0
448,184,189001,2,0,B|360:216,1,90
424,304,189415,2,0,B|336:336,1,90
216,336,189829,1,0
144,232,190036,1,0
216,336,190244,1,4
280,232,190451,5,0
280,232,190554,2,0,B|280:96,1,135
280,64,190968,1,0
280,32,191072,1,0
176,64,191279,1,0
121,179,191486,1,0
237,233,191693,1,0
291,117,191900,2,0,B|360:184,1,90,8|0
400,264,192314,6,0,B|352:256|304:264,1,90
112,264,192728,2,0,B|160:256|208:264,1,90
256,168,193142,2,0,B|280:128,4,45,0|0|0|0|4
160,112,193763,1,0
160,112,193866,2,0,B|104:112|64:144|64:208,1,135
64,224,194280,1,0
64,256,194384,1,0
128,352,194591,5,0
192,256,194798,1,0
256,352,195005,1,0
368,352,195212,2,0,B|416:340|420:280,1,90,8|0
416,184,195626,1,0
408,168,195730,1,0
400,152,195833,1,0
392,136,195937,1,0
384,120,196040,5,0
184,64,196247,1,0
128,264,196454,1,0
328,320,196661,1,0
256,192,196868,12,8,199767
256,192,200181,5,4
