osu file format v9

[General]
AudioFilename: Kozato snow.mp3
AudioLeadIn: 1000
PreviewTime: 173263
Countdown: 0
SampleSet: Normal
StackLeniency: 0.2
Mode: 1
LetterboxInBreaks: 0

[Editor]
DistanceSpacing: 1
BeatDivisor: 4
GridSize: 8

[Metadata]
Title:Rengetsu Ouka
Artist:Kozato snow
Creator:_Kiva
Version:Taiko Collab
Source:
Tags:Kiva Snowy Dream Yumeko Yuki HakuNoKaemi wmfchris aabc271

[Difficulty]
HPDrainRate:6
CircleSize:4
OverallDifficulty:6
ApproachRate:6
SliderMultiplier:1.6
SliderTickRate:0.5

[Events]
//Background and Video events
0,0,"BG_example.JPG"
//Break Periods
2,147378,159377
//Storyboard Layer 0 (Background)
//Storyboard Layer 1 (Fail)
//Storyboard Layer 2 (Pass)
//Storyboard Layer 3 (Foreground)
//Storyboard Sound Samples
//Background Colour Transformations
3,100,163,162,255

[TimingPoints]
1445,414.050100062108,4,1,1,60,1,0
54444,414.050100062108,4,1,1,60,1,0
107441,414.050100062108,4,1,1,65,1,0
133940,-100,4,1,1,70,0,1
147174,-100,4,1,1,70,0,0
147178,414.050100062108,4,1,1,65,1,0
173682,414.050100062108,4,1,1,70,1,1
187035,-90.9090909090909,4,1,1,70,0,1
200181,-100,4,1,1,70,0,0

[Colours]
Combo1 : 0,128,255
Combo2 : 255,96,0

[HitObjects]
472,88,1030,1,2
472,88,1134,1,2
472,88,1237,1,0
472,88,1341,1,0
472,88,1445,1,2
472,88,2894,1,0
472,88,2997,1,0
472,88,3101,1,2
472,88,3308,1,2
472,88,3515,1,0
472,88,3722,1,0
472,88,3929,1,0
472,88,4136,1,2
472,88,4343,1,0
472,88,4550,1,2
472,88,4757,1,2
472,88,4964,1,2
472,88,5067,1,0
472,88,5378,1,2
472,88,5481,1,0
472,88,5585,1,2
472,88,5792,1,0
472,88,5896,1,0
472,88,5999,1,2
472,88,6206,1,2
472,88,6413,1,2
472,88,6620,1,0
472,88,6827,1,0
472,88,6931,1,0
472,88,7034,1,0
472,88,7138,1,0
472,88,7241,1,2
472,88,7448,1,2
472,88,7655,1,2
472,88,7759,1,0
472,88,7862,1,0
472,88,7966,1,0
472,88,8069,1,2
472,88,8276,1,0
472,88,8380,1,2
472,88,8690,1,0
472,88,8794,1,0
472,88,8897,1,0
472,88,9104,1,2
472,88,9208,1,0
472,88,9311,1,0
472,88,9518,1,0
472,88,9726,1,0
472,88,9933,1,2
472,88,10140,1,2
472,88,10243,1,2
472,88,10347,1,2
472,88,10450,1,2
472,88,10554,1,0
472,88,10761,1,2
472,88,10864,1,0
472,88,10968,1,0
472,88,11175,1,0
472,88,11382,1,2
472,88,11589,1,2
472,88,11692,1,2
472,88,12003,1,2
472,88,12106,1,0
472,88,12210,1,2
472,88,12417,1,0
472,88,12520,1,0
472,88,12624,1,2
472,88,12831,1,2
472,88,13038,1,2
472,88,13245,1,0
472,88,13348,1,0
472,88,13452,1,2
472,88,13659,1,2
472,88,13762,1,0
472,88,13866,1,2
472,88,13970,1,0
472,88,14073,1,2
472,88,14177,1,0
472,88,14280,1,0
472,88,14384,1,2
472,88,14487,1,2
472,88,14591,1,0
472,88,14694,1,0
472,88,14901,1,2
472,88,15108,1,0
472,88,15315,1,2
472,88,15522,1,0
472,88,15626,1,0
472,88,15729,1,2
472,88,15936,1,0
472,88,16143,1,2
472,88,16350,1,2
472,88,16557,1,2
472,88,16764,1,0
472,88,16971,1,2
472,88,17178,1,0
472,88,17282,1,0
472,88,17385,1,2
472,88,17489,1,2
472,88,17592,1,0
472,88,17799,1,2
472,88,17903,1,2
472,88,18007,1,0
472,88,18214,1,2
472,88,18421,1,0
472,88,18628,1,0
472,88,18835,1,2
472,88,19042,1,2
472,88,19249,1,0
472,88,19456,1,2
472,88,19559,1,2
472,88,19663,1,0
472,88,19870,1,2
472,88,20077,1,0
472,88,20284,1,2
472,88,20387,1,0
472,88,20491,1,0
472,88,20698,1,2
472,88,20905,1,2
472,88,21008,1,2
472,88,21112,1,0
472,88,21215,1,0
472,88,21319,1,2
472,88,21526,1,0
472,88,21629,1,0
472,88,21940,1,0
472,88,22043,1,0
472,88,22147,1,2
472,88,22354,1,2
472,88,22458,1,0
472,88,22561,1,0
472,88,22768,1,0
472,88,22975,1,0
472,88,23182,1,0
472,88,23286,1,0
472,88,23389,1,2
472,88,23493,1,0
472,88,23596,1,0
472,88,23700,1,0
472,88,23803,1,2
472,88,24010,1,2
472,88,24114,1,2
472,88,24217,1,0
472,88,24424,1,0
472,88,24631,1,2
472,88,24735,1,0
472,88,24838,1,0
472,88,24942,1,0
472,88,25045,1,2
472,88,25149,1,0
472,88,25252,1,0
472,88,25356,1,0
472,88,25459,1,2
472,88,25563,1,0
472,88,25666,1,2
472,88,25770,1,0
472,88,25873,1,2
472,88,25977,1,2
472,88,26080,1,2
472,88,26184,1,2
472,88,26288,1,0
472,88,26391,1,0
472,88,26495,1,0
472,88,26598,1,0
472,88,26702,1,2
472,88,26805,1,2
472,88,26909,1,0
472,88,27012,1,0
472,88,27116,1,2
472,88,27219,1,2
472,88,27323,1,0
472,88,27426,1,0
472,88,27530,1,0
472,88,27737,1,0
472,88,27840,1,0
472,88,27944,1,2
472,88,28151,1,2
472,88,28358,1,2
472,88,28565,1,0
472,88,28668,1,0
472,88,28772,1,2
472,88,28875,1,0
472,88,28979,1,0
472,88,29082,1,0
472,88,29186,1,2
472,88,29289,1,0
472,88,29393,1,0
472,88,29496,1,0
472,88,29600,1,2
472,88,29807,1,0
472,88,30014,1,2
472,88,30117,1,2
472,88,30221,1,2
472,88,30428,1,2
472,88,30532,1,2
472,88,30635,1,0
472,88,30739,1,2
472,88,30842,1,0
472,88,30946,1,0
472,88,31049,1,0
472,88,31153,1,0
472,88,31256,1,2
472,88,31360,1,0
472,88,31463,1,0
472,88,31567,1,0
472,88,31670,1,2
472,88,31877,1,0
472,88,32084,1,2
472,88,32188,1,0
472,88,32291,1,0
472,88,32498,1,2
472,88,32602,1,0
472,88,32705,1,0
472,88,32809,1,0
472,88,32912,1,2
472,88,33119,1,0
472,88,33326,1,0
472,88,33430,1,0
472,88,33533,1,2
472,88,33637,1,2
472,88,33740,1,2
472,88,33947,1,0
472,88,34154,1,6
472,88,34361,1,0
472,88,34465,1,0
472,88,34569,1,0
472,88,34776,1,0
472,88,34983,1,2
472,88,35190,1,2
472,88,35397,1,0
472,88,35604,1,0
472,88,35811,1,2
472,88,35914,1,0
472,88,36018,1,0
472,88,36121,1,0
472,88,36225,1,2
472,88,36432,1,0
472,88,36639,1,2
472,88,36742,1,2
472,88,36846,1,0
472,88,36949,1,0
472,88,37053,1,2
472,88,37260,1,0
472,88,37467,1,2
472,88,37570,1,0
472,88,37674,1,2
472,88,37777,1,0
472,88,37881,1,2
472,88,37984,1,2
472,88,38088,1,0
472,88,38191,1,0
472,88,38295,1,2
472,88,38502,1,0
472,88,38709,1,0
472,88,38813,1,0
472,88,38916,1,0
472,88,39020,1,0
472,88,39123,1,2
472,88,39227,1,0
472,88,39330,1,0
472,88,39434,1,0
472,88,39537,1,2
472,88,39744,1,0
472,88,39951,1,2
472,88,40055,1,0
472,88,40158,1,0
472,88,40262,1,0
472,88,40365,1,2
472,88,40469,1,2
472,88,40572,1,0
472,88,40676,1,2
472,88,40779,1,0
472,88,40883,1,0
472,88,40986,1,2
472,88,41090,1,2
472,88,41193,1,2
472,88,41400,1,0
472,88,41607,1,0
472,88,41814,1,0
472,88,42021,1,2
472,88,42228,1,2
472,88,42435,1,0
472,88,42642,1,0
472,88,42850,1,2
472,88,43057,1,2
472,88,43264,1,0
472,88,43471,1,0
472,88,43678,1,0
472,88,43781,1,0
472,88,43885,1,2
472,88,43988,1,0
472,88,44092,1,0
472,88,44299,1,0
472,88,44402,1,0
472,88,44506,1,2
472,88,44609,1,2
472,88,44713,1,2
472,88,44816,1,2
472,88,44920,1,0
472,88,45127,1,0
472,88,45230,1,0
472,88,45334,1,2
472,88,45437,1,2
472,88,45541,1,0
472,88,45644,1,0
472,88,45748,1,0
472,88,45955,1,0
472,88,46058,1,0
472,88,46162,1,2
472,88,46265,1,2
472,88,46369,1,2
472,88,46472,1,2
472,88,46576,1,0
472,88,46783,1,0
472,88,46886,1,2
472,88,47094,1,0
472,88,47197,1,0
472,88,47301,1,2
472,88,47404,1,2
472,88,47611,1,2
472,88,47715,1,2
472,88,47818,1,0
472,88,48025,1,0
472,88,48129,1,0
472,88,48232,1,0
472,88,48439,1,0
472,88,48646,1,2
472,88,48750,1,0
472,88,48853,1,0
472,88,48957,1,0
472,88,49060,1,2
472,88,49164,1,0
472,88,49267,1,0
472,88,49371,1,0
472,88,49474,1,2
472,88,49681,1,0
472,88,49785,1,0
472,88,49888,1,0
472,88,50095,1,0
472,88,50302,1,0
472,88,50406,1,0
472,88,50509,1,0
472,88,50613,1,0
472,88,50716,1,0
472,88,50820,1,0
472,88,50923,1,0
472,88,51027,1,0
472,88,51131,1,2
472,88,51234,1,2
472,88,51338,1,0
472,88,51441,1,0
472,88,51545,1,2
472,88,51752,1,0
472,88,51855,1,0
472,88,51959,1,2
472,88,52166,1,0
472,88,52373,1,2
472,88,52476,1,0
472,88,52580,1,0
472,88,52683,1,0
472,88,52787,1,2
472,88,52890,1,2
472,88,52994,1,2
472,88,53097,1,2
472,88,53201,1,2
472,88,53304,1,2
472,88,53408,1,2
472,88,53511,1,2
472,88,53615,1,0
472,88,53718,1,0
472,88,53822,1,2
472,88,53925,1,2
472,88,54029,1,0
472,88,54236,1,2
472,88,54339,1,2
472,88,54444,1,0
472,88,55065,1,0
472,88,55168,1,0
472,88,55272,1,2
472,88,55686,1,2
472,88,56100,1,0
472,88,56307,1,2
472,88,56514,1,0
472,88,56721,1,0
472,88,56928,1,2
472,88,57135,1,2
472,88,57238,1,0
472,88,57342,1,0
472,88,57445,1,2
472,88,57549,1,0
472,88,57652,1,0
472,88,57756,1,2
472,88,58377,1,0
472,88,58480,1,0
472,88,58584,1,2
472,88,58791,1,0
472,88,58998,1,2
472,88,59205,1,2
472,88,59412,1,0
472,88,59619,1,0
472,88,59723,1,0
472,88,59826,1,2
472,88,60033,1,2
472,88,60240,1,2
472,88,60861,1,0
472,88,61068,1,0
472,88,61482,1,0
472,88,61689,1,0
472,88,61793,1,0
472,88,61896,1,2
472,88,62103,1,2
472,88,62310,1,0
472,88,62725,1,0
472,88,62932,1,2
472,88,63139,1,0
472,88,63346,1,0
472,88,63553,1,2
472,88,63760,1,2
472,88,63863,1,0
472,88,63967,1,0
472,88,64070,1,2
472,88,64174,1,2
472,88,64277,1,0
472,88,64381,1,0
472,88,65002,1,0
472,88,65105,1,0
472,88,65209,1,0
472,88,65623,1,0
472,88,66037,1,2
472,88,66658,1,0
472,88,66761,1,0
472,88,66865,1,0
472,88,67072,1,2
472,88,67176,1,2
472,88,67279,1,2
472,88,67486,1,2
472,88,67693,1,0
472,88,67900,1,0
472,88,68107,1,2
472,88,68314,1,0
472,88,68418,1,0
472,88,68521,1,2
472,88,68728,1,2
472,88,68935,1,0
472,88,69142,1,0
472,88,69246,1,0
472,88,69349,1,0
472,88,69556,1,2
472,88,69763,1,0
472,88,69970,1,2
472,88,70177,1,2
472,88,70384,1,2
472,88,70488,1,0
472,88,70591,1,0
472,88,70695,1,2
472,88,70798,1,0
472,88,70902,1,0
472,88,71006,1,2
472,88,71213,1,0
472,88,71316,1,0
472,88,71420,1,0
472,88,71627,1,2
472,88,71834,1,0
472,88,72041,1,0
472,88,72248,1,2
472,88,72455,1,0
472,88,72662,1,0
472,88,72869,1,0
472,88,73076,1,0
472,88,73283,1,2
472,88,73490,1,2
472,88,73593,1,0
472,88,73697,1,0
472,88,73904,1,2
472,88,74111,1,0
472,88,74318,1,0
472,88,74525,1,2
472,88,74732,1,2
472,88,74939,1,0
472,88,75042,1,0
472,88,75146,1,2
472,88,75353,1,2
472,88,75560,1,0
472,88,75974,1,2
472,88,76181,1,0
472,88,76388,1,0
472,88,76595,1,0
472,88,76802,1,2
472,88,77216,1,2
472,88,77630,1,2
472,88,77837,1,2
472,88,78044,1,0
472,88,78251,1,2
472,88,78458,1,0
472,88,78665,1,2
472,88,78872,1,2
472,88,79079,1,0
472,88,79287,1,2
472,88,79494,1,0
472,88,79701,1,0
472,88,79908,1,2
472,88,80115,1,2
472,88,80322,1,0
472,88,80425,1,0
472,88,80529,1,2
472,88,80736,1,0
472,88,80943,1,0
472,88,81150,1,2
472,88,81253,1,0
472,88,81357,1,0
472,88,81564,1,2
472,88,81978,1,2
472,88,82185,1,2
472,88,82392,1,0
472,88,82806,1,0
472,88,83013,1,0
472,88,83220,1,2
472,88,83634,1,0
472,88,83841,1,2
472,88,84048,1,2
472,88,84255,1,0
472,88,84462,1,2
472,88,84669,1,2
472,88,84876,1,2
472,88,85290,1,2
472,88,85497,1,0
472,88,85704,1,2
472,88,85911,1,0
472,88,86118,1,0
472,88,86222,1,2
472,88,86325,1,0
472,88,86532,1,0
472,88,86946,1,0
472,88,87153,1,2
472,88,87360,1,0
472,88,87568,1,2
472,88,87775,1,0
472,88,87878,1,2
472,88,87982,1,0
472,88,88189,1,0
472,88,88396,1,2
472,88,88603,1,2
472,88,88810,1,2
472,88,89017,1,0
472,88,89431,1,0
472,88,89638,1,0
472,88,89845,1,0
472,88,90259,1,0
472,88,90466,1,2
472,88,90673,1,0
472,88,90880,1,2
472,88,91087,1,2
472,88,91294,1,2
472,88,91501,1,2
472,88,91708,1,0
472,88,91915,1,0
472,88,92122,1,0
472,88,92329,1,0
472,88,92536,1,0
472,88,92743,1,0
472,88,92847,1,2
472,88,92950,1,0
472,88,93157,1,0
472,88,93364,1,2
472,88,93468,1,2
472,88,93571,1,2
472,88,93675,1,2
472,88,93778,1,0
472,88,93882,1,0
472,88,93985,1,2
472,88,94089,1,2
472,88,94192,1,0
472,88,94399,1,0
472,88,94503,1,2
472,88,94606,1,0
472,88,94813,1,0
472,88,95020,1,0
472,88,95227,1,0
472,88,95434,1,2
472,88,95641,1,0
472,88,96056,1,2
472,88,96263,1,0
472,88,96470,1,2
472,88,96884,1,0
472,88,97091,1,2
472,88,97298,1,0
472,88,97505,1,0
472,88,97712,1,2
472,88,97919,1,2
472,88,98126,1,2
472,88,98333,1,2
472,88,98540,1,0
472,88,98747,1,0
472,88,98954,1,2
472,88,99161,1,2
472,88,99368,1,0
472,88,99471,1,2
472,88,99575,1,0
472,88,99782,1,0
472,88,99989,1,2
472,88,100196,1,0
472,88,100403,1,0
472,88,100610,1,0
472,88,100817,1,2
472,88,101024,1,0
472,88,101128,1,2
472,88,101231,1,0
472,88,101438,1,0
472,88,101645,1,0
472,88,101852,1,2
472,88,102059,1,2
472,88,102266,1,0
472,88,102680,1,2
472,88,102887,1,0
472,88,103094,1,2
472,88,103508,1,0
472,88,103715,1,2
472,88,103922,1,0
472,88,104130,1,2
472,88,104337,1,2
472,88,104544,1,2
472,88,104751,1,2
472,88,104958,1,0
472,88,105165,1,0
472,88,105372,1,0
472,88,105579,1,2
472,88,105786,1,2
472,88,105889,1,2
472,88,105993,1,2
472,88,106096,1,2
472,88,106200,1,0
472,88,106303,1,0
472,88,106407,1,0
472,88,106510,1,0
472,88,106614,1,2
472,88,106717,1,0
472,88,106821,1,0
472,88,106924,1,0
472,88,107028,1,2
472,88,107131,1,0
472,88,107235,1,2
472,88,107338,1,0
472,88,107441,1,2
256,192,107648,1,0
256,192,107751,1,0
256,192,107855,5,8
256,192,108269,1,8
256,192,108476,5,0
256,192,108579,1,0
256,192,108683,5,8
256,192,109097,1,8
256,192,109304,5,0
256,192,109407,1,0
256,192,109511,5,8
256,192,109718,5,0
256,192,109821,1,0
256,192,109925,5,8
256,192,110028,1,8
256,192,110132,5,0
256,192,110339,5,8
256,192,110753,5,0
256,192,110960,1,0
256,192,111063,1,0
256,192,111167,5,8
256,192,111374,5,0
256,192,111581,5,8
256,192,111788,5,0
256,192,111995,5,8
256,192,112099,5,0
256,192,112202,1,0
256,192,112409,5,8
256,192,112616,5,0
256,192,112720,1,0
256,192,112823,5,8
256,192,113030,5,0
256,192,113237,5,8
256,192,113341,5,0
256,192,113548,1,0
256,192,113651,5,8
256,192,114065,5,0
256,192,114272,1,0
256,192,114376,1,0
256,192,114479,5,8
256,192,114583,5,0
256,192,114686,1,0
256,192,114790,1,0
256,192,114893,5,8
256,192,114997,5,0
256,192,115100,5,8
256,192,115204,5,0
256,192,115307,5,8
256,192,115411,1,8
256,192,115514,5,0
256,192,115618,1,0
256,192,115722,5,8
256,192,115929,5,0
256,192,116136,5,8
256,192,116239,1,8
256,192,116343,5,0
256,192,116446,1,0
256,192,116550,5,8
256,192,116653,1,8
256,192,116757,5,0
256,192,116860,1,0
256,192,116964,5,8
256,192,117067,5,0
256,192,117171,1,0
256,192,117274,5,8
256,192,117378,5,0
256,192,118206,5,8
256,192,119034,12,0,120690
256,192,122139,1,0
256,192,122243,1,0
256,192,122346,5,8
256,192,122553,5,0
256,192,122760,5,8
256,192,122967,5,0
256,192,123174,1,0
256,192,123381,5,8
256,192,123588,5,0
256,192,123795,1,0
256,192,124003,1,0
256,192,124210,5,8
256,192,124313,5,0
256,192,124624,1,0
256,192,124727,1,0
256,192,124831,1,0
256,192,125038,1,0
256,192,125245,5,8
256,192,125452,5,0
256,192,125659,5,8
256,192,125866,5,0
256,192,126073,1,0
256,192,126280,1,0
256,192,126487,1,0
256,192,126694,5,8
256,192,126901,1,8
256,192,127004,5,0
256,192,127108,1,0
256,192,127211,1,0
256,192,127315,5,8
256,192,127522,5,0
256,192,127625,5,8
256,192,127729,5,0
256,192,127936,1,0
256,192,128039,1,0
256,192,128143,5,8
256,192,128350,1,8
256,192,128557,5,0
256,192,128764,1,0
256,192,128971,1,0
256,192,129178,5,8
256,192,129385,1,8
256,192,129489,1,8
256,192,129592,5,0
256,192,129696,1,0
256,192,129799,5,8
256,192,130006,1,8
256,192,130213,5,0
256,192,130420,5,8
256,192,130627,5,0
256,192,130834,5,8
256,192,130938,5,0
256,192,131248,1,0
256,192,131352,1,0
256,192,131455,1,0
256,192,131662,1,0
256,192,131869,5,8
256,192,132076,1,8
256,192,132284,5,0
256,192,132491,5,8
256,192,132698,1,8
256,192,132801,1,8
256,192,132905,5,0
256,192,133008,1,0
256,192,133112,1,0
256,192,133215,1,0
256,192,133319,5,8
256,192,133422,5,0
256,192,133526,5,8
256,192,133629,5,0
256,192,133733,5,8
256,192,133836,1,8
256,192,133940,5,0
256,192,134354,5,8
256,192,134975,5,0
256,192,135078,1,0
256,192,135182,5,8
256,192,135389,5,0
256,192,135492,5,8
256,192,135596,1,8
256,192,135803,1,8
256,192,136010,5,0
256,192,136217,1,0
256,192,136424,1,0
256,192,136631,5,8
256,192,136735,1,8
256,192,136838,5,0
256,192,137045,5,8
256,192,137252,5,0
256,192,137356,1,0
256,192,137459,5,8
256,192,137563,5,0
256,192,137666,1,0
256,192,137873,5,8
256,192,137977,5,0
256,192,138080,5,8
256,192,138287,5,0
256,192,138494,5,8
256,192,138701,5,0
256,192,138908,5,8
256,192,139115,1,8
256,192,139322,5,0
256,192,139529,5,8
256,192,139736,5,0
256,192,139943,1,0
256,192,140150,5,8
256,192,140254,1,8
256,192,140357,5,0
256,192,140461,1,0
256,192,140565,5,8
256,192,140772,5,0
256,192,140875,5,8
256,192,141186,5,0
256,192,141289,1,0
256,192,141393,5,8
256,192,141600,5,0
256,192,141807,5,8
256,192,142014,1,8
256,192,142221,5,0
256,192,142428,5,8
256,192,142635,1,8
256,192,142738,1,8
256,192,142842,5,0
256,192,142945,5,8
256,192,143049,1,8
256,192,143256,1,8
256,192,143463,5,0
256,192,143670,5,8
256,192,143877,5,0
256,192,143980,5,8
256,192,144084,1,8
256,192,144187,1,8
256,192,144291,5,0
256,192,144498,1,0
256,192,144601,1,0
256,192,144705,1,0
256,192,144912,1,0
256,192,145119,1,0
256,192,145326,5,8
256,192,145533,5,0
256,192,145637,1,0
256,192,145740,5,8
256,192,145947,5,0
256,192,146051,5,8
256,192,146154,1,8
256,192,146361,1,8
256,192,146465,1,8
256,192,146568,5,0
256,192,146672,1,0
256,192,146775,5,8
256,192,146879,1,8
256,192,146982,1,8
256,192,147086,1,8
256,192,147178,5,0
256,192,160427,5,8
256,192,161048,5,0
256,192,161669,1,0
256,192,162704,1,0
256,192,163325,1,0
256,192,164361,1,0
256,192,164982,1,0
256,192,166017,1,0
256,192,166431,1,0
256,192,166638,5,8
256,192,167052,5,0
256,192,167673,1,0
256,192,168294,1,0
256,192,169329,1,0
256,192,169743,5,8
256,192,169950,5,0
256,192,170157,5,8
256,192,170364,5,0
256,192,170571,5,8
256,192,170675,1,8
256,192,170778,5,0
256,192,170985,5,8
256,192,171192,5,0
256,192,171399,5,8
256,192,171503,1,8
256,192,171606,5,0
256,192,171813,5,8
256,192,171917,1,8
256,192,172021,5,0
256,192,172124,1,0
256,192,172228,1,0
256,192,172331,1,0
256,192,172435,5,8
256,192,172538,5,0
256,192,172642,1,0
256,192,172745,1,0
256,192,172849,5,8
256,192,173263,1,8
256,192,173366,1,8
256,192,173470,5,0
256,192,173573,1,0
256,192,173682,5,8
256,192,174096,1,8
256,192,174717,5,0
256,192,174924,5,8
256,192,175131,5,0
256,192,175234,5,8
256,192,175338,1,8
256,192,175545,1,8
256,192,175752,5,0
256,192,175959,1,0
256,192,176166,1,0
256,192,176373,5,8
256,192,176476,1,8
256,192,176580,5,0
256,192,176787,5,8
256,192,176994,5,0
256,192,177201,5,8
256,192,177304,5,0
256,192,177615,1,0
256,192,177718,1,0
256,192,177822,1,0
256,192,178029,1,0
256,192,178236,1,0
256,192,178443,5,8
256,192,178650,1,8
256,192,178857,1,8
256,192,178961,5,0
256,192,179064,1,0
256,192,179271,1,0
256,192,179375,1,0
256,192,179478,5,8
256,192,179685,5,0
256,192,179789,1,0
256,192,179892,5,8
256,192,179996,5,0
256,192,180099,1,0
256,192,180306,5,8
256,192,180513,5,0
256,192,180617,5,8
256,192,180927,5,0
256,192,181031,5,8
256,192,181134,1,8
256,192,181341,5,0
256,192,181548,1,0
256,192,181755,5,8
256,192,181963,5,0
256,192,182170,1,0
256,192,182377,5,8
256,192,182480,5,0
256,192,182584,1,0
256,192,182687,1,0
256,192,182791,5,8
256,192,182998,5,0
256,192,183101,5,8
256,192,183205,5,0
256,192,183308,1,0
256,192,183412,5,8
256,192,183619,5,0
256,192,183826,5,8
256,192,183929,5,0
256,192,184240,1,0
256,192,184343,1,0
256,192,184447,1,0
256,192,184654,1,0
256,192,184861,1,0
256,192,185068,5,8
256,192,185275,5,0
256,192,185482,5,8
256,192,185689,5,0
256,192,185792,1,0
256,192,185896,5,8
256,192,185999,5,0
256,192,186103,1,0
256,192,186207,1,0
256,192,186310,5,8
256,192,186414,5,0
256,192,186517,5,8
256,192,186621,1,8
256,192,186724,5,0
256,192,186828,1,0
256,192,186931,5,8
256,192,187345,1,8
256,192,187759,5,0
256,192,187966,1,0
256,192,188173,5,8
256,192,188380,5,0
256,192,188484,5,8
256,192,188587,1,8
256,192,188794,1,8
256,192,189001,5,0
256,192,189208,1,0
256,192,189415,1,0
256,192,189622,5,8
256,192,189726,1,8
256,192,189829,5,0
256,192,190036,5,8
256,192,190244,5,0
256,192,190347,5,8
256,192,190451,1,8
256,192,190554,5,0
256,192,190865,5,8
256,192,190968,5,0
256,192,191072,1,0
256,192,191175,1,0
256,192,191279,5,8
256,192,191486,5,0
256,192,191693,5,8
256,192,191900,1,8
256,192,192107,1,8
256,192,192210,5,0
256,192,192314,1,0
256,192,192521,1,0
256,192,192624,1,0
256,192,192728,5,8
256,192,192831,1,8
256,192,192935,1,8
256,192,193142,1,8
256,192,193245,1,8
256,192,193349,5,0
256,192,193452,1,0
256,192,193556,5,8
256,192,193763,5,0
256,192,193866,5,8
256,192,194177,5,0
256,192,194280,5,8
256,192,194384,1,8
256,192,194591,1,8
256,192,194798,5,0
256,192,195005,1,0
256,192,195212,1,0
256,192,195419,1,0
256,192,195523,1,0
256,192,195626,5,8
256,192,195730,1,8
256,192,195833,5,0
256,192,195937,1,0
256,192,196040,5,8
256,192,196247,5,0
256,192,196454,1,0
256,192,196558,1,0
256,192,196661,5,8
256,192,196868,5,0
256,192,196972,1,0
256,192,197075,5,8
256,192,197179,5,0
256,192,197282,1,0
256,192,197489,5,8
256,192,197593,5,0
256,192,197696,1,0
256,192,197800,1,0
256,192,197903,5,8
256,192,198007,5,0
256,192,198110,5,8
256,192,198214,1,8
256,192,198317,1,8
256,192,198525,12,0,200181
