osu file format v9

[General]
AudioFilename: Kozato snow.mp3
AudioLeadIn: 0
PreviewTime: 173263
Countdown: 0
SampleSet: Soft
StackLeniency: 0.7
Mode: 0
LetterboxInBreaks: 0

[Editor]
DistanceSpacing: 0.8
BeatDivisor: 4
GridSize: 4

[Metadata]
Title:Rengetsu Ouka
Artist:Kozato snow
Creator:_Kiva
Version:Snowy
Source:
Tags:Kiva Snowy Dream Yumeko Yuki HakuNoKaemi wmfchris aabc271

[Difficulty]
HPDrainRate:6
CircleSize:4
OverallDifficulty:6
ApproachRate:7
SliderMultiplier:1.6
SliderTickRate:1

[Events]
//Background and Video events
0,0,"BG_example.JPG"
//Break Periods
//Storyboard Layer 0 (Background)
Sprite,Background,Centre,"SB\bg2.png",320,240 S,0,26288,26495,1,1.04096 F,0,26288,27530,1,0 S,0,26495,27530,1.04096,1.26624
Sprite,Background,Centre,"SB\C32.png",320,240 M,0,41193,54436,259,283,320,240 F,0,41193,54436,1 S,0,41193,54436,1.2048,1.13312 R,0,41193,54436,0,0.1023999 F,0,54436,55264,1,0 S,0,54436,55264,1.13312,1.29696
Sprite,Background,Centre,"SB\bg1.png",320,240 F,0,27944,,1 S,0,27944,41193,1,1.327681 S,0,41193,,1.327681
Sprite,Background,Centre,"SB\bg3.png",320,240 F,0,94192,107028,1 S,0,94192,107441,1.32768,1 F,0,107028,107441,1,0 F,0,107441,,0
Sprite,Background,Centre,"SB\bg3-b.png",320,240 F,0,80529,80943,1 F,0,80943,84255,1 S,0,80943,87982,1,1.08192 F,0,84255,87568,1 F,0,87568,87982,1,0
Sprite,Background,Centre,"SB\bg3-a.png",320,240 F,0,87568,94192,1 S,0,87568,94606,1,1.11264 F,0,94192,95020,1,0
Sprite,Background,Centre,"SB\bg1.png",320,240 F,0,107441,120690,1 S,0,107441,120690,1.47104,1.13312 R,0,107441,120690,0.1843201,0
Sprite,Background,Centre,"SB\bg4.png",320,240 F,0,120690,133112,1 M,0,120690,147189,168,291,385,236 S,0,120690,147189,1.23552,1.01024 F,0,133112,147178,1
//Storyboard Layer 1 (Fail)
//Storyboard Layer 2 (Pass)
//Storyboard Layer 3 (Foreground)
Sprite,Foreground,Centre,"SB\bg2.png",320,240 F,0,1445,2687,0.8,0 S,0,1445,2687,1,1.16
Sprite,Foreground,Centre,"SB\Mini Light.png",320,240 M,0,24631,,140,147 S,0,24631,24838,0.19104,0.488 F,0,24631,25045,1,0 S,0,24838,25045,0.488,0.5903998
Sprite,Foreground,Centre,"SB\MINI SNOW.png",320,240 M,0,25045,,472,224 S,0,25045,25252,0.32416,0.5392001 F,0,25045,25459,1,0 S,0,25252,25459,0.5392001,0.6518402
Sprite,Foreground,Centre,"SB\black.png",320,240 F,0,26702,27944,0,0.9963768 F,0,27944,28358,0.9963768,0.55296 F,0,28358,28772,0.55296,0
Sprite,Foreground,Centre,"SB\OP effect.png",320,240 M,0,25459,,193,293 F,0,25459,25666,1,0 S,0,25459,25666,0.61088,1.24576
Sprite,Foreground,Centre,"SB\OP effect.png",320,240 M,0,25666,,387,373 P,0,25666,,H V,0,25666,,1.06144,1 V,0,25666,,1.06144,1 F,0,25666,25873,1,0 S,0,25666,25873,0.6313599,1.4096
Sprite,Foreground,Centre,"SB\OP effect.png",320,240 M,0,25873,,417,134 M,0,25873,,417,134 P,0,25873,,V F,0,25873,26080,1,0 S,0,25873,26080,1,1.52224
Sprite,Foreground,Centre,"SB\OP effect.png",320,240 F,0,26080,26288,1,0 S,0,26080,26288,1,1.54272
Sprite,Foreground,Centre,"SB\sakura_b.png",320,240 S,0,26288,26391,0.3,0.7 F,0,26288,27116,1 S,0,26391,27530,0.7,0.9 F,0,27116,27530,1,0
Sprite,Foreground,Centre,"SB\sakura_b.png",320,240 M,0,26288,,529,377 P,0,26288,,H S,0,26288,26391,0.4,0.55 F,0,26288,26702,1,0 S,0,26391,26702,0.55,0.9
Sprite,Foreground,Centre,"SB\sakura_b.png",320,240 M,0,26288,,202,210 P,0,26288,,H P,0,26288,,V S,0,26288,26391,0.4,0.64 F,0,26288,26702,1,0 S,0,26391,26702,0.64,0.7
Sprite,Foreground,Centre,"SB\azure.png",320,240 F,0,40779,41193,0,1 F,0,41193,41814,1,0
Sprite,Foreground,Centre,"SB\sakura_b.png",320,240 F,0,54436,55264,0,1 R,0,54436,61060,0.2252804,0 S,0,54443,,1.5625 M,0,54443,61060,378,177,304,342 F,0,55264,59404,1 F,0,59404,61060,1,0
Sprite,Foreground,Centre,"SB\bg2.png",320,240 F,0,61060,61267,0,0.7122133 S,0,61060,62302,1,1.1024 F,0,61267,62302,0.7122133,0
Sprite,Foreground,Centre,"SB\bg2.png",320,240 F,0,67685,67892,0,0.8333333 S,0,67685,68927,1,1.13312 F,0,67892,68927,0.8333333,0
Sprite,Foreground,Centre,"SB\wakka.png",320,240 F,0,14694,14901,0,0.8333333 S,0,14694,14901,0.7337599,1.41984 S,0,14901,15108,1.41984,1.6144 F,0,14901,15936,0.8333333,0 S,0,15108,15522,1.6144,1.80896 S,0,15522,15936,1.80896,1.94208
Animation,Foreground,Centre,"SB\am2\am2.png",320,240,5,500,LoopForever S,0,67685,,1 R,0,67685,,0 F,0,67685,68513,0,0.7696 M,0,67685,74310,102,25,93,434 F,0,68513,69341,0.7696,1 F,0,69341,70169,1,0.7696 F,0,70169,70998,0.7696,1 F,0,70998,71826,1,0.8771199 F,0,71826,72654,0.8771199,1 F,0,72654,73482,1,0.73888 F,0,73482,74310,0.73888,0
Animation,Foreground,Centre,"SB\am2\am2.png",320,240,5,500,LoopForever S,0,67685,,1 R,0,67685,,0 F,0,67685,68513,0,0.7696 M,0,67685,74310,411,130,387,308 F,0,68513,69341,0.7696,1 F,0,69341,70169,1,0.7696 F,0,70169,70998,0.7696,1 F,0,70998,71826,1,0.8771199 F,0,71826,72654,0.8771199,1 F,0,72654,73482,1,0.73888 F,0,73482,74310,0.73888,0
Animation,Foreground,Centre,"SB\am2\am2.png",320,240,5,500,LoopForever S,0,67685,,1 R,0,67685,,0 F,0,67685,68513,0,0.7696 M,0,67685,74310,102,25,93,434 F,0,68513,69341,0.7696,1 F,0,69341,70169,1,0.7696 F,0,70169,70998,0.7696,1 F,0,70998,71826,1,0.8771199 F,0,71826,72654,0.8771199,1 F,0,72654,73482,1,0.73888 F,0,73482,74310,0.73888,0
Animation,Foreground,Centre,"SB\am2\am2.png",320,240,5,500,LoopForever S,0,67685,,1 R,0,67685,,0 F,0,67685,68513,0,0.7696 M,0,67685,74310,179,179,203,467 F,0,68513,69341,0.7696,1 F,0,69341,70169,1,0.7696 F,0,70169,70998,0.7696,1 F,0,70998,71826,1,0.8771199 F,0,71826,72654,0.8771199,1 F,0,72654,73482,1,0.73888 F,0,73482,74310,0.73888,0
Animation,Foreground,Centre,"SB\am2\am2.png",320,240,5,500,LoopForever S,0,67685,,1 R,0,67685,,0 F,0,67685,68513,0,0.7696 M,0,67685,74310,237,361,274,534 F,0,68513,69341,0.7696,1 F,0,69341,70169,1,0.7696 F,0,70169,70998,0.7696,1 F,0,70998,71826,1,0.8771199 F,0,71826,72654,0.8771199,1 F,0,72654,73482,1,0.73888 F,0,73482,74310,0.73888,0
Animation,Foreground,Centre,"SB\am2\am2.png",320,240,5,500,LoopForever S,0,67685,,0.63136 R,0,67685,,0 F,0,67685,68513,0,0.7696 M,0,67685,74310,227,175,267,525 F,0,68513,69341,0.7696,1 F,0,69341,70169,1,0.7696 F,0,70169,70998,0.7696,1 F,0,70998,71826,1,0.8771199 F,0,71826,72654,0.8771199,1 F,0,72654,73482,1,0.73888 F,0,73482,74310,0.73888,0
Animation,Foreground,Centre,"SB\am2\am2.png",320,240,5,500,LoopForever S,0,67685,,0.41632 R,0,67685,,0 F,0,67685,68513,0,0.7696 M,0,67685,74310,564,-67,619,531 F,0,68513,69341,0.7696,1 F,0,69341,70169,1,0.7696 F,0,70169,70998,0.7696,1 F,0,70998,71826,1,0.8771199 F,0,71826,72654,0.8771199,1 F,0,72654,73482,1,0.73888 F,0,73482,74310,0.73888,0
Sprite,Foreground,Centre,"SB\SNOW.png",320,240 S,0,67685,,2.35168 F,0,67685,70998,0,1 M,0,67685,80314,320,-211,317,693 F,0,68513,80314,1,0 F,0,70998,79279,1 F,0,79279,80314,1,0
Animation,Foreground,Centre,"SB\am2\am2.png",320,240,5,500,LoopForever F,0,70998,71826,0,1 M,0,70998,74299,257,66,263,208 F,0,71826,72654,1,0.7132799 F,0,72654,73689,0.7132799,1 F,0,73689,74310,1,0
Animation,Foreground,Centre,"SB\am2\am2.png",320,240,5,500,LoopForever S,0,70998,,0.7030401 F,0,70998,71826,0,1 M,0,70998,74310,431,109,422,223 F,0,71826,72654,1,0.7132799 F,0,72654,73689,0.7132799,1 F,0,73689,74310,1,0
Animation,Foreground,Centre,"SB\am2\am2.png",320,240,5,500,LoopForever F,0,70998,71826,0,1 M,0,70998,74299,73,-34,66,270 F,0,71826,72654,1,0.7132799 F,0,72654,73689,0.7132799,1 F,0,73689,74310,1,0
Animation,Foreground,Centre,"SB\am2\am2.png",320,240,5,500,LoopForever S,0,70998,,0.6825599 F,0,70998,71826,0,1 M,0,70998,74299,390,75,370,115 F,0,71826,72654,1,0.7132799 F,0,72654,73689,0.7132799,1 F,0,73689,74310,1,0
Sprite,Foreground,Centre,"SB\sakura_b.png",320,240 M,0,94184,,320,240 S,0,94184,94192,1,1.002177 F,0,94184,94495,1,0.6346362 S,0,94192,94391,1.002177,1.05632 S,0,94391,95012,1.05632,1.19456 F,0,94495,95012,0.6346362,0
Sprite,Foreground,Centre,"SB\azure.png",320,240 R,0,120276,,0 F,0,120276,120690,0,1 F,0,120690,121518,1,0
Sprite,Foreground,Centre,"SB\C32.png",320,240 F,0,173682,190322,1 M,0,173682,200181,228,268,320,240 S,0,173682,200181,1.70656,1 R,0,173682,200181,0.3072,0 F,0,190322,192412,1 F,0,192412,200181,1 F,0,200181,201009,1,0
Sprite,Foreground,Centre,"SB\sakura_b.png",320,240 F,0,173677,173682,0.69792,0.3702399 S,0,173682,180306,1,1.43008 R,0,173682,180306,0.04096008,2.7648 F,0,173682,186103,0.3702399 S,0,180306,186931,1.43008,1.64512 R,0,180306,186931,2.7648,4.68992 F,0,186103,186931,0.3702399,0
Sprite,Foreground,Centre,"SB\MINI SNOW.png",320,240 F,0,186931,187759,0,1 S,0,186931,200181,1,1.53248 R,0,186931,200181,1.92512,0 F,0,187759,199353,1 F,0,199353,200181,1,0
Sprite,Foreground,Centre,"SB\sakura_b.png",320,240 F,0,186931,188173,0,0.3503307 S,0,186931,199353,1,1.28672 R,0,186931,199353,-3.23584,-1.76128 F,0,188173,198110,0.3503307,0.19104 F,0,198110,199353,0.19104,0.005120086 F,0,199353,200724,0.005120086,0
Animation,Foreground,Centre,"SB\am1\am1.jpg",320,240,5,500,LoopForever M,0,74310,,313,234 F,0,74310,74724,0.05792008,1 F,0,74724,75345,1,0.8813094 F,0,75345,75966,0.8813094,0.9981386 F,0,75966,76794,0.9981386,0.8279376 F,0,76794,77622,0.8279376,0.9956568 F,0,77622,78450,0.9956568,0.7588959 F,0,78450,79279,0.7588959,0.9931734 F,0,79279,80107,0.9931734,0.01013343
Sprite,Foreground,Centre,"SB\wakka.png",320,240 M,0,74310,,313,232 S,0,74310,74413,0.3139198,0.6415999 F,0,74310,75138,1,0 S,0,74413,75138,0.6415999,0.7961942
Sprite,Foreground,Centre,"SB\azure.png",320,240 F,0,146361,147189,0,1 F,0,147189,148006,1,0
Sprite,Foreground,Centre,"SB\wakka.png",320,240 S,0,160427,160531,0.7337601,1.4608 F,0,160427,162083,1,0 S,0,160531,161255,1.4608,1.77824 S,0,161255,162083,1.77824,2.03615
Sprite,Foreground,Centre,"SB\azure.png",320,240 F,0,173263,173682,0,1 F,0,173682,174096,1,0
Sprite,Foreground,Centre,"SB\azure.png",320,240 M,0,77630,,320,240 F,0,77630,78148,0.4726399,0
Sprite,Foreground,Centre,"SB\azure.png",320,240 F,0,78458,78976,0.11424,0
Sprite,Foreground,Centre,"SB\azure.png",320,240 F,0,107020,107434,0,1 F,0,107434,108269,1,0
Sprite,Foreground,Centre,"SB\azure.png",320,240 F,0,87257,87568,0,1 S,0,87568,,1 F,0,87568,87982,1,0
//Storyboard Sound Samples
//Background Colour Transformations
3,100,163,162,255

[TimingPoints]
1445,414.050100062108,4,2,1,80,1,0
14487,-100,4,2,1,60,0,0
40883,-100,4,2,1,80,0,0
41918,-100,4,2,1,55,0,0
54444,414.050100062108,4,2,1,80,1,0
56100,-200,4,2,1,80,0,0
61379,-200,4,2,1,40,0,0
61689,-100,4,2,1,80,0,0
64691,-100,4,2,1,40,0,0
65105,-100,4,2,1,80,0,0
74214,-100,4,2,1,60,0,0
106614,-100,4,2,1,45,0,0
107441,414.050100062108,4,2,1,80,1,0
114583,-100,4,2,1,50,0,0
114893,-100,4,2,1,60,0,0
115307,-100,4,2,1,45,0,0
115722,-100,4,2,1,50,0,0
116136,-100,4,2,1,55,0,0
116550,-100,4,2,1,60,0,0
117792,-100,4,2,0,50,0,0
118102,-100,4,2,1,65,0,0
118516,-100,4,2,0,65,0,0
118930,-100,4,2,1,75,0,0
120144,-100,4,2,2,80,0,0
120690,-100,4,2,2,80,0,1
121008,-100,4,2,1,80,0,0
133940,-100,4,2,1,90,0,1
146361,-100,4,2,1,45,0,1
147178,414.050100062108,4,2,1,80,1,0
173677,-100,4,2,1,80,0,1
173682,414.050100062108,4,2,1,80,1,0
193452,-100,4,2,1,80,0,0

[Colours]
Combo1 : 152,48,207
Combo2 : 254,75,169
Combo3 : 226,5,221
SliderBorder : 224,224,224

[HitObjects]
96,112,14694,6,0,B|168:64|248:112,1,160
320,48,15315,1,0
352,144,15522,2,0,B|416:192,1,80
352,272,15936,2,0,B|288:224,1,80
184,192,16350,1,0
88,176,16557,6,0,B|32:128|32:88,2,80
168,120,17178,1,0
248,176,17385,2,0,B|304:128|304:88,2,80
168,232,18007,1,0
248,288,18214,1,0
280,296,18317,1,0
312,288,18421,1,0
392,232,18628,6,0,B|416:240|440:232,2,40
328,160,19042,1,0
368,72,19249,2,0,B|288:80,1,80
240,168,19663,1,0
168,104,19870,1,0
144,84,19973,1,0
116,96,20077,2,0,B|76:128|116:168,1,80
136,256,20491,2,0,B|176:288|136:328,1,80
56,272,20905,5,0
40,248,21008,1,0
48,216,21112,1,0
64,192,21215,1,0
56,160,21319,1,0
96,72,21526,2,0,B|64:48|40:56,2,40
192,72,21940,6,0,B|224:48|248:56,2,40
136,152,22354,1,0
200,224,22561,2,0,B|240:144,1,80
200,224,22975,1,0
296,216,23182,1,0
264,304,23389,5,0
296,320,23493,1,0
328,304,23596,1,0
360,288,23700,1,0
384,304,23803,1,0
392,208,24010,1,0
456,136,24217,2,0,B|408:56,1,80
304,144,24631,6,0,B|320:128|344:128,7,40
256,120,25459,2,0,B|250:98|262:77,7,40
208,144,26288,2,0,B|186:138|174:117,7,40
260,140,27116,6,0,B|304:144,3,40
340,172,27530,2,0,B|356:216,3,40
328,252,27944,1,0
360,104,28358,6,0,B|408:88|448:96,1,80,0|0
440,192,28772,2,0,B|392:208|352:200,1,80,0|0
280,152,29186,1,0
260,128,29289,1,0
232,112,29393,1,0
204,104,29496,1,0
172,104,29600,1,2
84,144,29807,6,0,B|32:208,1,80,0|0
116,252,30221,2,0,B|172:176,1,80
240,244,30635,1,0
328,208,30842,1,0
356,220,30946,1,0
380,240,31049,1,0
396,268,31153,1,0
408,296,31256,1,2
316,324,31463,6,0,B|288:320|268:336,2,40
236,272,31877,1,0
236,272,32084,1,2
140,256,32291,1,0
120,232,32395,1,0
108,204,32498,1,0
108,172,32602,1,0
116,140,32705,1,0
188,76,32912,5,2
280,108,33119,2,0,B|296:84|320:80,2,40,0|0|2
356,168,33533,1,0
400,256,33740,1,2
324,316,33947,5,0
288,228,34154,1,2
268,204,34258,1,0
240,188,34361,1,0
208,184,34465,1,0
176,188,34569,1,6
108,120,34776,6,0,B|144:88|184:80,1,80,0|2
272,84,35190,1,0
364,108,35397,1,2
396,200,35604,1,0
364,108,35811,1,0
300,180,36018,1,0
336,268,36225,5,2
240,252,36432,2,0,B|192:252|180:240,2,40
224,156,36846,1,0
140,112,37053,1,2
112,128,37156,1,0
92,152,37260,1,0
84,184,37363,1,0
80,216,37467,1,0
112,308,37674,1,0
208,324,37881,6,0,B|248:332|292:324,1,80,2|0
420,168,38295,2,0,B|380:160|336:168,1,80
140,184,38709,2,0,B|112:220|136:268,1,80,2|0
264,108,39123,2,0,B|288:76|264:28,1,80
356,68,39537,5,2
356,68,39744,1,0
404,152,39951,2,0,B|376:192,3,40,2|0|0|0
352,220,40365,2,0,B|288:224,3,40,2|0|0|0
268,204,40779,1,2
212,72,40986,1,2
152,144,41193,6,0,B|96:152|72:192,2,80
240,176,41814,1,0
328,144,42021,2,0,B|384:152|408:192,2,80
240,104,42642,2,0,B|240:64,2,40
240,192,43057,1,0
176,264,43264,1,0
96,208,43471,2,0,B|64:160|112:120,1,80
184,96,43885,1,0
280,96,44092,5,0
312,88,44195,1,0
344,96,44299,1,0
376,88,44402,1,0
408,104,44506,1,0
352,184,44713,5,0
448,192,44920,2,0,B|464:240|400:280,1,80
336,280,45334,1,0
240,288,45541,2,0,B|168:312|128:288,1,80
88,240,45955,1,0
136,160,46162,2,0,B|208:136|248:160,1,80
288,208,46576,2,0,B|264:208|248:224,3,40
328,240,46990,2,0,B|316:260|321:282,3,40
384,232,47404,2,0,B|396:252|417:258,4,40,0|0|0|0|4
80,96,48232,6,0,B|128:112|160:144,1,80
224,200,48646,1,0
368,304,48853,2,0,B|320:288|288:256,1,80
336,176,49267,1,0
264,112,49474,1,0
176,80,49681,2,0,B|208:32|256:24,1,80
328,56,50095,1,0
400,120,50302,2,0,B|408:160|376:208,1,80
312,264,50716,1,0
312,264,50820,1,0
312,264,50923,1,0
232,208,51131,1,0
104,128,51338,6,0,B|64:168|64:216,1,80
160,200,51752,1,0
216,280,51959,2,0,B|256:240|256:192,1,80
216,120,52373,1,0
216,120,52580,1,0
312,112,52787,6,0,B|280:80,3,40
368,96,53201,2,0,B|360:56,3,40
312,112,53615,1,0
324,140,53718,1,0
328,172,53822,1,0
324,204,53925,1,0
300,224,54029,1,0
268,232,54132,1,0
236,224,54236,1,0
212,204,54339,1,0
196,176,54444,1,4
120,240,55065,5,0
104,212,55168,1,0
104,180,55272,1,0
216,136,55686,1,0
304,96,56100,6,0,B|336:128|304:168,1,80,0|0
288,216,56721,1,0
320,280,56928,1,0
376,232,57135,1,0
392,216,57238,1,0
384,192,57342,1,0
400,168,57445,1,0
392,144,57549,1,0
408,128,57652,1,0
400,104,57756,1,0
104,232,58377,5,0
104,232,58480,1,0
104,232,58584,1,0
96,160,58791,1,0
164,188,58998,1,0
152,116,59205,1,0
164,188,59412,1,0
220,144,59619,1,0
220,144,59723,1,0
220,144,59826,1,0
292,132,60033,1,0
292,132,60240,1,4
144,128,61068,6,0,B|192:88|224:96,1,80,8|0
216,192,61689,1,0
216,192,61793,1,0
216,192,61896,1,0
336,152,62310,1,0
408,256,62725,5,0
344,280,62932,1,0
280,296,63139,1,0
216,280,63346,1,0
152,256,63553,1,0
104,216,63760,2,0,B|104:172|56:172,2,40
156,180,64174,1,0
184,164,64277,1,0
216,160,64381,1,0
408,176,64795,2,0,B|384:248|272:240,1,160,8|4
256,192,65312,12,4,67693
112,136,68314,5,0
112,136,68418,1,0
112,136,68521,1,8
224,144,68935,1,0
160,256,69349,1,0
120,208,69556,1,0
96,264,69763,1,0
136,312,69970,1,0
200,304,70177,1,0
224,248,70384,2,0,B|224:208|192:192,6,40
376,136,71627,5,0
376,136,71730,1,0
376,136,71834,1,8
352,80,72041,1,0
416,80,72248,1,0
440,136,72455,1,0
408,192,72662,1,0
344,192,72869,1,0
320,168,72972,1,0
312,136,73076,1,0
248,136,73283,1,0
184,94,73490,2,0,B|168:128|168:168|200:208|240:224|280:200,1,160,0|4
352,296,74318,6,0,B|264:312|192:264,1,160
120,216,74939,1,0
120,216,75042,1,0
120,216,75146,1,0
256,88,75560,1,0
424,176,75974,6,0,B|444:220|424:260,2,80,2|0|0
336,216,76595,1,0
292,300,76802,1,0
196,280,77009,1,0
180,184,77216,1,0
264,140,77423,1,0
264,140,77527,1,0
264,140,77630,1,8
112,152,78458,5,0
400,152,79287,1,4
256,192,79390,12,0,80943
96,144,81357,5,0
168,80,81564,1,0
224,160,81771,1,0
152,224,81978,1,0
144,320,82185,1,0
232,280,82392,1,0
424,256,82806,5,0
352,192,83013,1,0
400,104,83220,1,0
304,120,83427,1,0
208,108,83634,2,0,B|224:80|240:72,2,40
112,120,84048,2,0,B|116:168|140:200,1,80
232,212,84462,1,0
320,252,84669,6,0,B|368:300|416:308,2,80
360,164,85290,1,0
264,156,85497,1,0
208,236,85704,1,0
256,316,85911,1,0
160,316,86118,5,0
128,308,86222,1,0
104,284,86325,1,0
88,188,86532,1,0
112,92,86739,1,0
136,76,86843,1,0
168,76,86946,1,0
216,156,87153,1,0
240,172,87257,1,0
272,180,87360,1,0
304,172,87464,1,0
328,156,87568,1,0
424,168,87775,6,0,B|456:216|456:272,1,80
392,312,88189,1,0
296,296,88396,2,0,B|264:248|264:192,1,80
168,208,88810,1,0
96,144,89017,1,0
120,120,89120,1,0
152,112,89224,1,0
240,80,89431,2,0,B|232:152|264:184,2,80
336,88,90052,1,0
416,144,90259,2,0,B|432:208|408:248,2,80
312,216,90880,5,0
344,128,91087,1,0
248,152,91294,1,0
216,240,91501,1,0
296,296,91708,2,0,B|344:304|384:264,1,80
312,216,92122,1,0
312,216,92226,1,0
312,216,92329,1,0
312,216,92433,1,0
312,216,92536,1,0
240,160,92743,6,0,B|280:128|304:136,2,40
144,168,93157,1,0
72,104,93364,2,0,B|64:64|48:64,2,40
48,200,93778,2,0,B|8:208|0:240,4,40
120,264,94399,1,0
120,264,94503,1,0
120,264,94606,1,0
216,272,94813,1,0
296,224,95020,1,0
216,272,95227,1,0
296,224,95434,1,0
304,128,95641,2,0,B|360:120|392:192,1,80
392,64,96056,6,0,B|437:97|408:171,1,80
504,88,96470,2,0,B|512:144|440:176,1,80
460,252,96884,1,0
364,268,97091,2,0,B|360:312|388:348,2,80
376,172,97712,1,0
376,172,97815,1,0
376,172,97919,1,0
284,204,98126,1,0
284,204,98333,1,0
208,136,98540,5,0
176,136,98643,1,0
144,152,98747,1,0
112,240,98954,1,0
112,272,99057,1,0
128,296,99161,1,0
216,216,99368,6,0,B|200:256,2,40
296,168,99782,1,0
352,88,99989,1,0
392,176,100196,2,0,B|392:224|344:240,1,80
248,248,100610,1,0
208,160,100817,1,0
264,80,101024,6,0,B|160:72,1,80
120,148,101438,2,0,B|96:160|68:172,2,40
116,244,101852,1,0
208,224,102059,1,0
232,208,102163,1,0
256,224,102266,1,0
288,232,102370,1,0
320,216,102473,1,0
408,176,102680,6,0,B|440:112|432:88,2,80
312,152,103301,1,0
216,176,103508,2,0,B|184:112|192:88,2,80,0|0|0
120,200,104130,1,0
184,272,104337,1,0
184,272,104440,1,0
184,272,104544,1,0
280,272,104751,2,0,B|296:304|280:336,4,40
376,248,105372,1,0
304,192,105579,1,0
392,160,105786,6,0,B|432:136,7,40
368,120,106614,2,0,B|400:104,16,20
168,128,107855,5,0
104,196,108062,2,0,B|80:168|48:168,4,40
188,244,108683,1,0
220,244,108786,1,0
252,236,108890,1,0
360,224,109097,6,0,B|392:256|416:256,6,40
360,128,109925,1,0
280,80,110132,1,0
248,72,110235,1,0
216,72,110339,1,0
184,80,110442,1,0
160,96,110546,1,0
136,120,110649,1,0
120,152,110753,1,0
216,152,110960,5,0
248,144,111063,1,0
280,144,111167,1,0
312,152,111270,1,0
340,168,111374,1,0
364,188,111477,1,0
384,212,111581,1,0
240,216,111788,5,0
208,212,111892,1,0
176,216,111995,1,0
148,228,112099,1,0
124,248,112202,1,0
104,272,112306,1,0
92,304,112409,1,0
208,328,112616,5,0
320,288,112823,1,0
420,220,113030,1,0
404,100,113237,1,0
380,80,113341,1,0
352,68,113444,1,0
320,60,113548,1,0
288,68,113651,1,0
260,80,113755,1,0
236,100,113858,2,0,B|208:124,4,20
48,144,114479,5,0
80,232,114686,1,0
176,248,114893,2,0,B|160:288,3,40,0|0|0|0
208,264,115307,2,0,B|192:304,3,40
240,280,115722,2,0,B|224:320,3,40
288,256,116136,2,0,B|312:208,3,40
336,256,116550,2,0,B|360:208,3,40
384,256,116964,1,0
416,256,117067,1,0
448,240,117171,1,0
464,216,117274,1,0
472,184,117378,1,0
344,112,117792,5,4
160,168,118206,1,2
344,232,118620,1,4
160,296,119034,1,8
256,192,119137,12,0,120690
176,128,121104,5,0
96,176,121311,1,0
184,224,121518,2,0,B|96:280,1,80
200,304,121932,1,0
288,256,122139,1,0
368,208,122346,6,0,B|416:248,2,40
384,112,122760,2,0,B|288:128,1,80
320,48,123174,2,0,B|304:152,1,80
224,88,123588,1,0
308,128,123795,1,0
216,176,124003,1,0
288,240,124210,2,0,B|328:224|352:224,2,40
200,280,124624,6,0,B|232:312|256:304,2,40
112,248,125038,2,0,B|88:280|64:288,2,40
48,176,125452,1,0
104,104,125659,1,0
104,104,125866,1,0
160,176,126073,6,0,B|192:144,1,40
216,184,126280,2,0,B|240:216,1,40
272,184,126487,2,0,B|304:152,1,40
328,192,126694,2,0,B|352:224,1,40
392,192,126901,1,0
392,192,127108,1,0
448,88,127315,5,0
352,64,127522,1,0
352,64,127625,1,0
352,64,127729,1,0
264,112,127936,1,0
176,72,128143,1,0
112,144,128350,2,0,B|200:184,1,80
120,248,128764,1,0
272,304,128971,2,0,B|192:272,1,80
280,224,129385,5,0
312,232,129489,1,0
344,240,129592,1,0
376,232,129696,1,0
408,224,129799,1,0
448,136,130006,2,0,B|392:64,1,80
336,152,130420,2,0,B|280:80,1,80
208,152,130834,1,0
208,152,130938,1,0
208,152,131041,1,0
120,120,131248,6,0,B|96:80,2,40
64,200,131662,1,0
96,288,131869,1,0
192,296,132076,1,0
240,216,132284,1,0
208,128,132491,1,0
152,208,132698,1,0
240,216,132905,1,0
296,136,133112,5,0
328,132,133215,1,0
360,136,133319,1,0
388,152,133422,1,0
408,176,133526,1,0
408,208,133629,1,0
384,232,133733,1,0
356,244,133836,1,0
324,244,133940,1,0
256,192,134147,12,0,135182
200,196,135389,22,0,B|168:164|136:164,2,40,0|0|8
204,100,135803,1,0
280,160,136010,1,0
344,232,136217,1,0
396,152,136424,1,8
336,76,136631,1,2
272,148,136838,1,0
200,212,137045,1,0
104,208,137252,6,0,B|56:240|48:288,2,80,8|2|0
176,144,137873,1,0
104,88,138080,2,0,B|56:56|48:8,2,80,8|2|0
176,144,138701,1,0
272,144,138908,1,8
368,140,139115,2,0,B|360:112|344:96,2,40,0|0|2
456,112,139529,2,0,B|488:168|432:216,1,80,0|8
384,248,139943,1,0
288,232,140150,5,2
256,240,140254,1,2
224,232,140357,1,2
192,224,140461,1,2
160,232,140565,1,10
80,184,140772,6,0,B|56:184|24:168,2,40
160,136,141186,1,0
248,104,141393,2,0,B|312:92,3,40,8|0|0|0
336,96,141807,2,0,B|380:112,3,40
404,144,142221,1,2
304,176,142428,6,0,B|216:176,1,80
288,248,142842,2,0,B|336:328,1,80,0|8
232,304,143256,1,2
200,304,143359,1,2
168,304,143463,1,0
88,248,143670,1,0
168,200,143877,1,8
88,152,144084,1,2
88,152,144187,1,2
88,152,144291,1,2
228,84,144498,6,0,B|184:48,2,40,0|0|8
324,80,144912,2,0,B|312:36,2,40
400,140,145326,1,0
412,236,145533,6,0,B|452:252,7,40
416,284,146361,2,2,B|440:292,16,20,0|0|0|0|0|0|0|0|0|0|0|0|0|0|0|0|4
180,236,148420,5,0
116,156,148627,5,0
116,156,148730,1,0
116,156,148834,1,8
200,104,149041,1,0
200,200,149248,1,0
280,168,149455,1,0
272,264,149662,1,0
368,216,149869,1,0
368,216,149972,1,0
368,216,150076,1,0
304,104,150283,6,0,B|384:104,1,80,0|8
448,176,150697,2,0,B|448:256,1,80
360,296,151111,1,0
360,296,151214,1,0
360,296,151318,1,0
352,200,151525,6,0,B|304:184|256:192,1,80,0|0
224,272,151939,1,0
88,336,152146,2,0,B|136:352|184:344,1,80,8|0
224,272,152560,1,0
224,272,152767,1,0
136,232,152974,1,8
216,176,153181,1,0
128,144,153388,2,0,B|96:112,4,40,0|0|0|0|8
200,80,154009,5,0
200,80,154113,1,0
344,88,154423,1,0
368,112,154527,1,0
376,144,154630,1,0
464,184,154837,2,0,B|440:224|400:240,1,80
320,200,155251,1,0
280,288,155459,2,0,B|336:312|376:304,1,80,8|0
208,280,155873,5,0
184,264,155976,1,0
160,280,156080,1,0
128,264,156183,1,0
104,280,156287,1,0
64,192,156494,1,0
160,192,156701,1,0
256,192,156908,1,0
208,104,157115,1,8
112,104,157322,1,0
112,104,157425,1,0
256,104,157736,6,0,B|288:80,2,40
352,80,158150,2,0,B|384:104,2,40
312,168,158564,1,0
408,168,158771,1,8
440,256,158978,1,0
440,256,159081,1,0
440,256,159185,1,0
344,256,159392,5,0
312,248,159495,1,0
264,256,159599,2,0,B|272:280|288:296,3,40
216,264,160013,2,0,B|224:304,3,40,0|0|0|0
168,256,160427,1,4
72,144,160841,6,0,B|32:72,2,80
160,96,161462,1,0
240,144,161669,1,0
320,92,161876,2,0,B|344:80|364:76,2,40
392,152,162290,1,0
320,216,162497,2,0,B|344:228|364:232,2,40
248,152,162911,1,0
184,224,163118,2,0,B|152:248,4,40,0|0|2|0|0
104,168,163740,6,0,B|184:96,1,80,2|0
184,96,164050,1,0
328,80,164361,2,0,B|348:68|372:64,2,40,0|0|2
400,144,164775,2,0,B|448:192|424:240,1,80
344,224,165189,2,0,B|336:280|400:304,1,80,0|8
280,280,165603,2,0,B|232:304|192:240,1,80
176,176,166017,2,0,B|217:169|249:201,1,80,0|2
168,256,166431,1,0
184,80,166638,5,0
216,72,166741,1,0
248,80,166845,1,0
280,88,166948,1,0
312,80,167052,1,8
400,120,167259,2,0,B|448:128,2,40
328,184,167673,6,0,B|308:172|280:168,2,40
416,232,168087,1,0
336,280,168294,1,0
248,248,168501,1,0
184,176,168708,2,0,B|216:144|264:144,2,80
88,184,169329,1,0
136,264,169536,1,0
232,268,169743,2,0,B|276:264|320:244,1,80
240,184,170157,1,0
312,120,170364,5,8
392,176,170571,1,0
424,88,170778,1,0
344,32,170985,1,0
248,48,171192,1,8
208,136,171399,1,0
280,200,171606,1,0
280,200,171813,1,0
360,248,172021,6,0,B|400:288,8,40,8|0|0|0|8|0|0|0|4
88,148,173263,5,2
116,136,173366,1,0
148,132,173470,1,0
180,136,173573,1,0
208,148,173682,1,4
140,216,173889,2,0,B|168:244|204:264,1,80,0|2
284,208,174303,1,0
284,208,174510,1,0
360,148,174717,2,0,B|380:156|392:176,2,40,0|0|2
264,132,175131,1,0
340,72,175338,6,0,B|432:72,1,80
376,156,175752,2,0,B|441:221,1,80,2|0
348,256,176166,2,0,B|348:348,1,80
264,288,176580,2,0,B|198:353,1,80,2|0
164,260,176994,5,0
100,188,177201,2,0,B|88:160|60:152,2,40,0|0|2
196,172,177615,1,0
288,200,177822,1,2
348,124,178029,2,0,B|392:112|436:124,1,80,0|2
456,212,178443,2,0,B|412:224|368:212,1,80
324,292,178857,2,0,B|352:312|364:328,2,40,0|0|2
268,212,179271,1,0
252,116,179478,2,0,B|212:104,3,40
168,116,179892,2,0,B|136:152,3,40,2|0|0|0
132,192,180306,1,4
228,196,180513,6,0,B|220:236|180:268,1,80,0|2
92,272,180927,1,0
148,348,181134,1,0
244,348,181341,1,0
184,268,181548,1,2
280,268,181755,1,0
340,196,181963,6,0,B|372:232|380:280,1,80
440,340,182377,2,0,B|471:304|476:270,1,80,2|0
448,180,182791,2,0,B|424:104|352:56,1,160,0|2
284,124,183412,1,0
188,108,183619,2,0,B|144:104,3,40
100,112,184033,2,0,B|60:128,3,40,2|0|0|0
40,168,184447,2,0,B|20:216,3,40
24,252,184861,1,2
108,204,185068,1,0
200,176,185275,2,0,B|248:172|300:176,1,80
324,260,185689,2,0,B|276:264|224:260,1,80,2|0
152,284,186103,2,0,B|128:320,8,40,0|0|0|0|2|0|0|0|4
340,324,187345,6,0,B|436:324,1,80,2|0
412,228,187759,2,0,B|312:228,1,80
248,184,188173,2,0,B|184:128,1,80,2|0
228,44,188587,2,0,B|288:100,1,80
344,176,189001,1,2
344,176,189208,1,0
320,268,189415,2,0,B|368:272|408:268,2,80,0|0|2
232,228,190036,1,0
140,196,190244,2,0,B|92:184|56:164,2,80,0|0|2
196,120,190865,2,0,B|244:108|280:88,1,80
356,140,191279,6,0,B|308:152|272:172,1,80,0|2
196,208,191693,2,0,B|152:216|96:236,1,80
196,284,192107,2,0,B|240:276|296:256,1,80,0|2
356,216,192521,1,0
452,200,192728,2,0,B|440:160|408:132,3,80,0|0|2|0
316,104,193556,6,0,B|276:88|228:92,1,80
152,136,193970,1,2
228,196,194177,2,0,B|268:212|316:208,1,80
392,168,194591,2,0,B|416:204|384:256,1,80,0|2
304,288,195005,1,0
208,304,195212,2,0,B|160:308,3,40
124,292,195626,2,0,B|76:264,3,40,2|0|0|0
72,228,196040,2,0,B|92:192,3,40
120,156,196454,1,2
184,228,196661,1,0
256,192,196868,12,4,200181
