osu file format v9

[General]
AudioFilename: Kozato snow.mp3
AudioLeadIn: 0
PreviewTime: 173263
Countdown: 0
SampleSet: Soft
StackLeniency: 0.4
Mode: 0
LetterboxInBreaks: 0

[Editor]
Bookmarks: 162087,175338
DistanceSpacing: 1.2
BeatDivisor: 4
GridSize: 8

[Metadata]
Title:Rengetsu Ouka
Artist:Kozato snow
Creator:_Kiva
Version:Ren
Source:
Tags:Kiva Snowy Dream Yumeko Yuki HakuNoKaemi wmfchris aabc271

[Difficulty]
HPDrainRate:3
CircleSize:4
OverallDifficulty:3
ApproachRate:4
SliderMultiplier:0.8
SliderTickRate:0.5

[Events]
//Background and Video events
0,0,"BG_example.JPG"
//Break Periods
2,54644,65545
2,67893,72998
2,74518,78795
2,94392,99497
2,147389,159107
//Storyboard Layer 0 (Background)
Sprite,Background,Centre,"SB\bg2.png",320,240 S,0,26288,26495,1,1.04096 F,0,26288,27530,1,0 S,0,26495,27530,1.04096,1.26624
Sprite,Background,Centre,"SB\C32.png",320,240 M,0,41193,54436,259,283,320,240 F,0,41193,54436,1 S,0,41193,54436,1.2048,1.13312 R,0,41193,54436,0,0.1023999 F,0,54436,55264,1,0 S,0,54436,55264,1.13312,1.29696
Sprite,Background,Centre,"SB\bg1.png",320,240 F,0,27944,,1 S,0,27944,41193,1,1.327681 M,0,29443,,320,240 S,0,41193,,1.327681
Sprite,Background,Centre,"SB\bg3.png",320,240 F,0,94192,107028,1 S,0,94192,107441,1.32768,1 F,0,107028,107441,1,0 F,0,107441,,0
Sprite,Background,Centre,"SB\bg1.png",320,240 F,0,107441,120690,1 S,0,107441,120690,1.47104,1.13312 R,0,107441,120690,0.1843201,0
Sprite,Background,Centre,"SB\bg4.png",320,240 F,0,120690,133112,1 M,0,120690,147189,168,291,385,236 S,0,120690,147189,1.23552,1.01024 F,0,133112,147178,1
//Storyboard Layer 1 (Fail)
//Storyboard Layer 2 (Pass)
//Storyboard Layer 3 (Foreground)
Sprite,Foreground,Centre,"SB\bg2.png",320,240 F,0,1445,2687,0.8,0 S,0,1445,2687,1,1.16
Sprite,Foreground,Centre,"SB\Mini Light.png",320,240 M,0,24631,,140,147 S,0,24631,24838,0.19104,0.488 F,0,24631,25045,1,0 S,0,24838,25045,0.488,0.5903998
Sprite,Foreground,Centre,"SB\MINI SNOW.png",320,240 M,0,25045,,472,224 S,0,25045,25252,0.32416,0.5392001 F,0,25045,25459,1,0 S,0,25252,25459,0.5392001,0.6518402
Sprite,Foreground,Centre,"SB\black.png",320,240 F,0,26702,27944,0,0.9963768 F,0,27944,28358,0.9963768,0.55296 F,0,28358,28772,0.55296,0
Sprite,Foreground,Centre,"SB\OP effect.png",320,240 M,0,25459,,193,293 F,0,25459,25666,1,0 S,0,25459,25666,0.61088,1.24576
Sprite,Foreground,Centre,"SB\OP effect.png",320,240 M,0,25666,,387,373 P,0,25666,,H V,0,25666,,1.06144,1 V,0,25666,,1.06144,1 F,0,25666,25873,1,0 S,0,25666,25873,0.6313599,1.4096
Sprite,Foreground,Centre,"SB\OP effect.png",320,240 M,0,25873,,417,134 M,0,25873,,417,134 P,0,25873,,V F,0,25873,26080,1,0 S,0,25873,26080,1,1.52224
Sprite,Foreground,Centre,"SB\OP effect.png",320,240 F,0,26080,26288,1,0 S,0,26080,26288,1,1.54272
Sprite,Foreground,Centre,"SB\sakura_b.png",320,240 S,0,26288,26391,0.3,0.7 F,0,26288,27116,1 S,0,26391,27530,0.7,0.9 F,0,27116,27530,1,0
Sprite,Foreground,Centre,"SB\sakura_b.png",320,240 M,0,26288,,529,377 P,0,26288,,H S,0,26288,26391,0.4,0.55 F,0,26288,26702,1,0 S,0,26391,26702,0.55,0.9
Sprite,Foreground,Centre,"SB\sakura_b.png",320,240 M,0,26288,,202,210 P,0,26288,,H P,0,26288,,V S,0,26288,26391,0.4,0.64 F,0,26288,26702,1,0 S,0,26391,26702,0.64,0.7
Sprite,Foreground,Centre,"SB\azure.png",320,240 F,0,40779,41193,0,1 F,0,41193,41814,1,0
Sprite,Foreground,Centre,"SB\sakura_b.png",320,240 F,0,54436,55264,0,1 R,0,54436,61060,0.2252804,0 S,0,54443,,1.5625 M,0,54443,61060,378,177,304,342 F,0,55264,59404,1 F,0,59404,61060,1,0
Sprite,Foreground,Centre,"SB\bg2.png",320,240 F,0,61060,61267,0,0.7122133 S,0,61060,62302,1,1.1024 F,0,61267,62302,0.7122133,0
Sprite,Foreground,Centre,"SB\bg2.png",320,240 F,0,67685,67892,0,0.8333333 S,0,67685,68927,1,1.13312 F,0,67892,68927,0.8333333,0
Sprite,Foreground,Centre,"SB\wakka.png",320,240 F,0,14694,14901,0,0.8333333 S,0,14694,14901,0.7337599,1.41984 S,0,14901,15108,1.41984,1.6144 F,0,14901,15936,0.8333333,0 S,0,15108,15522,1.6144,1.80896 S,0,15522,15936,1.80896,1.94208
Animation,Foreground,Centre,"SB\am2\am2.png",320,240,5,500,LoopForever S,0,67685,,1 R,0,67685,,0 F,0,67685,68513,0,0.7696 M,0,67685,74310,102,25,93,434 F,0,68513,69341,0.7696,1 F,0,69341,70169,1,0.7696 F,0,70169,70998,0.7696,1 F,0,70998,71826,1,0.8771199 F,0,71826,72654,0.8771199,1 F,0,72654,73482,1,0.73888 F,0,73482,74310,0.73888,0
Animation,Foreground,Centre,"SB\am2\am2.png",320,240,5,500,LoopForever S,0,67685,,1 R,0,67685,,0 F,0,67685,68513,0,0.7696 M,0,67685,74310,411,130,387,308 F,0,68513,69341,0.7696,1 F,0,69341,70169,1,0.7696 F,0,70169,70998,0.7696,1 F,0,70998,71826,1,0.8771199 F,0,71826,72654,0.8771199,1 F,0,72654,73482,1,0.73888 F,0,73482,74310,0.73888,0
Animation,Foreground,Centre,"SB\am2\am2.png",320,240,5,500,LoopForever S,0,67685,,1 R,0,67685,,0 F,0,67685,68513,0,0.7696 M,0,67685,74310,102,25,93,434 F,0,68513,69341,0.7696,1 F,0,69341,70169,1,0.7696 F,0,70169,70998,0.7696,1 F,0,70998,71826,1,0.8771199 F,0,71826,72654,0.8771199,1 F,0,72654,73482,1,0.73888 F,0,73482,74310,0.73888,0
Animation,Foreground,Centre,"SB\am2\am2.png",320,240,5,500,LoopForever S,0,67685,,1 R,0,67685,,0 F,0,67685,68513,0,0.7696 M,0,67685,74310,179,179,203,467 F,0,68513,69341,0.7696,1 F,0,69341,70169,1,0.7696 F,0,70169,70998,0.7696,1 F,0,70998,71826,1,0.8771199 F,0,71826,72654,0.8771199,1 F,0,72654,73482,1,0.73888 F,0,73482,74310,0.73888,0
Animation,Foreground,Centre,"SB\am2\am2.png",320,240,5,500,LoopForever S,0,67685,,1 R,0,67685,,0 F,0,67685,68513,0,0.7696 M,0,67685,74310,237,361,274,534 F,0,68513,69341,0.7696,1 F,0,69341,70169,1,0.7696 F,0,70169,70998,0.7696,1 F,0,70998,71826,1,0.8771199 F,0,71826,72654,0.8771199,1 F,0,72654,73482,1,0.73888 F,0,73482,74310,0.73888,0
Animation,Foreground,Centre,"SB\am2\am2.png",320,240,5,500,LoopForever S,0,67685,,0.63136 R,0,67685,,0 F,0,67685,68513,0,0.7696 M,0,67685,74310,227,175,267,525 F,0,68513,69341,0.7696,1 F,0,69341,70169,1,0.7696 F,0,70169,70998,0.7696,1 F,0,70998,71826,1,0.8771199 F,0,71826,72654,0.8771199,1 F,0,72654,73482,1,0.73888 F,0,73482,74310,0.73888,0
Animation,Foreground,Centre,"SB\am2\am2.png",320,240,5,500,LoopForever S,0,67685,,0.41632 R,0,67685,,0 F,0,67685,68513,0,0.7696 M,0,67685,74310,564,-67,619,531 F,0,68513,69341,0.7696,1 F,0,69341,70169,1,0.7696 F,0,70169,70998,0.7696,1 F,0,70998,71826,1,0.8771199 F,0,71826,72654,0.8771199,1 F,0,72654,73482,1,0.73888 F,0,73482,74310,0.73888,0
Sprite,Foreground,Centre,"SB\SNOW.png",320,240 S,0,67685,,2.35168 F,0,67685,70998,0,1 M,0,67685,80314,320,-211,317,693 F,0,68513,80314,1,0 F,0,70998,79279,1 F,0,79279,80314,1,0
Animation,Foreground,Centre,"SB\am2\am2.png",320,240,5,500,LoopForever F,0,70998,71826,0,1 M,0,70998,74299,257,66,263,208 F,0,71826,72654,1,0.7132799 F,0,72654,73689,0.7132799,1 F,0,73689,74310,1,0
Animation,Foreground,Centre,"SB\am2\am2.png",320,240,5,500,LoopForever S,0,70998,,0.7030401 F,0,70998,71826,0,1 M,0,70998,74310,431,109,422,223 F,0,71826,72654,1,0.7132799 F,0,72654,73689,0.7132799,1 F,0,73689,74310,1,0
Animation,Foreground,Centre,"SB\am2\am2.png",320,240,5,500,LoopForever F,0,70998,71826,0,1 M,0,70998,74299,73,-34,66,270 F,0,71826,72654,1,0.7132799 F,0,72654,73689,0.7132799,1 F,0,73689,74310,1,0
Animation,Foreground,Centre,"SB\am2\am2.png",320,240,5,500,LoopForever S,0,70998,,0.6825599 F,0,70998,71826,0,1 M,0,70998,74299,390,75,370,115 F,0,71826,72654,1,0.7132799 F,0,72654,73689,0.7132799,1 F,0,73689,74310,1,0
Sprite,Foreground,Centre,"SB\bg2.png",320,240 M,0,94184,,320,240 S,0,94184,94391,1,1.05632 F,0,94184,95012,1,0 S,0,94391,95012,1.05632,1.19456
Sprite,Foreground,Centre,"SB\azure.png",320,240 F,0,100809,102051,0.38048,0
Sprite,Foreground,Centre,"SB\azure.png",320,240 R,0,120276,,0 F,0,120276,120690,0,1 F,0,120690,121518,1,0
Sprite,Foreground,Centre,"SB\bg1.png",320,240 F,0,107441,,1 S,0,107441,120690,1.47104,1.13312 R,0,107441,120690,0.1843201,0
Sprite,Foreground,Centre,"SB\azure.png",320,240 F,0,107020,107434,0,1 F,0,107434,108269,1,0
Sprite,Foreground,Centre,"SB\C32.png",320,240 F,0,173682,190322,1 M,0,173682,200181,228,268,320,240 S,0,173682,200181,1.70656,1 R,0,173682,200181,0.3072,0 F,0,190322,192412,1 F,0,192412,200181,1 F,0,200181,201009,1,0
Sprite,Foreground,Centre,"SB\sakura_b.png",320,240 F,0,173677,173682,0.69792,0.3702399 S,0,173682,180306,1,1.43008 R,0,173682,180306,0.04096008,2.7648 F,0,173682,186103,0.3702399 S,0,180306,186931,1.43008,1.64512 R,0,180306,186931,2.7648,4.68992 F,0,186103,186931,0.3702399,0
Sprite,Foreground,Centre,"SB\MINI SNOW.png",320,240 F,0,186931,187759,0,1 S,0,186931,200181,1,1.53248 R,0,186931,200181,1.92512,0 F,0,187759,199353,1 F,0,199353,200181,1,0
Sprite,Foreground,Centre,"SB\sakura_b.png",320,240 F,0,186931,188173,0,0.3503307 S,0,186931,199353,1,1.28672 R,0,186931,199353,-3.23584,-1.76128 F,0,188173,198110,0.3503307,0.19104 F,0,198110,199353,0.19104,0.005120086 F,0,199353,200724,0.005120086,0
Animation,Foreground,Centre,"SB\am1\am1.jpg",320,240,5,500,LoopForever M,0,74310,,313,234 F,0,74310,74724,0.05792008,1 F,0,74724,75345,1,0.8813094 F,0,75345,75966,0.8813094,0.9981386 F,0,75966,76794,0.9981386,0.8279376 F,0,76794,77622,0.8279376,0.9956568 F,0,77622,78450,0.9956568,0.7588959 F,0,78450,79279,0.7588959,0.9931734 F,0,79279,80107,0.9931734,0.01013343
Sprite,Foreground,Centre,"SB\wakka.png",320,240 M,0,74310,,313,232 S,0,74310,74413,0.3139198,0.6415999 F,0,74310,75138,1,0 S,0,74413,75138,0.6415999,0.7961942
Sprite,Foreground,Centre,"SB\azure.png",320,240 F,0,146361,147189,0,1 F,0,147189,148006,1,0
Sprite,Foreground,Centre,"SB\wakka.png",320,240 S,0,160427,160531,0.7337601,1.4608 F,0,160427,162083,1,0 S,0,160531,161255,1.4608,1.77824 S,0,161255,162083,1.77824,2.03615
Sprite,Foreground,Centre,"SB\azure.png",320,240 F,0,173263,173682,0,1 F,0,173682,174096,1,0
//Storyboard Sound Samples
//Background Colour Transformations
3,100,163,162,255

[TimingPoints]
1445,414.050100062108,4,2,1,80,1,0
14694,-100,4,2,1,55,0,0
21112,-100,4,2,1,65,0,0
27116,-100,4,2,1,80,0,0
27737,-100,4,2,1,75,0,0
41607,-100,4,2,1,65,0,0
44506,-100,4,2,1,75,0,0
54444,414.050100062108,4,2,1,75,1,0
66658,-100,4,2,1,55,0,0
67072,-100,4,2,1,50,0,0
67486,-100,4,2,1,30,0,0
79701,-100,4,2,1,55,0,0
107441,414.050100062108,4,2,1,75,1,0
120690,-100,4,2,1,70,0,1
132076,-100,4,2,1,65,0,1
133940,-100,4,2,1,70,0,0
147178,414.050100062108,4,2,1,80,1,0
160220,-100,4,2,2,75,0,0
160634,-100,4,2,1,70,0,0
161876,-100,4,2,2,70,0,0
162290,-100,4,2,1,75,0,0
163532,-100,4,2,2,70,0,0
163947,-100,4,2,1,75,0,0
165189,-100,4,2,2,70,0,0
165603,-100,4,2,1,65,0,0
173682,414.050100062108,4,2,1,75,1,0
179065,-100,4,2,1,70,0,0
186931,-100,4,2,1,70,0,1
188380,-100,4,2,1,80,0,1
200181,-100,4,2,1,80,0,0

[Colours]
Combo1 : 152,48,207
Combo2 : 254,75,169
Combo3 : 226,5,221
SliderBorder : 224,224,224

[HitObjects]
248,320,14694,2,0,B|248:232,1,80,4|0
248,160,15522,2,0,B|248:72,1,80
168,80,16350,2,0,B|131:94|123:142,1,80,0|0
112,176,16971,1,0
104,216,17178,2,0,B|96:264|56:280,1,80,0|0
32,320,17799,1,0
80,320,18007,6,0,B|160:320,1,80,0|2
256,320,18835,1,0
296,320,19042,1,0
336,320,19249,1,2
408,256,19663,6,0,B|345:256|337:230,1,80,0|2
336,184,20284,1,0
336,136,20491,2,0,B|312:96|264:110,1,80,0|2
240,144,21112,1,0
200,160,21319,5,8
200,64,21733,2,0,B|200:24,2,40,0|0|8
104,64,22561,5,0
104,160,22975,1,2
104,256,23389,2,0,B|136:296|184:304,1,80
216,304,24010,1,0
264,304,24217,1,8
256,192,24631,12,4,27116
256,88,27944,5,0
176,88,28358,2,0,B|176:168,2,80,8|0|0
256,192,29600,5,0
336,88,30014,2,0,B|336:168,2,80,8|0|0
256,184,31256,6,0,B|224:128|264:104,1,80,0|8
384,96,32084,2,0,B|416:152|376:176,1,80,0|8
352,296,32912,5,0
320,248,33119,1,0
288,200,33326,1,8
184,272,33740,1,0
152,224,33947,1,8
120,176,34154,1,8
216,104,34569,6,0,B|256:80|296:104,1,80,4|8
264,192,35397,2,0,B|264:248,2,40,0|0|8
352,240,36225,2,0,B|312:288,1,40,0|0
288,296,36639,2,0,B|224:312,1,40
200,304,37053,2,0,B|160:288,1,40
112,264,37467,1,8
112,120,37881,6,0,B|112:64,2,40,0|0|8
56,200,38709,1,0
56,200,39123,1,8
192,200,39537,2,0,B|112:200,1,80,2|4
144,296,40365,2,0,B|224:296,1,80,2|0
256,192,41193,5,4
264,272,41607,6,0,B|280:312|328:336,1,80,0|2
256,192,42435,1,0
264,112,42850,6,0,B|248:72|200:48,1,80,0|2
136,56,43678,2,0,B|99:73|83:113,1,80,2|2
88,192,44506,5,0
136,208,44713,1,0
184,224,44920,1,8
160,104,45334,1,0
208,120,45541,1,0
256,136,45748,1,8
368,168,46162,6,0,B|368:112,2,40,0|0|8
368,248,46990,2,0,B|368:304,2,40,0|8|8
368,168,47818,5,4
272,144,48232,6,0,B|192:144,1,80
112,200,49060,1,8
176,272,49474,6,0,B|264:272,1,80
336,272,50302,1,0
336,176,50716,1,8
256,128,51131,6,0,B|304:104,2,40,0|0|8
256,256,51959,6,0,B|208:280,2,40,0|0|8
256,192,52787,12,4,54444
256,192,66865,5,8
256,192,67279,1,2
256,192,67693,1,6
248,172,74318,5,4
256,288,80115,5,8
256,168,80529,1,2
168,256,80943,6,0,B|120:232|104:200,1,80
48,128,81771,1,2
80,40,82185,2,0,B|128:24|176:48,1,80
240,88,83013,1,8
320,136,83427,2,0,B|304:184,2,40,0|0|8
408,184,84255,6,0,B|408:248|384:272,1,80
296,248,85083,2,0,B|280:261|280:325,1,80,0|8
184,325,85911,2,0,B|184:245,1,80,0|8
160,208,86532,1,0
128,176,86739,1,0
72,96,87153,1,8
160,64,87568,6,0,B|171:106|211:122,1,80
288,184,88396,1,2
368,240,88810,6,0,B|411:251|427:291,1,80
328,288,89638,2,0,B|232:288,1,80
152,288,90466,1,8
88,216,90880,6,0,B|88:160,2,40,2|0|0
184,200,91708,2,0,B|264:200,1,80,2|8
256,192,92536,12,4,94192
88,80,100817,6,0,B|96:160,1,80
184,200,101645,1,0
264,256,102059,2,0,B|272:336,1,80,0|8
248,128,103301,5,0
360,128,103715,2,0,B|389:93|357:53,1,80
264,40,104544,1,0
168,56,104958,2,0,B|137:93|166:128,1,80
256,192,105786,12,0,106614
256,192,107028,5,0
80,64,107441,6,0,B|152:64|136:128|232:128,1,160,2|0
304,128,108683,1,0
384,128,109097,2,0,B|384:208,1,80,2|0
376,248,109718,1,0
336,256,109925,1,0
256,272,110339,2,0,B|216:272|216:320|160:320,1,80,2|0
160,224,111167,1,0
48,272,111581,2,0,B|88:272|88:320|144:320,1,80,2|0
208,312,112409,2,0,B|248:288|272:240|264:240,1,80
320,176,113237,6,0,B|344:120|344:80,1,80
360,56,113858,1,0
368,8,114065,1,4
440,72,114479,6,0,B|448:160|440:240,1,160,2|2
368,288,115722,2,0,B|320:304|280:288,1,80,0|2
232,216,116550,2,0,B|280:200|320:216,2,80
152,272,117792,5,4
88,200,118206,1,0
152,128,118620,1,4
216,200,119034,2,0,B|216:264,4,40,0|0|0|0|4
464,56,120690,6,0,B|408:56|408:56|408:96,1,80,2|0
384,176,121518,2,0,B|384:216|384:216|336:216,1,80,2|8
248,216,122346,2,0,B|208:216,1,40,2|0
160,216,122760,2,0,B|160:160,1,40
160,128,123174,2,0,B|80:128,1,80,2|0
80,176,123795,6,0,B|80:224,1,40,0|2
80,312,124417,1,8
176,312,124831,6,0,B|176:256,1,40,2|0
224,280,125245,2,0,B|224:240,1,40
264,216,125659,2,0,B|312:216,1,40,2|0
312,168,126073,2,0,B|360:168,1,40,8|0
400,168,126487,1,0
496,168,126901,1,12
496,72,127315,5,0
400,72,127729,2,0,B|360:72,2,40,0|0|8
400,72,128557,1,0
320,72,128971,2,0,B|288:112,1,40
272,136,129385,2,0,B|240:176,1,40,2|0
224,200,129799,2,0,B|192:240,1,40,2|0
176,264,130213,1,8
232,320,130627,2,0,B|312:320,1,80,0|8
360,256,131455,2,0,B|360:168,1,80,0|8
256,192,132284,12,4,133940
256,192,134354,5,8
256,192,134768,1,2
256,192,135182,1,8
368,104,135596,6,0,B|328:80,1,40
272,80,136010,2,0,B|232:120,1,40,8|0
184,136,136424,2,0,B|184:160,2,20,0|0|0
168,200,136838,2,0,B|136:248,1,40,8|0
192,280,137252,2,0,B|240:280,1,40
296,280,137666,1,8
400,160,138080,6,0,B|400:200,1,40
336,216,138494,2,0,B|288:216,1,40,8|0
240,176,138908,2,0,B|240:136,1,40
288,88,139322,2,0,B|328:88,4,40,8|0|0|0|8
160,88,140565,5,0
288,88,140979,1,8
224,200,141393,1,0
96,224,141807,2,0,B|96:264,1,40,8|0
144,312,142221,2,0,B|184:312,1,40
224,264,142635,1,8
264,312,142842,1,0
312,312,143049,2,0,B|312:232,1,80,0|8
256,192,143877,12,0,146775
256,192,147178,5,4
352,208,160427,5,4
296,288,160841,6,0,B|272:336,1,40
408,288,161462,2,0,B|432:336,1,40
352,176,162083,5,4
296,96,162497,6,0,B|272:48,1,40
408,96,163118,2,0,B|432:48,1,40
408,152,163740,5,4
312,152,164154,2,0,B|264:152,1,40
200,216,164775,2,0,B|160:216,1,40
64,216,165396,5,4
64,120,165810,2,0,B|64:80,1,40
136,184,166431,2,0,B|136:232,1,40
136,288,166845,1,0
136,288,167052,5,8
224,328,167466,2,0,B|272:328,1,40
360,328,168087,1,0
360,328,168294,1,0
416,248,168708,5,8
328,216,169122,2,0,B|280:216,1,40
192,216,169743,1,0
192,216,169950,1,0
256,144,170364,5,8
168,312,171192,1,8
360,312,172021,1,12
360,216,172435,1,0
360,120,172849,1,8
264,104,173263,1,8
184,48,173682,6,0,B|144:48|144:48|144:88,1,80,2|0
144,184,174510,2,0,B|104:184,2,40,2|0|10
144,280,175338,6,0,B|144:320|144:320|184:320,1,80,2|0
280,304,176166,2,0,B|320:304,2,40,2|0|10
360,248,176994,6,0,B|408:280,2,40,2|0|8
320,160,177822,2,0,B|272:128,2,40,2|0|10
392,96,178650,1,2
320,32,179064,1,8
248,96,179478,1,2
320,160,179892,1,8
336,264,180306,6,0,B|264:320,1,80,2|8
224,320,180927,1,0
176,320,181134,2,0,B|112:272,1,80,2|8
104,176,181963,2,0,B|80:144,2,40,0|0|8
160,96,182791,1,2
248,48,183205,1,8
272,144,183619,5,2
360,96,184033,1,8
376,192,184447,1,2
464,152,184861,1,8
256,192,185275,12,4,186931
264,176,187345,5,0
344,120,187759,1,8
424,64,188173,1,0
424,64,188587,6,0,B|376:64,1,40,2|0
336,64,189001,2,0,B|336:112,1,40,8|0
336,152,189415,2,0,B|288:152,1,40,2|0
248,152,189829,2,0,B|248:200,1,40,8|0
248,240,190244,2,0,B|208:240,1,40,2|0
160,240,190658,5,8
208,320,191072,2,0,B|264:320|288:288,1,80,0|8
384,320,191900,2,0,B|328:320|304:288,1,80,0|8
312,192,192728,1,2
384,128,193142,1,8
296,96,193556,1,6
104,96,194384,5,2
104,192,194798,1,8
192,144,195212,1,2
384,144,196040,1,2
352,232,196454,1,8
288,168,196868,1,2
256,192,197282,12,0,199767
257,189,200181,5,4
