osu file format v14

[General]
AudioFilename: sakura.mp3
AudioLeadIn: 0
PreviewTime: 99144
Countdown: 0
SampleSet: Soft
StackLeniency: 0.1
Mode: 0
LetterboxInBreaks: 0
WidescreenStoryboard: 0

[Editor]
Bookmarks: 22344,33315,55258,77201,88173,99144,121087,143030,164973,186915,207487
DistanceSpacing: 1.6
BeatDivisor: 4
GridSize: 32
TimelineZoom: 3.199999

[Metadata]
Title:Izayoi Sakura
TitleUnicode:十六夜桜
Artist:Kozato snow
ArtistUnicode:Kozato snow
Creator:den0saur
Version:Oriental
Source:BMS
Tags:こざと spiritual core traditional piano instrumental
BeatmapID:1596308
BeatmapSetID:758991

[Difficulty]
HPDrainRate:5.2
CircleSize:4.8
OverallDifficulty:9
ApproachRate:9.5
SliderMultiplier:1.4
SliderTickRate:1

[Events]
//Background and Video events
0,0,"45105.jpg",0,0
//Break Periods
2,33547,43066
2,121278,131523
//Storyboard Layer 0 (Background)
//Storyboard Layer 1 (Fail)
//Storyboard Layer 2 (Pass)
//Storyboard Layer 3 (Foreground)
//Storyboard Sound Samples

[TimingPoints]
11363,342.857142857143,4,2,4,40,1,0
22334,-100,4,2,2,50,0,0
27820,-64.5161290322581,4,2,5,50,0,0
29191,-100,4,2,2,50,0,0
30563,-83.3333333333333,4,2,2,55,0,0
31934,-66.6666666666667,4,2,2,60,0,0
32963,-50,4,2,5,60,0,0
33305,-66.6666666666667,4,2,1,70,0,0
33348,-66.6666666666667,4,2,1,5,0,0
44277,-66.6666666666667,4,2,4,70,0,0
45991,-66.6666666666667,4,2,1,70,0,0
47020,-66.6666666666667,4,2,4,70,0,0
48734,-66.6666666666667,4,2,1,70,0,0
49077,-66.6666666666667,4,2,4,70,0,0
51477,-66.6666666666667,4,2,1,70,0,0
52163,-66.6666666666667,4,2,4,70,0,0
53191,-66.6666666666667,4,2,1,70,0,0
53877,-40,4,2,4,70,0,0
55077,-80,4,2,1,70,0,0
55120,-80,4,2,1,5,0,0
55248,-100,4,2,1,70,0,0
55420,-100,4,2,1,35,0,0
56620,-100,4,2,4,35,0,0
65534,-100,4,2,1,35,0,0
66220,-100,4,2,1,50,0,0
67591,-100,4,2,4,50,0,0
69648,-100,4,2,1,50,0,0
70334,-100,4,2,4,50,0,0
71705,-100,4,2,4,53,0,0
72391,-100,4,2,1,53,0,0
73077,-100,4,2,4,56,0,0
74448,-100,4,2,4,58,0,0
75134,-100,4,2,1,58,0,0
75820,-100,4,2,4,60,0,0
76505,-100,4,2,1,65,0,0
77191,-66.6666666666667,4,2,4,70,0,0
78563,-83.3333333333333,4,2,1,70,0,0
79591,-83.3333333333333,4,2,4,70,0,0
80791,-66.6666666666667,4,2,1,70,0,0
81991,-66.6666666666667,4,2,4,70,0,0
82677,-83.3333333333333,4,2,1,70,0,0
83363,-83.3333333333333,4,2,4,70,0,0
84734,-83.3333333333333,4,2,1,70,0,0
85420,-83.3333333333333,4,2,4,70,0,0
86105,-83.3333333333333,4,2,1,70,0,0
86791,-83.3333333333333,4,2,4,70,0,0
87477,-74.0740740740741,4,2,1,70,0,0
87820,-74.0740740740741,4,2,3,70,0,0
87991,-74.0740740740741,4,2,1,70,0,0
88505,-100,4,2,2,45,0,0
94334,-100,4,2,5,45,0,0
95020,-100,4,2,2,45,0,0
95705,-100,4,2,5,45,0,0
96391,-83.3333333333333,4,2,2,45,0,0
97077,-83.3333333333333,4,2,5,45,0,0
98448,-100,4,2,1,65,0,0
98963,-58.8235294117647,4,2,1,65,0,0
99134,-66.6666666666667,4,2,1,75,0,1
99305,-66.6666666666667,4,2,4,75,0,1
100505,-66.6666666666667,4,2,1,75,0,1
101191,-66.6666666666667,4,2,4,75,0,1
101877,-66.6666666666667,4,2,1,75,0,1
102220,-66.6666666666667,4,2,4,75,0,1
103248,-66.6666666666667,4,2,1,75,0,1
103591,-66.6666666666667,4,2,4,75,0,1
103934,-66.6666666666667,4,2,1,75,0,1
104620,-66.6666666666667,4,2,1,75,0,1
104963,-66.6666666666667,4,2,4,75,0,1
105991,-66.6666666666667,4,2,1,75,0,1
106334,-66.6666666666667,4,2,4,75,0,1
107363,-66.6666666666667,4,2,1,75,0,1
108734,-57.1428571428571,4,2,1,75,0,1
109934,-80,4,2,1,75,0,1
109977,-80,4,2,1,5,0,1
110105,-66.6666666666667,4,2,1,75,0,1
110277,-66.6666666666667,4,2,4,75,0,1
111477,-66.6666666666667,4,2,1,75,0,1
112163,-66.6666666666667,4,2,4,75,0,1
112848,-66.6666666666667,4,2,1,75,0,1
113191,-66.6666666666667,4,2,4,75,0,1
114220,-66.6666666666667,4,2,1,75,0,1
114563,-66.6666666666667,4,2,4,75,0,1
114905,-66.6666666666667,4,2,1,75,0,1
115248,-50,4,2,1,75,0,1
115591,-57.1428571428571,4,2,1,75,0,1
115763,-57.1428571428571,4,2,4,75,0,1
116963,-71.4285714285714,4,2,1,75,0,1
117305,-71.4285714285714,4,2,4,75,0,1
118334,-66.6666666666667,4,2,1,75,0,1
118848,-62.5,4,2,1,75,0,1
119191,-58.8235294117647,4,2,1,75,0,1
119534,-55.5555555555556,4,2,1,75,0,1
119705,-55.5555555555556,4,2,2,60,0,0
121077,-55.5555555555556,4,2,1,75,0,0
132048,-208.333333333333,4,2,1,75,0,0
142677,-208.333333333333,4,2,1,10,0,0
143020,-100,4,2,5,40,0,0
144391,-100,4,2,2,40,0,0
148505,-66.6666666666667,4,2,5,40,0,0
149877,-83.3333333333333,4,2,2,40,0,0
152620,-71.4285714285714,4,2,2,40,0,0
153991,-100,4,2,5,40,0,0
155363,-100,4,2,2,40,0,0
159477,-76.9230769230769,4,2,5,40,0,0
160848,-83.3333333333333,4,2,2,40,0,0
163591,-66.6666666666667,4,2,2,50,0,0
163934,-45.4545454545455,4,2,4,50,0,0
164277,-50,4,2,3,40,0,0
164963,-52.6315789473684,4,2,1,75,0,1
165005,-52.6315789473684,4,2,1,5,0,1
165134,-62.5,4,2,1,75,0,1
165991,-50,4,2,4,75,0,1
166334,-66.6666666666667,4,2,1,75,0,1
167020,-66.6666666666667,4,2,4,75,0,1
167705,-66.6666666666667,4,2,1,75,0,1
168048,-66.6666666666667,4,2,4,75,0,1
168734,-58.8235294117647,4,2,1,75,0,1
169077,-76.9230769230769,4,2,1,75,0,1
169420,-76.9230769230769,4,2,4,75,0,1
169763,-76.9230769230769,4,2,1,75,0,1
170448,-66.6666666666667,4,2,1,75,0,1
170791,-66.6666666666667,4,2,4,75,0,1
171477,-58.8235294117647,4,2,1,75,0,1
171820,-66.6666666666667,4,2,1,75,0,1
172163,-66.6666666666667,4,2,4,75,0,1
173191,-66.6666666666667,4,2,1,75,0,1
174563,-55.5555555555556,4,2,1,75,0,1
175934,-52.6315789473684,4,2,1,75,0,1
176105,-62.5,4,2,4,75,0,1
177305,-62.5,4,2,1,75,0,1
177991,-62.5,4,2,4,75,0,1
178677,-62.5,4,2,1,75,0,1
179020,-62.5,4,2,4,75,0,1
179705,-58.8235294117647,4,2,1,75,0,1
180048,-62.5,4,2,1,75,0,1
180391,-62.5,4,2,4,75,0,1
180734,-62.5,4,2,1,75,0,1
181077,-41.6666666666667,4,2,1,75,0,1
181420,-62.5,4,2,1,75,0,1
181591,-62.5,4,2,4,75,0,1
182448,-37.037037037037,4,2,1,75,0,1
182791,-58.8235294117647,4,2,1,75,0,1
182963,-58.8235294117647,4,2,4,75,0,1
183820,-34.4827586206897,4,2,1,75,0,1
184163,-33.3333333333333,4,2,1,75,0,1
185534,-111.111111111111,4,2,2,65,0,0
186391,-66.6666666666667,4,2,2,65,0,0
186905,-66.6666666666667,4,2,1,65,0,1
186991,-66.6666666666667,4,2,1,65,0,0

[Colours]
Combo1 : 224,244,85
Combo2 : 255,204,242
Combo3 : 255,98,176
Combo4 : 157,206,255
Combo5 : 51,153,255
Combo6 : 239,251,174

[HitObjects]
132,208,11363,5,10,0:3:0:0:
67,186,11705,1,0,0:0:0:0:
67,118,12047,1,0,0:0:0:0:
132,97,12390,1,0,0:0:0:0:
171,152,12562,1,0,0:0:0:0:
132,208,12733,1,0,0:0:0:0:
67,186,13076,1,0,0:0:0:0:
67,118,13419,1,0,0:0:0:0:
132,97,13762,1,0,0:0:0:0:
368,281,14105,5,2,0:0:0:0:
443,256,14448,1,0,0:0:0:0:
443,177,14790,1,0,0:0:0:0:
368,153,15133,1,0,0:0:0:0:
322,217,15305,1,0,0:0:0:0:
368,281,15476,1,0,0:0:0:0:
443,256,15819,1,0,0:0:0:0:
443,177,16162,1,0,0:0:0:0:
368,153,16505,1,0,0:0:0:0:
196,372,16848,5,2,0:0:0:0:
105,382,17191,1,0,0:0:0:0:
67,302,17533,1,0,0:0:0:0:
131,241,17876,1,0,0:0:0:0:
209,282,18048,1,0,0:0:0:0:
196,372,18219,1,0,0:0:0:0:
105,382,18562,1,0,0:0:0:0:
67,302,18905,1,0,0:0:0:0:
131,241,19248,1,0,0:0:0:0:
315,121,19592,5,2,0:0:0:0:
297,17,19935,1,0,0:0:0:0:
196,1,20277,1,0,0:0:0:0:
149,93,20620,1,0,0:0:0:0:
222,165,20792,1,0,0:0:0:0:
315,121,20963,1,0,0:0:0:0:
297,17,21306,1,0,0:0:0:0:
196,1,21649,1,0,0:0:0:0:
149,93,21820,1,8,0:3:0:0:
149,93,21905,1,8,0:3:0:0:
149,93,21991,2,0,L|157:151,2,35,8|0|2,0:3|0:0|0:1,0:0:0:0:
196,372,22334,5,6,1:2:0:0:
105,382,22506,1,0,0:0:0:0:
67,302,22678,1,8,0:0:0:0:
131,241,22849,1,0,0:0:0:0:
209,282,23020,1,0,0:0:0:0:
209,282,23363,1,8,0:0:0:0:
209,282,23705,5,0,0:0:0:0:
275,264,23877,1,0,0:0:0:0:
209,282,24048,1,8,0:0:0:0:
275,264,24220,1,0,0:0:0:0:
375,311,24390,5,0,0:0:0:0:
408,250,24562,1,0,0:0:0:0:
375,311,24734,1,8,0:0:0:0:
408,250,24906,1,0,0:0:0:0:
508,217,25077,5,0,1:0:0:0:
498,110,25249,1,0,0:0:0:0:
399,86,25421,1,8,0:0:0:0:
345,170,25592,1,0,0:0:0:0:
408,250,25763,1,0,0:0:0:0:
408,250,26105,1,8,0:0:0:0:
334,337,26448,5,0,1:0:0:0:
341,306,26534,1,0,0:0:0:0:
365,326,26620,1,0,0:0:0:0:
512,95,26792,5,8,0:0:0:0:
485,128,26878,1,0,0:0:0:0:
469,92,26963,1,0,0:0:0:0:
273,148,27134,5,0,0:0:0:0:
258,217,27219,1,0,0:0:0:0:
319,196,27305,1,0,0:0:0:0:
275,176,27390,1,0,0:0:0:0:
228,178,27476,1,8,0:0:0:0:
180,205,27562,1,0,0:0:0:0:
127,242,27648,1,2,1:0:0:0:
59,242,27733,1,0,0:0:0:0:
13,186,27820,6,0,B|2:127|31:149|11:71,1,108.500000827789,2|0,1:2|0:1,0:0:0:0:
86,43,28163,1,8,0:0:0:0:
41,311,28333,1,0,0:0:0:0:
162,13,28506,1,0,1:0:0:0:
162,13,28848,1,8,0:0:0:0:
162,13,29191,5,0,1:0:0:0:
252,49,29362,1,0,0:0:0:0:
245,146,29533,1,8,0:0:0:0:
151,168,29705,1,0,0:0:0:0:
100,86,29877,2,0,L|109:40,2,35,0|0|0,1:0|0:0|0:0,0:0:0:0:
0,272,30220,5,8,0:0:0:0:
9,338,30305,1,0,0:0:0:0:
75,350,30391,1,0,1:0:0:0:
106,290,30477,1,0,0:0:0:0:
59,242,30563,2,0,P|33:281|28:317,1,83.9999974365235,0|2,1:0|0:1,0:0:0:0:
65,129,30905,2,0,P|42:87|14:64,1,83.9999974365235,8|2,1:2|0:1,0:0:0:0:
158,199,31248,2,0,P|204:200|238:186,1,83.9999974365235,0|2,1:0|0:1,0:0:0:0:
433,211,31591,5,8,1:2:0:0:
499,220,31676,1,0,0:0:0:0:
511,286,31762,1,0,0:0:0:0:
451,317,31848,1,0,0:0:0:0:
403,270,31934,5,2,1:2:0:0:
403,270,32020,1,2,0:0:0:0:
403,270,32105,2,0,P|362:280|334:297,1,52.5000020027161,2|0,1:2|0:0,0:0:0:0:
177,110,32277,2,0,P|188:69|187:36,1,52.5000020027161,0|0,1:0|0:0,0:0:0:0:
434,0,32448,1,0,1:0:0:0:
434,0,32534,1,0,1:0:0:0:
434,0,32620,2,0,P|463:30|492:45,1,52.5000020027161,2|0,1:2|1:0,0:0:0:0:
338,126,32791,5,8,1:3:0:0:
338,126,32877,1,8,0:3:0:0:
338,126,32963,2,0,B|310:92|328:50|328:50|356:78|341:115,1,140,10|2,0:3|0:0,0:0:0:0:
397,373,33305,6,0,L|402:342,1,26.2500010013581,6|0,1:1|0:0,0:0:0:0:
256,192,43591,12,0,44191,0:0:0:0:
133,102,44277,6,0,P|84:80|31:86,1,105.000004005432,4|0,1:2|0:0,0:0:0:0:
0,222,44620,1,8,0:0:0:0:
153,201,44791,1,0,0:0:0:0:
264,307,44963,1,0,1:0:0:0:
43,384,45134,5,2,0:0:0:0:
98,331,45306,1,10,0:0:0:0:
175,342,45477,1,2,0:0:0:0:
402,342,45648,6,0,P|426:290|412:216,1,105.000004005432,0|2,1:0|0:0,0:0:0:0:
347,205,45991,1,10,0:0:0:0:
441,73,46163,1,0,0:0:0:0:
348,278,46334,2,0,P|341:250|318:222,2,52.5000020027161,0|0|0,1:0|0:0|0:0,0:0:0:0:
433,95,46677,2,0,P|432:43|461:0,1,105.000004005432,8|0,1:2|0:0,0:0:0:0:
181,285,47020,6,0,P|129:287|63:248,1,105.000004005432,0|0,1:0|0:0,0:0:0:0:
91,59,47363,1,10,0:0:0:0:
148,116,47534,1,0,0:0:0:0:
143,194,47705,1,0,1:0:0:0:
318,376,47877,5,2,0:0:0:0:
491,345,48048,1,10,0:0:0:0:
512,175,48220,1,2,0:0:0:0:
203,247,48391,5,0,1:0:0:0:
328,309,48562,1,2,0:0:0:0:
262,184,48733,1,10,0:0:0:0:
242,324,48905,1,0,0:0:0:0:
340,223,49076,1,2,1:2:0:0:
275,258,49248,5,2,0:0:0:0:
275,258,49420,1,8,1:2:0:0:
275,258,49591,1,2,0:0:0:0:
367,98,49763,6,0,P|360:46|386:2,1,105.000004005432,0|0,1:0|0:0,0:0:0:0:
508,74,50105,1,8,0:2:0:0:
402,185,50277,1,0,0:0:0:0:
423,338,50448,1,0,1:0:0:0:
465,225,50619,5,2,0:0:0:0:
475,292,50791,1,10,0:0:0:0:
512,177,50962,1,2,0:0:0:0:
211,293,51134,6,0,P|192:345|135:368,1,105.000004005432,0|2,1:0|0:0,0:0:0:0:
62,351,51477,1,10,0:0:0:0:
0,172,51648,5,0,0:0:0:0:
48,188,51733,1,0,0:0:0:0:
74,232,51819,1,0,1:0:0:0:
62,351,51991,1,0,0:0:0:0:
127,102,52163,2,0,B|116:46|147:61|132:-1,1,105.000004005432,10|2,1:2|0:0,0:0:0:0:
241,224,52505,5,0,1:0:0:0:
282,278,52590,1,0,1:0:0:0:
347,258,52676,1,0,1:0:0:0:
347,188,52762,1,0,1:0:0:0:
282,168,52848,6,0,P|278:196|290:226,1,52.5000020027161,10|0,1:2|0:0,0:0:0:0:
416,304,53020,2,0,P|441:310|462:327,1,52.5000020027161,10|0,1:2|0:0,0:0:0:0:
334,110,53191,2,0,P|346:87|367:71,1,52.5000020027161,10|0,1:2|0:0,0:0:0:0:
310,358,53363,5,0,1:0:0:0:
310,358,53448,1,0,1:0:0:0:
310,358,53534,1,8,1:2:0:0:
440,165,53705,1,0,1:0:0:0:
72,314,53877,6,0,B|54:337|13:330|13:330|37:323|50:301,1,87.5,2|0,1:2|0:0,0:0:0:0:
230,233,54048,2,0,B|262:224|287:253|287:253|261:243|239:255,1,87.5,8|0,1:2|0:0,0:0:0:0:
54,203,54220,2,0,B|24:193|18:152|18:152|33:173|58:178,1,87.5,2|0,1:2|0:0,0:0:0:0:
179,331,54391,2,0,B|196:353|176:391|176:391|177:365|160:346,1,87.5,8|0,1:2|1:0,0:0:0:0:
153,154,54562,2,0,B|151:123|189:104|189:104|173:125|176:151,1,87.5,2|0,1:2|1:0,0:0:0:0:
139,249,54734,5,8,1:3:0:0:
139,249,54820,1,8,0:3:0:0:
139,249,54905,1,10,0:3:0:0:
139,249,55077,6,0,L|136:222,1,21.875,2|0,0:1|0:0,0:0:0:0:
461,326,55248,6,0,P|481:278|476:243,1,70,6|0,0:0|0:0,0:0:0:0:
390,373,55591,1,0,0:0:0:0:
385,331,55762,1,0,0:0:0:0:
351,302,55934,1,0,0:0:0:0:
306,372,56276,1,0,0:0:0:0:
171,203,56620,5,2,0:0:0:0:
164,125,56791,1,0,0:0:0:0:
171,203,56963,1,0,0:0:0:0:
164,125,57135,1,0,0:0:0:0:
94,243,57305,1,0,0:0:0:0:
68,212,57476,1,0,0:0:0:0:
58,173,57647,1,0,0:0:0:0:
67,133,57819,1,0,0:0:0:0:
275,40,57991,5,2,0:0:0:0:
248,229,58333,1,0,0:0:0:0:
424,157,58676,1,0,0:0:0:0:
315,142,59019,1,0,0:0:0:0:
349,313,59363,5,2,0:0:0:0:
281,324,59535,1,0,0:0:0:0:
349,313,59706,1,0,0:0:0:0:
281,324,59878,1,0,0:0:0:0:
186,266,60048,1,2,0:0:0:0:
67,336,60219,1,0,0:0:0:0:
76,364,60305,1,0,0:0:0:0:
97,384,60392,1,0,0:0:0:0:
147,324,60562,1,0,0:0:0:0:
48,120,60734,6,0,P|28:72|33:37,1,70,2|0,0:0|0:0,0:0:0:0:
117,170,61077,1,0,0:0:0:0:
122,124,61248,1,0,0:0:0:0:
160,92,61420,1,0,0:0:0:0:
203,166,61763,1,0,0:0:0:0:
328,195,62105,5,2,0:0:0:0:
383,146,62277,1,0,0:0:0:0:
377,68,62448,1,0,0:0:0:0:
471,9,62620,1,0,0:0:0:0:
471,9,62791,1,0,0:0:0:0:
512,69,62963,1,0,0:0:0:0:
512,69,63048,1,0,0:0:0:0:
512,69,63134,2,0,P|499:108|500:143,1,70
389,252,63477,5,2,0:0:0:0:
319,277,63649,1,0,0:0:0:0:
256,236,63820,1,0,0:0:0:0:
186,261,63992,1,0,0:0:0:0:
152,199,64163,1,0,0:0:0:0:
103,309,64335,1,0,0:0:0:0:
103,309,64420,1,0,0:0:0:0:
103,309,64505,1,0,0:0:0:0:
83,381,64677,1,0,0:0:0:0:
0,134,64849,5,2,0:0:0:0:
25,56,65020,1,0,0:0:0:0:
107,56,65192,1,0,0:0:0:0:
132,133,65363,1,0,0:0:0:0:
66,182,65534,1,2,0:0:0:0:
66,182,65877,1,2,0:1:0:0:
294,293,66220,6,0,P|344:279|368:253,1,70,4|0,1:2|0:0,0:0:0:0:
486,229,66563,1,0,0:0:0:0:
441,227,66735,1,0,0:0:0:0:
412,197,66906,1,2,0:0:0:0:
424,330,67248,1,0,0:0:0:0:
256,177,67592,5,2,1:2:0:0:
263,99,67763,1,0,0:0:0:0:
256,177,67935,1,0,0:0:0:0:
263,99,68105,1,0,0:0:0:0:
195,2,68276,1,0,0:0:0:0:
169,33,68448,1,0,0:0:0:0:
184,76,68619,1,0,0:0:0:0:
88,221,68790,1,0,1:0:0:0:
32,143,68963,6,0,B|109:124|92:178|178:159,1,140,2|0,1:2|0:0,0:0:0:0:
413,249,69648,2,0,B|336:260|372:304|293:314,1,140,2|0,0:0|0:0,0:0:0:0:
224,274,70163,1,0,1:0:0:0:
379,172,70335,5,2,1:2:0:0:
458,182,70506,1,0,0:0:0:0:
379,172,70676,1,0,0:0:0:0:
458,182,70848,1,0,0:0:0:0:
488,284,71019,1,2,0:0:0:0:
468,358,71192,1,0,0:0:0:0:
444,350,71276,1,0,0:0:0:0:
427,332,71362,1,0,1:0:0:0:
488,284,71533,1,0,0:0:0:0:
285,218,71706,6,0,P|241:219|202:193,1,70,2|0,1:2|0:0,0:0:0:0:
263,141,72049,1,0,1:0:0:0:
263,141,72220,1,0,0:0:0:0:
154,153,72391,2,0,P|85:141|43:203,1,140,2|0,1:2|1:0,0:0:0:0:
286,318,73077,5,2,1:2:0:0:
349,364,73248,1,0,0:0:0:0:
419,344,73420,1,0,1:0:0:0:
216,350,73592,1,0,0:0:0:0:
174,286,73763,1,0,1:0:0:0:
286,318,73935,1,0,0:0:0:0:
286,318,74020,1,0,0:0:0:0:
286,318,74106,2,0,P|299:279|298:244,1,70,0|0,1:0|0:0,0:0:0:0:
226,120,74449,5,2,1:2:0:0:
228,42,74621,1,0,0:0:0:0:
296,0,74792,1,8,1:2:0:0:
376,14,74964,1,0,0:0:0:0:
418,230,75134,5,2,1:2:0:0:
364,163,75306,1,0,0:0:0:0:
364,163,75391,1,0,0:0:0:0:
364,163,75477,1,8,1:2:0:0:
284,179,75648,1,0,0:0:0:0:
189,383,75820,5,2,1:2:0:0:
226,298,75992,1,8,0:0:0:0:
319,284,76163,1,0,1:0:0:0:
398,337,76335,1,8,0:0:0:0:
485,162,76505,5,0,1:0:0:0:
485,162,76591,1,0,1:0:0:0:
485,162,76677,2,0,P|488:136|508:102,1,35,8|8,1:3|1:3,0:0:0:0:
485,162,76849,2,0,P|474:138|445:112,1,35,8|0,0:3|0:0,0:0:0:0:
467,32,77020,5,2,0:1:0:0:
494,311,77191,6,0,B|389:352|399:242|276:298,1,210.000008010865,4|8,1:2|0:0,0:0:0:0:
163,351,77705,1,2,0:0:0:0:
216,242,77877,1,2,1:2:0:0:
170,69,78048,1,0,0:0:0:0:
170,69,78134,1,0,0:0:0:0:
170,69,78220,1,8,0:0:0:0:
203,256,78392,1,0,0:0:0:0:
291,21,78563,5,2,1:2:0:0:
419,75,78734,1,0,0:0:0:0:
282,107,78905,1,8,0:0:0:0:
375,0,79077,1,0,0:0:0:0:
363,140,79248,2,0,P|358:105|330:53,1,83.9999974365235,0|0,1:0|0:0,0:0:0:0:
264,339,79591,5,8,1:2:0:0:
96,336,79763,1,0,0:0:0:0:
0,201,79934,2,0,P|2:166|28:113,1,83.9999974365235,2|0,1:2|0:0,0:0:0:0:
65,272,80277,5,10,0:0:0:0:
263,226,80449,1,2,0:0:0:0:
310,132,80620,1,2,1:2:0:0:
172,280,80791,1,0,0:0:0:0:
172,280,80877,1,0,0:0:0:0:
172,280,80963,1,8,0:0:0:0:
410,84,81134,5,0,0:0:0:0:
410,84,81220,1,0,0:0:0:0:
410,84,81306,1,0,1:0:0:0:
512,113,81477,1,0,0:1:0:0:
386,173,81648,1,8,0:0:0:0:
186,28,81819,1,0,0:1:0:0:
246,155,81990,1,2,1:2:0:0:
246,155,82076,1,0,0:0:0:0:
246,155,82163,1,0,0:1:0:0:
172,280,82334,5,10,1:2:0:0:
172,280,82421,1,0,0:0:0:0:
172,280,82506,1,0,0:1:0:0:
172,280,82590,1,0,0:0:0:0:
172,280,82678,5,2,1:2:0:0:
126,329,82763,1,0,0:0:0:0:
65,303,82849,1,0,0:0:0:0:
70,237,82935,1,0,0:0:0:0:
135,222,83020,1,8,0:2:0:0:
182,289,83105,1,0,0:0:0:0:
127,349,83190,1,0,0:0:0:0:
53,318,83276,1,0,0:0:0:0:
57,238,83363,6,0,P|67:197|65:156,1,83.9999974365235,2|0,1:2|0:0,0:0:0:0:
191,101,83705,2,0,P|182:60|160:26,1,83.9999974365235,8|0,0:0|0:0,0:0:0:0:
275,227,84048,5,2,1:2:0:0:
500,218,84219,1,2,0:0:0:0:
337,275,84390,1,10,0:0:0:0:
512,138,84562,1,2,0:0:0:0:
384,31,84734,5,2,1:2:0:0:
306,61,84820,1,0,0:0:0:0:
312,146,84905,1,0,0:0:0:0:
394,165,84991,1,0,0:0:0:0:
438,95,85077,1,8,0:0:0:0:
390,44,85163,1,0,0:0:0:0:
329,67,85249,1,0,0:0:0:0:
332,132,85334,1,0,0:0:0:0:
397,148,85420,5,2,1:2:0:0:
478,8,85591,1,2,0:0:0:0:
512,138,85763,2,0,P|478:121|451:78,1,83.9999974365235,10|0,0:0|0:0,0:0:0:0:
426,278,86105,5,2,1:2:0:0:
242,249,86276,1,0,0:0:0:0:
339,228,86448,1,8,1:2:0:0:
198,331,86619,1,0,0:0:0:0:
455,359,86791,5,2,1:2:0:0:
455,359,86877,1,0,0:0:0:0:
455,359,86963,1,0,0:0:0:0:
455,359,87048,1,0,0:0:0:0:
455,359,87134,1,10,1:2:0:0:
439,338,87219,1,0,0:0:0:0:
415,333,87305,1,2,0:0:0:0:
393,346,87391,1,0,0:0:0:0:
284,384,87477,5,2,1:2:0:0:
275,316,87562,1,0,1:0:0:0:
265,247,87649,1,8,1:2:0:0:
323,202,87734,1,0,1:0:0:0:
297,175,87820,1,8,1:2:0:0:
302,137,87905,1,8,1:2:0:0:
307,98,87992,1,8,1:2:0:0:
312,60,88077,1,0,1:0:0:0:
249,22,88163,1,4,0:0:0:0:
144,173,88506,6,0,P|176:194|206:198,1,70
61,168,88849,2,0,P|26:187|7:210,1,70,0|0,0:0|0:0,0:0:0:0:
112,101,89192,2,0,P|112:62|101:34,1,70,0|0,0:0|0:0,0:0:0:0:
65,261,89534,5,2,0:0:0:0:
77,329,89706,1,0,0:0:0:0:
65,261,89877,1,0,0:0:0:0:
77,329,90049,1,0,0:0:0:0:
0,375,90221,1,0,0:0:0:0:
197,376,90392,1,0,0:0:0:0:
210,383,90477,1,0,0:0:0:0:
196,364,90563,1,0,0:0:0:0:
280,220,90734,5,0,0:0:0:0:
299,208,90819,1,0,0:0:0:0:
282,242,90905,1,2,0:0:0:0:
435,278,91077,1,0,0:0:0:0:
386,337,91248,2,0,P|351:337|317:322,1,70
236,45,91591,6,0,P|243:25|242:-6,2,35
152,142,91934,2,0,P|137:151|125:164,2,35
278,112,92277,2,0,P|295:112|312:109,2,35
157,62,92620,2,0,P|143:51|127:43,2,35
226,172,92963,1,0,0:0:0:0:
226,172,93048,1,0,0:0:0:0:
226,172,93134,1,0,0:0:0:0:
226,172,93220,1,0,0:0:0:0:
226,172,93305,2,0,P|230:188|239:204,3,35
127,268,93648,6,0,P|119:316|98:345,3,70,2|0|0|0,0:0|0:0|0:0|0:0,0:0:0:0:
47,282,94334,1,2,0:0:0:0:
203,327,94677,1,2,0:1:0:0:
434,230,95020,6,0,P|413:201|406:167,3,70,2|0|0|0,0:0|0:0|0:0|0:0,0:0:0:0:
487,168,95706,1,2,0:0:0:0:
487,168,95878,1,2,0:1:0:0:
340,237,96048,5,2,0:1:0:0:
340,237,96134,1,0,0:0:0:0:
340,237,96220,1,0,0:0:0:0:
340,237,96305,1,0,0:0:0:0:
340,237,96391,1,2,0:0:0:0:
325,241,96476,1,0,0:0:0:0:
311,239,96562,1,0,0:0:0:0:
297,233,96648,1,0,0:0:0:0:
288,222,96733,1,2,0:1:0:0:
308,54,96905,1,0,0:1:0:0:
208,223,97077,5,2,0:0:0:0:
208,223,97163,1,0,0:0:0:0:
208,223,97248,1,0,0:0:0:0:
208,223,97334,1,0,0:0:0:0:
208,223,97420,2,0,P|167:199|122:211,1,83.9999974365235,2|0,0:1|0:0,0:0:0:0:
143,340,97763,5,0,0:0:0:0:
244,358,97934,1,0,0:0:0:0:
325,306,98105,1,0,0:0:0:0:
348,224,98277,1,0,0:0:0:0:
332,157,98448,5,0,1:0:0:0:
332,157,98534,1,0,1:0:0:0:
332,157,98620,2,0,P|330:139|332:122,1,35,8|0,1:3|1:0,0:0:0:0:
332,157,98792,2,0,P|322:142|310:129,1,35,8|0,1:3|1:0,0:0:0:0:
469,166,98963,6,0,P|460:151|463:163,1,59.5000011348725,2|0,1:0|0:0,0:0:0:0:
208,223,99134,5,4,1:0:0:0:
67,226,99305,1,2,0:0:0:0:
2,107,99477,1,10,0:0:0:0:
23,286,99648,1,0,0:0:0:0:
23,286,99734,1,0,0:0:0:0:
23,286,99820,2,0,P|23:343|-11:394,1,105.000004005432,0|0,1:0|0:0,0:0:0:0:
98,358,100163,2,0,B|116:324|160:332|160:332|131:338|118:368,1,105.000004005432,10|0,0:0|0:0,0:0:0:0:
283,217,100505,6,0,P|263:168|224:134,1,105.000004005432,2|0,1:2|0:0,0:0:0:0:
16,212,100848,2,0,P|67:219|116:202,1,105.000004005432,8|0,0:0|0:0,0:0:0:0:
119,100,101191,1,2,1:2:0:0:
122,11,101363,1,0,0:0:0:0:
119,100,101533,1,10,0:0:0:0:
122,11,101705,1,0,1:0:0:0:
200,263,101877,5,2,1:2:0:0:
266,310,102048,1,0,0:0:0:0:
280,120,102219,1,10,0:0:0:0:
206,156,102390,1,2,0:0:0:0:
366,257,102562,1,2,1:2:0:0:
371,177,102733,1,0,0:0:0:0:
371,177,102820,1,0,0:0:0:0:
371,177,102905,2,0,P|326:178|282:217,1,105.000004005432,8|0,0:0|0:0,0:0:0:0:
488,374,103248,5,2,1:2:0:0:
467,379,103334,1,0,0:0:0:0:
445,373,103420,2,0,P|461:359|498:358,1,52.5000020027161
405,281,103590,5,10,1:2:0:0:
391,264,103676,1,0,0:0:0:0:
366,257,103763,2,0,P|370:271|403:297,1,52.5000020027161
227,361,103934,5,2,1:3:0:0:
246,356,104020,1,0,0:3:0:0:
262,337,104106,1,8,0:3:0:0:
238,286,104191,1,8,0:3:0:0:
248,232,104277,1,8,1:3:0:0:
279,163,104363,1,0,0:0:0:0:
286,130,104448,1,2,0:1:0:0:
281,97,104533,1,0,0:0:0:0:
264,68,104619,5,6,1:2:0:0:
365,275,104791,1,0,0:0:0:0:
440,151,104963,1,10,0:0:0:0:
475,235,105134,1,2,0:0:0:0:
488,98,105305,2,0,P|486:46|511:0,1,105.000004005432,2|0,1:2|0:0,0:0:0:0:
356,16,105563,1,0,0:0:0:0:
369,20,105648,2,0,B|405:31|406:75|406:75|394:48|362:41,1,105.000004005432,8|0,0:0|0:0,0:0:0:0:
184,223,105991,5,0,1:0:0:0:
93,238,106163,1,0,0:0:0:0:
116,89,106334,1,10,0:0:0:0:
198,131,106505,1,0,0:0:0:0:
49,154,106677,1,2,1:2:0:0:
49,154,106763,1,2,0:0:0:0:
49,154,106848,2,0,P|76:165|115:153,1,52.5000020027161
271,191,107019,5,10,1:2:0:0:
109,2,107191,1,2,1:2:0:0:
13,241,107363,1,2,1:2:0:0:
184,235,107534,5,8,0:3:0:0:
112,220,107705,1,8,1:2:0:0:
184,235,107876,1,8,0:3:0:0:
297,370,108048,5,0,1:0:0:0:
378,352,108219,1,8,0:3:0:0:
297,370,108390,1,8,1:2:0:0:
269,305,108476,1,0,0:0:0:0:
318,255,108562,1,8,0:3:0:0:
383,281,108648,1,0,0:0:0:0:
378,352,108734,5,0,1:0:0:0:
378,352,108820,1,0,0:0:0:0:
378,352,108905,2,0,P|363:328|356:294,1,61.2500005841255,8|0,1:3|0:0,0:0:0:0:
512,145,109077,5,8,1:2:0:0:
512,145,109163,1,0,0:0:0:0:
512,145,109248,2,0,P|498:169|472:193,1,61.2500005841255,8|0,1:3|1:0,0:0:0:0:
259,143,109420,5,0,1:0:0:0:
259,143,109505,1,0,1:0:0:0:
259,143,109591,2,0,P|287:142|320:152,1,61.2500005841255,8|8,1:3|0:3,0:0:0:0:
383,211,109763,5,8,0:3:0:0:
383,211,109848,1,0,0:0:0:0:
383,211,109934,2,0,L|390:186,1,21.875,2|0,0:1|0:0,0:0:0:0:
215,72,110105,5,4,1:0:0:0:
97,136,110276,1,2,0:0:0:0:
81,269,110448,1,10,0:0:0:0:
20,99,110619,1,0,0:0:0:0:
20,99,110705,1,0,0:0:0:0:
20,99,110791,2,0,P|21:42|-10:-10,1,105.000004005432,0|0,1:0|0:0,0:0:0:0:
11,258,111134,2,0,B|29:224|73:232|73:232|44:238|31:268,1,105.000004005432,10|0,0:0|0:0,0:0:0:0:
33,352,111477,6,0,P|78:379|130:382,1,105.000004005432,2|0,1:2|0:0,0:0:0:0:
374,298,111820,2,0,P|322:307|281:338,1,105.000004005432,8|0,0:0|0:0,0:0:0:0:
171,317,112163,1,2,1:2:0:0:
145,168,112335,1,0,0:0:0:0:
209,240,112505,1,10,1:2:0:0:
235,91,112677,1,0,0:0:0:0:
417,235,112848,5,2,1:2:0:0:
364,54,113020,1,0,0:0:0:0:
512,169,113191,1,10,0:0:0:0:
324,163,113363,1,2,0:0:0:0:
480,58,113534,2,0,P|444:100|436:151,1,105.000004005432,2|0,1:2|0:0,0:0:0:0:
346,233,113791,1,0,0:0:0:0:
332,242,113877,2,0,P|341:292|376:331,1,105.000004005432,8|0,0:0|0:0,0:0:0:0:
169,353,114220,5,2,1:2:0:0:
169,375,114305,1,0,0:0:0:0:
187,364,114391,2,0,P|161:363|128:379,1,52.5000020027161
222,184,114563,5,10,1:2:0:0:
239,164,114648,1,0,0:0:0:0:
248,187,114734,2,0,P|210:161|205:126,1,52.5000020027161
39,254,114905,5,2,1:3:0:0:
31,235,114990,1,0,0:0:0:0:
49,225,115076,1,8,0:3:0:0:
58,244,115162,1,8,0:3:0:0:
44,239,115248,2,0,B|17:199|39:160|39:160|66:196|42:231,1,140,8|2,1:3|0:1,0:0:0:0:
147,264,115591,5,6,1:2:0:0:
169,117,115763,1,2,0:0:0:0:
303,48,115935,1,8,0:0:0:0:
244,124,116106,1,2,0:0:0:0:
239,212,116277,1,2,1:2:0:0:
464,77,116448,5,8,0:3:0:0:
464,77,116534,1,8,0:3:0:0:
464,77,116620,2,0,B|437:42|389:59|389:59|423:61|444:93,1,122.500001168251,8|2,0:3|0:1,0:0:0:0:
451,349,116963,5,0,1:0:0:0:
466,228,117135,1,0,0:0:0:0:
382,139,117306,1,10,0:0:0:0:
249,134,117478,1,2,0:0:0:0:
373,358,117648,5,2,1:2:0:0:
349,348,117733,1,2,0:2:0:0:
327,345,117819,1,8,0:3:0:0:
303,350,117905,1,8,0:3:0:0:
282,360,117991,2,0,B|315:351|337:385|337:385|314:370|286:379,1,97.9999970092774,8|2,1:3|0:1,0:0:0:0:
52,319,118334,5,10,1:3:0:0:
23,320,118420,1,0,0:0:0:0:
4,339,118505,2,0,P|37:328|70:300,1,52.5000020027161,2|0,0:1|0:0,0:0:0:0:
186,362,118677,5,8,1:3:0:0:
186,362,118763,1,0,0:0:0:0:
186,362,118848,2,0,P|202:331|207:288,1,56,2|0,0:1|0:0,0:0:0:0:
332,254,119020,5,8,1:3:0:0:
332,254,119106,1,0,0:0:0:0:
332,254,119191,2,0,P|322:220|296:185,1,59.5000011348725,2|0,0:1|0:0,0:0:0:0:
362,75,119362,5,8,1:3:0:0:
362,75,119449,1,0,0:0:0:0:
362,75,119534,2,0,P|331:57|288:51,1,62.9999980773926,2|0,0:1|0:0,0:0:0:0:
100,76,119705,5,8,1:3:0:0:
114,97,119791,1,2,0:1:0:0:
105,56,119877,1,8,0:3:0:0:
245,181,120048,5,8,0:3:0:0:
224,215,120133,1,2,0:3:0:0:
238,141,120220,1,8,0:3:0:0:
348,372,120391,5,0,0:0:0:0:
352,362,120477,1,0,0:0:0:0:
353,349,120563,1,8,0:3:0:0:
345,323,120648,1,8,0:3:0:0:
318,300,120734,1,8,0:3:0:0:
276,291,120820,1,0,0:0:0:0:
229,315,120905,1,2,0:1:0:0:
164,317,120991,1,0,0:0:0:0:
133,253,121078,5,4,0:0:0:0:
199,145,132048,38,0,B|221:108|218:37|161:-1|161:-1|138:18|132:43|132:43|118:37|99:13|99:13|74:65|104:139|135:163|135:163|90:110|17:121|-12:151|-12:151|-4:178|26:193|26:193|12:203|-16:215|-16:215|22:250|93:254|131:228|131:228|66:262|63:328|78:364|78:364|110:363|128:343|128:343|135:359|136:388|136:388|191:350|206:296|193:249|193:249|202:315|268:346|308:344|308:344|314:318|303:288|303:288|326:285|351:294|351:294|345:256|292:199|237:197|237:197|308:199|344:162|361:116|361:116|335:99|306:99|306:99|312:78|330:62|330:62|254:64|231:124,1,2083.20005085938,2|0,0:0|0:0,0:0:0:0:
430,296,143020,5,2,0:0:0:0:
358,255,143192,1,0,0:0:0:0:
494,240,143362,1,0,0:0:0:0:
375,172,143533,1,0,0:0:0:0:
459,163,143705,1,0,0:0:0:0:
459,163,144048,1,0,0:0:0:0:
343,352,144392,5,2,0:0:0:0:
266,368,144563,1,0,0:0:0:0:
218,306,144735,1,0,0:0:0:0:
181,319,144906,1,0,0:0:0:0:
82,270,145077,5,0,0:0:0:0:
111,193,145248,1,0,0:0:0:0:
99,112,145419,1,0,0:0:0:0:
42,54,145591,1,0,0:0:0:0:
212,118,145763,5,2,0:0:0:0:
220,29,145935,1,0,0:0:0:0:
294,145,146106,1,0,0:0:0:0:
302,9,146278,1,0,0:0:0:0:
347,79,146449,1,0,0:0:0:0:
347,79,146792,1,0,0:0:0:0:
221,226,147134,5,2,0:0:0:0:
205,205,147219,1,0,0:0:0:0:
177,202,147306,1,0,0:0:0:0:
408,154,147477,5,2,0:0:0:0:
409,129,147562,1,0,0:0:0:0:
423,109,147649,1,0,0:0:0:0:
390,278,147820,5,2,0:0:0:0:
373,303,147905,1,0,0:0:0:0:
343,312,147992,1,0,0:0:0:0:
390,322,148078,1,0,0:0:0:0:
440,301,148163,1,0,0:0:0:0:
469,251,148249,1,0,0:0:0:0:
452,190,148335,1,0,0:0:0:0:
409,141,148420,1,0,0:0:0:0:
405,73,148505,6,0,P|424:37|500:35,1,105.000004005432,2|0,0:0|0:0,0:0:0:0:
504,123,148848,1,0,0:0:0:0:
504,123,149020,1,0,0:0:0:0:
299,171,149192,1,0,0:0:0:0:
299,171,149535,1,0,0:0:0:0:
231,237,149878,5,2,0:0:0:0:
91,188,150049,1,0,0:0:0:0:
232,145,150220,1,0,0:0:0:0:
143,262,150392,1,0,0:0:0:0:
146,114,150563,1,0,0:0:0:0:
146,114,150648,1,0,0:0:0:0:
146,114,150734,1,0,0:0:0:0:
351,339,150906,5,0,0:0:0:0:
416,348,150992,1,0,0:0:0:0:
446,288,151078,1,0,0:0:0:0:
397,242,151163,1,0,0:0:0:0:
338,274,151249,2,0,P|368:309|401:324,1,83.9999974365235,2|0,0:0|0:0,0:0:0:0:
231,237,151592,2,0,P|184:247|154:268,1,83.9999974365235,0|0,0:0|0:0,0:0:0:0:
324,166,151935,2,0,P|337:122|333:85,1,83.9999974365235,0|0,0:0|0:0,0:0:0:0:
169,78,152277,5,0,0:0:0:0:
154,93,152362,1,0,0:0:0:0:
134,101,152448,1,0,0:0:0:0:
114,102,152534,1,0,0:0:0:0:
95,94,152619,5,2,0:0:0:0:
95,94,152706,1,0,0:0:0:0:
95,94,152792,2,0,P|53:103|21:101,1,48.9999985046387
7,199,152963,5,2,0:0:0:0:
7,199,153048,1,0,0:0:0:0:
7,199,153134,2,0,P|35:230|49:260,1,48.9999985046387
141,216,153305,5,2,0:0:0:0:
141,216,153390,1,0,0:0:0:0:
141,216,153477,2,0,P|153:176|172:149,1,48.9999985046387
192,275,153649,5,2,0:0:0:0:
219,299,153735,1,0,0:0:0:0:
227,334,153820,1,2,0:0:0:0:
236,284,153906,1,0,0:0:0:0:
272,241,153992,5,2,0:0:0:0:
327,316,154163,1,0,0:0:0:0:
325,168,154335,1,0,0:0:0:0:
413,287,154505,1,0,0:0:0:0:
413,195,154676,1,0,0:0:0:0:
413,195,155020,1,2,0:1:0:0:
484,165,155363,5,2,0:0:0:0:
497,119,155534,1,0,0:0:0:0:
465,78,155706,1,0,0:0:0:0:
474,27,155877,1,0,0:0:0:0:
336,63,156048,5,0,0:0:0:0:
255,57,156219,1,2,0:1:0:0:
188,102,156390,1,2,0:1:0:0:
132,43,156562,1,2,0:1:0:0:
0,259,156734,5,2,0:0:0:0:
8,170,156906,1,0,0:0:0:0:
82,286,157077,1,0,0:0:0:0:
90,150,157249,1,0,0:0:0:0:
135,220,157420,1,0,0:0:0:0:
135,220,157763,1,2,0:1:0:0:
231,162,158105,5,2,0:0:0:0:
253,174,158190,1,0,0:0:0:0:
263,198,158277,1,0,0:0:0:0:
424,67,158449,5,2,0:0:0:0:
450,40,158534,1,0,0:0:0:0:
451,1,158620,1,0,0:0:0:0:
438,171,158791,5,2,0:0:0:0:
414,190,158876,1,0,0:0:0:0:
384,186,158963,1,0,0:0:0:0:
430,223,159049,1,0,0:0:0:0:
482,222,159134,1,2,0:1:0:0:
497,230,159220,1,0,0:0:0:0:
446,285,159306,1,2,0:1:0:0:
371,277,159391,1,0,0:0:0:0:
355,287,159477,6,0,P|313:287|273:315,1,90.9999958343508,2|0,0:0|0:1,0:0:0:0:
110,254,159820,2,0,P|86:288|82:338,1,90.9999958343508,2|0,0:1|0:0,0:0:0:0:
140,384,160163,1,0,0:0:0:0:
140,384,160505,1,2,0:1:0:0:
230,208,160849,5,2,0:0:0:0:
198,141,161020,1,0,0:0:0:0:
234,71,161192,1,2,0:1:0:0:
234,71,161362,1,0,0:0:0:0:
140,10,161535,1,0,0:0:0:0:
140,10,161620,1,0,0:0:0:0:
140,10,161706,1,0,0:0:0:0:
61,45,161878,5,2,0:1:0:0:
61,45,161963,1,0,0:0:0:0:
61,45,162048,1,0,0:0:0:0:
61,45,162134,1,0,0:0:0:0:
61,45,162220,2,0,P|34:87|-21:111,1,83.9999974365235,2|2,0:0|0:1,0:0:0:0:
163,182,162563,2,0,P|128:204|86:210,1,83.9999974365235,2|0,0:1|0:1,0:0:0:0:
95,344,162905,2,0,P|53:345|15:329,1,83.9999974365235,2|2,0:0|0:1,0:0:0:0:
232,320,163248,5,2,0:1:0:0:
252,324,163334,1,0,0:0:0:0:
271,319,163420,2,0,P|277:297|270:254,1,41.9999987182618,2|0,0:1|0:0,0:0:0:0:
459,151,163591,6,0,P|460:125|473:89,3,52.5000020027161,2|0|0|0,0:0|0:0|0:0|0:0,0:0:0:0:
511,203,163934,2,0,B|508:232|481:243|481:243|488:230|484:203,1,77.0000023498536,2|0,0:0|0:0,0:0:0:0:
404,221,164106,2,0,B|407:191|383:173|383:173|388:188|377:214,1,77.0000023498536
258,207,164277,5,10,0:0:0:0:
190,178,164363,1,8,0:0:0:0:
188,102,164449,1,8,0:0:0:0:
120,73,164535,1,8,0:0:0:0:
91,175,164620,6,0,P|85:157|85:136,1,35,8|8,0:0|0:0,0:0:0:0:
91,175,164705,6,0,P|105:164|126:157,1,35,8|8,0:0|0:0,0:0:0:0:
91,175,164791,6,0,P|105:185|118:203,1,35,8|8,0:0|0:0,0:0:0:0:
91,175,164877,6,0,P|85:192|72:210,1,35,8|8,0:0|0:0,0:0:0:0:
91,175,164963,6,0,P|72:175|52:168,1,33.2499991121292,4|0,1:0|0:0,0:0:0:0:
0,63,165133,1,2,0:0:0:0:
54,279,165305,1,10,0:0:0:0:
64,21,165476,1,0,0:0:0:0:
8,344,165648,2,0,P|47:385|99:382,1,112,0|0,1:0|0:0,0:0:0:0:
260,209,165991,2,0,B|234:166|265:128|265:128|282:160|264:188,1,140,10|0,0:0|0:0,0:0:0:0:
205,313,166334,6,0,P|185:260|128:213,1,105.000004005432,2|0,1:2|0:0,0:0:0:0:
352,190,166677,2,0,P|368:136|429:90,1,105.000004005432,8|0,0:0|0:0,0:0:0:0:
498,106,167020,1,2,1:2:0:0:
424,230,167191,1,0,0:0:0:0:
476,352,167363,1,10,1:2:0:0:
510,195,167534,1,0,1:0:0:0:
480,369,167705,6,0,P|418:376|362:332,1,105.000004005432,2|0,1:2|0:0,0:0:0:0:
273,181,168048,1,10,0:0:0:0:
112,177,168220,1,2,0:0:0:0:
18,305,168391,2,0,P|27:278|16:240,1,52.5000020027161,2|0,1:2|0:0,0:0:0:0:
96,271,168563,2,0,P|121:256|153:259,1,52.5000020027161
174,92,168734,2,0,B|195:50|155:22|155:22|166:52|157:74,1,119.000002269745,8|0,0:2|0:0,0:0:0:0:
32,134,169077,5,2,1:2:0:0:
27,156,169162,1,0,0:0:0:0:
11,173,169248,2,0,P|8:149|34:125,1,45.4999979171754
330,106,169420,5,10,1:2:0:0:
322,85,169505,1,0,0:0:0:0:
306,71,169591,2,0,P|303:95|329:119,1,45.4999979171754
174,215,169763,5,2,1:3:0:0:
155,245,169848,1,0,0:0:0:0:
151,274,169934,2,0,P|150:253|134:222,1,45.4999979171754,8|8,0:3|0:3,0:0:0:0:
151,274,170105,2,0,P|162:256|192:238,1,45.4999979171754,8|0,1:3|0:0,0:0:0:0:
123,373,170277,1,2,0:1:0:0:
277,154,170448,5,6,1:2:0:0:
512,219,170620,1,0,0:0:0:0:
357,283,170792,1,10,0:0:0:0:
455,329,170963,1,2,0:0:0:0:
297,337,171134,2,0,P|245:335|199:360,1,105.000004005432,2|0,1:2|0:0,0:0:0:0:
0,319,171477,2,0,B|12:360|62:361|62:361|31:347|23:311,1,119.000002269745,8|0,0:0|0:0,0:0:0:0:
208,161,171820,5,0,1:0:0:0:
52,111,171992,1,0,0:0:0:0:
209,61,172163,1,10,0:0:0:0:
111,191,172334,1,0,0:0:0:0:
111,28,172506,1,2,1:2:0:0:
111,28,172592,1,2,0:0:0:0:
111,28,172678,1,2,0:0:0:0:
208,238,172848,6,0,P|233:235|257:222,1,52.5000020027161,10|0,1:2|0:0,0:0:0:0:
428,199,173020,2,0,P|401:198|377:188,1,52.5000020027161,2|0,1:2|0:0,0:0:0:0:
296,124,173192,1,2,1:2:0:0:
478,136,173363,5,8,0:3:0:0:
497,43,173534,1,8,1:2:0:0:
478,136,173705,1,8,0:3:0:0:
300,289,173877,5,0,1:0:0:0:
319,378,174048,1,8,0:3:0:0:
300,289,174219,1,8,1:2:0:0:
371,258,174305,1,0,0:0:0:0:
426,312,174391,1,8,0:3:0:0:
397,383,174477,1,0,0:0:0:0:
319,378,174563,5,0,1:0:0:0:
319,378,174649,1,0,0:0:0:0:
319,378,174734,2,0,P|295:363|261:356,1,62.9999980773926,8|0,1:3|0:0,0:0:0:0:
29,274,174906,5,8,1:2:0:0:
29,274,174992,1,0,0:0:0:0:
29,274,175077,2,0,P|53:260|77:234,1,62.9999980773926,8|0,1:3|1:0,0:0:0:0:
143,4,175249,5,0,1:0:0:0:
143,4,175334,1,0,1:0:0:0:
143,4,175420,2,0,P|158:27|167:60,1,62.9999980773926,8|8,1:3|0:3,0:0:0:0:
219,274,175592,5,10,0:3:0:0:
297,312,175677,1,2,0:0:0:0:
362,263,175763,2,0,B|380:241|406:249|406:249|392:253|382:271,1,62.9999980773926,2|0,0:1|0:0,0:0:0:0:
240,172,175934,6,0,P|237:103|273:42,1,132.999996448517,4|2,1:0|0:0,0:0:0:0:
371,5,176277,1,10,0:0:0:0:
379,172,176449,1,0,0:0:0:0:
505,262,176620,1,0,1:0:0:0:
488,145,176791,1,0,0:0:0:0:
444,321,176963,1,10,0:0:0:0:
444,321,177134,1,0,0:0:0:0:
503,73,177305,6,0,P|442:88|411:139,1,112,2|0,1:2|0:0,0:0:0:0:
197,244,177563,1,0,0:0:0:0:
188,230,177648,2,0,P|250:235|289:280,1,112,8|0,0:0|0:0,0:0:0:0:
302,384,177991,1,2,1:2:0:0:
302,384,178162,1,0,0:0:0:0:
291,165,178334,1,10,1:2:0:0:
333,97,178505,1,0,0:0:0:0:
159,337,178677,5,2,1:2:0:0:
51,355,178848,1,0,0:0:0:0:
0,259,179019,1,10,0:0:0:0:
76,181,179190,1,2,0:0:0:0:
174,229,179363,2,0,P|127:264|55:268,1,112,2|0,1:2|0:0,0:0:0:0:
142,94,179620,1,0,0:0:0:0:
151,79,179705,2,0,B|166:39|140:7|140:7|123:32|143:66,1,119.000002269745,8|0,0:0|0:0,0:0:0:0:
253,235,180048,5,2,1:2:0:0:
311,269,180134,1,0,0:0:0:0:
376,259,180220,2,0,P|384:233|376:197,1,56
454,150,180391,1,10,1:2:0:0:
448,81,180476,1,0,0:0:0:0:
498,32,180563,2,0,P|518:60|518:90,1,56
438,307,180734,2,0,P|468:296|483:277,1,56,2|0,1:3|0:0,0:0:0:0:
294,58,180905,5,8,0:3:0:0:
294,58,180991,1,8,0:3:0:0:
294,58,181077,2,0,P|349:25|313:76,1,167.999994873047,8|2,1:3|0:1,0:0:0:0:
126,149,181334,1,0,0:0:0:0:
111,159,181420,6,0,P|174:155|225:98,1,112,6|2,1:2|0:0,0:0:0:0:
49,230,181763,1,8,0:0:0:0:
202,236,181934,1,2,0:0:0:0:
299,353,182105,1,2,1:2:0:0:
512,272,182277,5,8,0:3:0:0:
512,272,182363,1,8,0:3:0:0:
512,272,182449,2,0,P|447:248|492:290,1,189.000000720978,8|2,0:3|0:1,0:0:0:0:
359,369,182705,1,0,0:0:0:0:
370,384,182791,6,0,P|375:333|348:261,1,119.000002269745,0|2,1:0|0:0,0:0:0:0:
380,32,183134,1,8,0:0:0:0:
327,190,183305,1,2,0:0:0:0:
155,231,183477,1,2,1:2:0:0:
54,361,183648,5,10,0:3:0:0:
54,361,183734,1,10,0:3:0:0:
54,361,183820,2,0,P|97:302|42:343,1,203.000006195069,8|2,1:3|0:1,0:0:0:0:
94,162,184163,5,10,1:3:0:0:
94,162,184248,1,0,0:0:0:0:
94,162,184334,2,0,B|101:125|76:103|76:103|62:125|86:155,1,105.000004005432,2|0,0:1|0:0,0:0:0:0:
300,363,184505,5,8,1:3:0:0:
300,363,184590,1,0,0:0:0:0:
300,363,184677,2,0,B|324:390|357:384|357:384|347:359|309:360,1,105.000004005432,2|0,0:1|0:0,0:0:0:0:
234,124,184848,5,8,1:3:0:0:
234,124,184933,1,0,0:0:0:0:
234,124,185020,2,0,B|261:99|254:66|254:66|230:76|231:114,1,105.000004005432,2|0,0:1|0:0,0:0:0:0:
337,231,185191,5,8,1:3:0:0:
337,231,185276,1,0,0:0:0:0:
337,231,185363,2,0,B|373:235|393:209|393:209|370:197|342:223,1,105.000004005432,2|0,0:1|0:0,0:0:0:0:
136,350,185534,6,0,P|78:322|17:326,1,125.999996154785,10|2,1:3|0:3,0:0:0:0:
11,338,185963,1,2,0:1:0:0:
26,342,186048,1,2,0:3:0:0:
4,236,186220,5,2,0:0:0:0:
4,236,186305,1,0,0:0:0:0:
4,236,186391,2,0,B|-12:225|-6:201|-6:201|-1:217|24:225,1,52.5000020027161
203,316,186563,5,2,0:0:0:0:
225,322,186648,1,0,0:0:0:0:
255,308,186735,1,2,0:1:0:0:
281,253,186820,1,0,0:0:0:0:
353,225,186905,1,6,0:0:0:0:
