osu file format v12

[General]
AudioFilename: sakura.mp3
AudioLeadIn: 0
PreviewTime: 99144
Countdown: 0
SampleSet: Soft
StackLeniency: 0.2
Mode: 0
LetterboxInBreaks: 1
WidescreenStoryboard: 0

[Editor]
DistanceSpacing: 1
BeatDivisor: 4
GridSize: 8
TimelineZoom: 2

[Metadata]
Title:Izayoi Sakura
TitleUnicode:十六夜桜
Artist:Kozato snow
ArtistUnicode:Kozato snow
Creator:Melt
Version:Insane
Source:
Tags:OblivioN yukinohara
BeatmapID:396105
BeatmapSetID:162371

[Difficulty]
HPDrainRate:6
CircleSize:4
OverallDifficulty:7
ApproachRate:9
SliderMultiplier:1.7
SliderTickRate:1

[Events]
//Background and Video events
0,0,"BG-1.jpg",0,0
//Break Periods
2,121287,131459
2,132259,142430
//Storyboard Layer 0 (Background)
//Storyboard Layer 1 (Fail)
//Storyboard Layer 2 (Pass)
//Storyboard Layer 3 (Foreground)
//Storyboard Sound Samples
//Background Colour Transformations
3,100,163,162,255

[TimingPoints]
402,342.857142857143,4,2,1,20,1,0
11373,-133.333333333333,4,2,1,20,0,0
22002,-100,4,2,1,40,0,0
22344,-100,4,2,1,25,0,0
22516,-100,4,2,1,40,0,0
33316,-100,4,2,2,30,0,0
33402,-100,4,2,1,40,0,0
44287,-100,4,2,1,30,0,0
44544,-100,4,2,1,40,0,0
52859,-83.3333333333333,4,2,1,40,0,0
53202,-71.4285714285714,4,2,1,40,0,0
53544,-62.5,4,2,1,40,0,0
53802,-100,4,2,1,40,0,0
54573,-55.5555555555556,4,2,1,45,0,0
54916,-55.5555555555556,4,2,2,45,0,0
55259,-166.666666666667,4,2,1,25,0,0
55602,-166.666666666667,4,2,1,15,0,0
66230,-133.333333333333,4,2,1,20,0,0
66573,-133.333333333333,4,2,4,25,0,0
66916,-133.333333333333,4,2,4,15,0,0
67259,-133.333333333333,4,2,4,25,0,0
69659,-133.333333333333,4,2,4,15,0,0
69830,-133.333333333333,4,2,4,25,0,0
72402,-133.333333333333,4,2,4,15,0,0
72744,-133.333333333333,4,2,4,25,0,0
75144,-133.333333333333,4,2,4,15,0,0
75316,-133.333333333333,4,2,4,25,0,0
76859,-76.9230769230769,4,2,2,35,0,0
77202,-100,4,2,1,25,0,0
77373,-100,4,2,1,35,0,0
87487,-100,4,2,1,40,0,0
88173,-117.647058823529,4,2,1,30,0,0
93659,-117.647058823529,4,2,4,30,0,0
94344,-117.647058823529,4,2,4,20,0,0
94687,-117.647058823529,4,2,4,30,0,0
95716,-117.647058823529,4,2,4,20,0,0
95887,-117.647058823529,4,2,4,30,0,0
97087,-117.647058823529,4,2,4,20,0,0
97173,-117.647058823529,4,2,4,30,0,0
98802,-117.647058823529,4,2,1,40,0,0
98973,-117.647058823529,4,2,2,40,0,0
99059,-117.647058823529,4,2,1,40,0,0
99144,-86.9565217391304,4,2,1,35,0,1
99316,-86.9565217391304,4,2,1,50,0,1
104459,-86.9565217391304,4,2,2,50,0,1
104544,-86.9565217391304,4,2,1,50,0,1
107373,-86.9565217391304,4,2,2,50,0,1
110030,-86.9565217391304,4,2,1,50,0,0
110116,-86.9565217391304,4,2,1,35,0,1
110287,-86.9565217391304,4,2,1,50,0,1
115430,-86.9565217391304,4,2,2,50,0,1
115516,-86.9565217391304,4,2,1,50,0,1
118002,-86.9565217391304,4,2,2,50,0,1
121087,-100,4,2,3,40,0,0
132059,-100,4,2,3,20,0,0
143030,-117.647058823529,4,2,1,30,0,0
164287,-117.647058823529,4,2,1,35,0,0
164630,-117.647058823529,4,2,1,40,0,0
164973,-86.9565217391304,4,2,1,35,0,1
165144,-86.9565217391304,4,2,1,50,0,1
170287,-86.9565217391304,4,2,2,50,0,1
170373,-86.9565217391304,4,2,1,50,0,1
173202,-86.9565217391304,4,2,2,50,0,1
175859,-86.9565217391304,4,2,1,50,0,0
175944,-86.9565217391304,4,2,1,35,0,1
176116,-86.9565217391304,4,2,1,50,0,1
181259,-86.9565217391304,4,2,2,50,0,1
181344,-86.9565217391304,4,2,1,50,0,1
184002,-86.9565217391304,4,2,2,50,0,1
186916,-100,4,2,3,50,0,0

[Colours]
Combo1 : 255,215,255
Combo2 : 253,151,253
Combo3 : 245,245,245
Combo4 : 255,85,255
SliderBorder : 250,207,250

[HitObjects]
120,88,11373,5,0,0:0:0:0:
304,106,11716,1,0,0:0:0:0:
199,256,12059,1,0,0:0:0:0:
147,53,12402,1,0,0:0:0:0:
182,49,12573,1,0,0:0:0:0:
217,45,12744,5,0,0:0:0:0:
339,150,13087,1,0,0:0:0:0:
160,210,13430,1,0,0:0:0:0:
327,292,13773,1,0,0:0:0:0:
448,235,14116,5,0,0:0:0:0:
308,176,14459,1,0,0:0:0:0:
327,331,14802,1,0,0:0:0:0:
448,235,15144,1,0,0:0:0:0:
454,201,15316,1,0,0:0:0:0:
461,167,15487,5,0,0:0:0:0:
377,48,15830,1,0,0:0:0:0:
308,176,16173,1,0,0:0:0:0:
461,167,16516,1,0,0:0:0:0:
264,251,16859,5,0,0:0:0:0:
111,260,17202,1,0,0:0:0:0:
191,332,17544,1,0,0:0:0:0:
11,177,17887,1,0,0:0:0:0:
9,211,18059,1,0,0:0:0:0:
7,244,18230,5,0,0:0:0:0:
71,106,18573,1,0,0:0:0:0:
185,205,18916,1,0,0:0:0:0:
5,278,19259,1,0,0:0:0:0:
219,286,19601,5,0,0:0:0:0:
44,199,19944,1,0,0:0:0:0:
135,26,20287,1,0,0:0:0:0:
251,251,20630,1,0,0:0:0:0:
284,257,20802,1,0,0:0:0:0:
317,263,20973,5,0,0:0:0:0:
193,152,21316,1,0,0:0:0:0:
329,69,21659,1,0,0:0:0:0:
359,193,21830,1,0,0:0:0:0:
408,117,22002,2,0,L|468:121,2,42.5
281,148,22344,5,4,0:0:0:0:
211,220,22516,1,0,0:0:0:0:
119,175,22687,1,8,0:0:0:0:
134,74,22859,1,0,0:0:0:0:
234,57,23030,1,0,0:0:0:0:
250,59,23373,1,8,0:0:0:0:
119,175,23716,5,0,0:0:0:0:
172,261,23887,1,0,0:0:0:0:
107,339,24059,1,8,0:0:0:0:
10,301,24230,1,0,0:0:0:0:
19,200,24402,1,0,0:0:0:0:
107,339,24573,1,0,0:0:0:0:
119,175,24744,1,8,0:0:0:0:
10,301,24916,1,0,0:0:0:0:
172,261,25087,6,0,P|214:252|263:274,1,85
321,342,25430,2,0,P|362:351|401:337,1,85,8|0,0:0|0:0,0:0:0:0:
494,293,25773,1,0,0:0:0:0:
506,301,26116,1,8,0:0:0:0:
376,211,26459,5,0,0:0:0:0:
372,177,26544,1,0,0:0:0:0:
368,143,26630,1,0,0:0:0:0:
474,0,26802,1,8,0:0:0:0:
470,34,26887,1,0,0:0:0:0:
466,68,26973,1,0,0:0:0:0:
272,67,27144,1,0,0:0:0:0:
250,92,27229,1,0,0:0:0:0:
221,110,27315,1,0,0:0:0:0:
188,117,27401,1,0,0:0:0:0:
154,114,27486,1,8,0:0:0:0:
123,100,27572,1,0,0:0:0:0:
98,77,27658,1,0,0:0:0:0:
82,48,27744,1,0,0:0:0:0:
80,13,27830,6,0,P|37:6|-9:24,2,85,0|0|8,0:0|0:0|0:0,0:0:0:0:
182,18,28344,1,0,0:0:0:0:
272,67,28516,1,0,0:0:0:0:
48,128,28859,1,8,0:0:0:0:
272,67,29202,5,0,0:0:0:0:
286,167,29373,1,0,0:0:0:0:
301,268,29544,1,8,0:0:0:0:
315,369,29716,1,0,0:0:0:0:
331,269,29887,1,0,0:0:0:0:
365,269,29973,1,0,0:0:0:0:
399,268,30059,1,0,0:0:0:0:
223,100,30230,1,8,0:0:0:0:
202,127,30316,1,0,0:0:0:0:
194,160,30402,1,0,0:0:0:0:
197,193,30487,1,0,0:0:0:0:
214,223,30573,5,0,0:0:0:0:
301,268,30744,1,0,0:0:0:0:
142,271,30916,1,8,0:0:0:0:
160,373,31087,1,0,0:0:0:0:
57,252,31259,1,0,0:0:0:0:
0,338,31430,1,0,0:0:0:0:
9,161,31602,1,8,0:0:0:0:
7,127,31687,1,0,0:0:0:0:
5,92,31773,1,0,0:0:0:0:
116,25,31944,6,0,L|110:67,2,42.5
214,223,32287,2,0,L|207:180,2,42.5,8|0|0,0:0|0:0|0:0,0:0:0:0:
342,5,32630,2,0,L|336:47,3,42.5
342,89,32973,1,8,0:0:0:0:
359,127,33058,1,0,0:0:0:0:
392,153,33144,1,0,0:0:0:0:
434,161,33230,1,0,0:0:0:0:
474,150,33316,6,0,P|466:176|493:246,1,85,6|0,0:0|0:0,0:0:0:0:
504,264,33573,1,0,0:0:0:0:
492,305,33659,1,8,0:0:0:0:
400,350,33830,1,0,0:0:0:0:
308,303,34002,2,0,B|293:300|293:300|240:317|240:317|226:314,1,85
124,334,34344,1,8,0:0:0:0:
154,236,34516,1,0,0:0:0:0:
105,146,34687,5,0,0:0:0:0:
3,134,34859,1,0,0:0:0:0:
105,146,35030,1,8,0:0:0:0:
65,51,35202,1,0,0:0:0:0:
3,134,35373,2,0,L|10:231,1,85
124,334,35716,2,0,L|131:237,1,85,8|0,0:0|0:0,0:0:0:0:
227,172,36059,5,0,0:0:0:0:
263,56,36230,1,0,0:0:0:0:
295,65,36316,1,0,0:0:0:0:
327,74,36402,1,8,0:0:0:0:
427,60,36573,1,0,0:0:0:0:
263,56,36744,1,0,0:0:0:0:
164,84,36916,1,0,0:0:0:0:
389,159,37087,1,8,0:0:0:0:
485,191,37259,1,0,0:0:0:0:
322,122,37430,6,0,P|312:168|338:215,1,85
365,356,37773,2,0,P|375:310|349:263,1,85,8|0,0:0|0:0,0:0:0:0:
389,159,38116,1,0,0:0:0:0:
461,230,38287,1,0,0:0:0:0:
302,318,38459,1,8,0:0:0:0:
282,218,38630,1,0,0:0:0:0:
206,287,38802,5,0,0:0:0:0:
93,344,38973,1,0,0:0:0:0:
90,301,39059,1,0,0:0:0:0:
87,258,39144,1,8,0:0:0:0:
8,194,39316,1,0,0:0:0:0:
70,113,39487,2,0,P|111:126|170:113,1,85
233,58,39830,2,0,P|278:52|335:73,1,85,8|0,0:0|0:0,0:0:0:0:
391,130,40173,5,0,0:0:0:0:
358,244,40344,1,0,0:0:0:0:
318,132,40516,1,8,0:0:0:0:
416,198,40687,1,0,0:0:0:0:
296,203,40859,1,0,0:0:0:0:
263,317,41030,1,0,0:0:0:0:
358,244,41202,1,8,0:0:0:0:
239,249,41373,1,0,0:0:0:0:
337,315,41544,5,0,0:0:0:0:
416,198,41716,2,0,L|483:209,2,42.5,0|0|8,0:0|0:0|0:0,0:0:0:0:
239,249,42059,1,0,0:0:0:0:
318,132,42230,1,0,0:0:0:0:
403,20,42402,2,0,L|444:10,2,42.5,0|0|8,0:0|0:0|0:0,0:0:0:0:
262,16,42744,1,0,0:0:0:0:
139,78,42916,6,0,L|150:186,1,85
90,356,43259,2,0,L|81:271,1,85,8|0,0:0|0:0,0:0:0:0:
57,38,43602,2,0,L|68:146,1,85
8,316,43945,2,0,L|0:231,1,85,8|0,0:0|0:0,0:0:0:0:
66,123,44287,6,0,P|134:102|199:141,1,127.5,4|0,0:0|0:0,0:0:0:0:
212,165,44630,2,0,L|201:259,1,85,8|0,0:0|0:0,0:0:0:0:
99,248,44973,1,0,0:0:0:0:
82,348,45144,1,0,0:0:0:0:
314,209,45316,1,8,0:0:0:0:
295,308,45487,1,0,0:0:0:0:
385,357,45659,5,0,0:0:0:0:
458,286,45830,1,0,0:0:0:0:
415,193,46002,2,0,P|402:149|428:93,1,85,8|0,0:0|0:0,0:0:0:0:
492,49,46345,1,0,0:0:0:0:
479,150,46516,1,0,0:0:0:0:
314,209,46688,1,8,0:0:0:0:
293,109,46859,1,0,0:0:0:0:
205,57,47030,6,0,P|136:74|82:39,1,127.5
59,6,47373,2,0,L|59:118,1,85,8|0,0:0|0:0,0:0:0:0:
1,175,47716,1,0,0:0:0:0:
21,274,47887,1,0,0:0:0:0:
191,230,48059,1,8,0:0:0:0:
206,331,48230,1,0,0:0:0:0:
285,269,48402,5,0,0:0:0:0:
191,230,48573,1,0,0:0:0:0:
198,128,48744,1,8,0:0:0:0:
297,105,48916,1,0,0:0:0:0:
350,191,49087,1,0,0:0:0:0:
449,169,49259,1,0,0:0:0:0:
457,67,49431,1,8,0:0:0:0:
363,27,49602,1,0,0:0:0:0:
297,105,49773,6,0,P|234:123|157:78,1,127.5
146,61,50116,2,0,L|138:160,1,85,8|0,0:0|0:0,0:0:0:0:
59,209,50459,2,0,L|52:293,2,85,0|0|8,0:0|0:0|0:0,0:0:0:0:
139,146,50973,1,0,0:0:0:0:
154,246,51144,5,0,0:0:0:0:
195,337,51316,1,0,0:0:0:0:
230,177,51487,1,8,0:0:0:0:
297,329,51659,1,0,0:0:0:0:
319,228,51830,1,0,0:0:0:0:
195,337,52002,1,0,0:0:0:0:
230,177,52173,1,8,0:0:0:0:
297,329,52344,1,0,0:0:0:0:
154,246,52516,6,0,L|106:244,3,42.5
35,171,52859,6,0,L|85:174,3,50.9999984436036,8|0|0|0,0:0|0:0|0:0|0:0,0:0:0:0:
136,101,53202,6,0,L|77:98,3,59.4999981842042
171,23,53544,6,0,L|239:26,3,68,8|0|0|0,0:0|0:0|0:0|0:0,0:0:0:0:
277,28,53887,5,0,0:0:0:0:
250,54,53972,1,0,0:0:0:0:
231,87,54058,1,0,0:0:0:0:
225,125,54144,1,0,0:0:0:0:
228,164,54229,5,8,0:0:0:0:
244,198,54315,1,0,0:0:0:0:
269,226,54401,1,0,0:0:0:0:
300,248,54486,1,0,0:0:0:0:
338,251,54573,6,0,L|422:258,3,76.4999976654053
448,343,54916,2,0,L|295:330,1,152.999995330811,8|2,0:0|0:0,0:0:0:0:
188,320,55259,5,6,0:0:0:0:
56,241,55602,2,0,L|62:178,2,50.9999984436036
72,88,56287,1,0,0:0:0:0:
220,123,56630,21,2,0:0:0:0:
244,50,56802,1,0,0:0:0:0:
320,50,56973,1,0,0:0:0:0:
344,123,57144,1,0,0:0:0:0:
282,168,57316,1,2,0:0:0:0:
305,241,57487,1,0,0:0:0:0:
382,241,57659,1,0,0:0:0:0:
405,168,57830,1,0,0:0:0:0:
382,241,58002,22,0,P|372:292|415:352,1,101.999996887207,2|0,0:0|0:0,0:0:0:0:
477,208,58687,2,0,P|487:157|444:97,1,101.999996887207
320,49,59373,21,2,0:0:0:0:
315,125,59544,1,0,0:0:0:0:
242,145,59716,1,0,0:0:0:0:
200,81,59887,1,0,0:0:0:0:
248,21,60059,1,2,0:0:0:0:
242,145,60230,2,0,L|232:191,2,25.4999992218018
200,81,60573,1,0,0:0:0:0:
126,99,60744,21,2,0:0:0:0:
7,196,61087,2,0,L|1:267,2,50.9999984436036
0,59,61773,1,0,0:0:0:0:
105,169,62116,21,2,0:0:0:0:
179,149,62287,1,0,0:0:0:0:
220,213,62459,1,0,0:0:0:0:
172,273,62630,1,0,0:0:0:0:
101,245,62802,1,2,0:0:0:0:
220,213,62973,2,0,L|265:216,2,25.4999992218018
172,273,63316,1,0,0:0:0:0:
247,286,63487,22,0,L|254:352,1,50.9999984436036,2|0,0:0|0:0,0:0:0:0:
328,349,63830,2,0,L|322:298,1,50.9999984436036
377,244,64173,1,2,0:0:0:0:
510,290,64344,2,0,L|515:335,2,25.4999992218018
454,235,64687,1,0,0:0:0:0:
408,154,64859,21,2,0:0:0:0:
422,62,65030,1,0,0:0:0:0:
317,168,65202,1,0,0:0:0:0:
340,21,65373,1,0,0:0:0:0:
275,85,65544,2,0,P|231:67|176:82,1,101.999996887207,2|0,0:0|0:0,0:0:0:0:
80,196,66230,21,6,0:0:0:0:
224,144,66573,1,0,0:0:0:0:
216,232,66744,1,0,0:0:0:0:
208,321,66916,1,4,0:0:0:0:
217,333,67259,1,0,0:0:0:0:
224,144,67602,21,2,0:0:0:0:
232,55,67773,1,0,0:0:0:0:
320,37,67944,1,0,0:0:0:0:
364,113,68116,1,0,0:0:0:0:
304,180,68287,1,2,0:0:0:0:
232,55,68459,1,0,0:0:0:0:
320,37,68630,1,0,0:0:0:0:
224,144,68802,1,0,0:0:0:0:
364,113,68973,22,0,P|415:96|484:126,1,127.500004863739,2|0,0:0|0:0,0:0:0:0:
467,292,69659,2,0,P|416:309|347:279,1,127.500004863739,4|0,0:0|0:0,0:0:0:0:
171,284,70344,21,2,0:0:0:0:
116,354,70516,1,0,0:0:0:0:
32,324,70687,1,0,0:0:0:0:
35,234,70859,1,0,0:0:0:0:
121,209,71030,1,2,0:0:0:0:
58,144,71202,1,0,0:0:0:0:
62,128,71287,1,0,0:0:0:0:
67,112,71373,1,0,0:0:0:0:
20,36,71544,1,0,0:0:0:0:
102,1,71716,21,2,0:0:0:0:
278,30,72059,1,0,0:0:0:0:
365,44,72230,1,0,0:0:0:0:
453,57,72402,1,4,0:0:0:0:
469,52,72744,1,0,0:0:0:0:
381,203,73087,21,2,0:0:0:0:
466,231,73259,1,0,0:0:0:0:
466,320,73430,1,0,0:0:0:0:
381,348,73602,1,0,0:0:0:0:
329,276,73773,1,2,0:0:0:0:
256,224,73944,1,0,0:0:0:0:
256,208,74030,1,0,0:0:0:0:
256,192,74116,1,0,0:0:0:0:
256,104,74287,1,0,0:0:0:0:
176,62,74459,21,2,0:0:0:0:
134,140,74631,1,0,0:0:0:0:
46,125,74802,1,0,0:0:0:0:
33,36,74974,1,0,0:0:0:0:
113,0,75145,1,6,0:0:0:0:
134,140,75316,1,0,0:0:0:0:
136,155,75402,1,0,0:0:0:0:
137,170,75487,1,0,0:0:0:0:
113,256,75659,1,0,0:0:0:0:
213,377,75830,21,2,0:0:0:0:
237,291,76002,1,0,0:0:0:0:
311,116,76173,1,0,0:0:0:0:
335,202,76345,1,0,0:0:0:0:
431,315,76516,1,2,0:0:0:0:
431,315,76859,38,0,P|454:251|420:196,1,110.499994941712,0|2,0:0|0:0,0:0:0:0:
446,112,77202,21,4,0:0:0:0:
356,70,77373,1,0,0:0:0:0:
337,174,77544,1,8,0:0:0:0:
248,20,77716,1,0,0:0:0:0:
211,233,77887,1,0,0:0:0:0:
99,192,78059,1,0,0:0:0:0:
104,150,78144,1,0,0:0:0:0:
109,107,78230,1,8,0:0:0:0:
6,61,78402,1,0,0:0:0:0:
109,107,78573,5,0,0:0:0:0:
248,20,78744,1,0,0:0:0:0:
147,11,78916,1,8,0:0:0:0:
271,120,79087,1,0,0:0:0:0:
248,20,79259,1,0,0:0:0:0:
184,172,79430,1,0,0:0:0:0:
271,120,79602,1,8,0:0:0:0:
109,107,79773,1,0,0:0:0:0:
13,207,79944,6,0,L|27:311,1,85
123,333,80287,2,0,L|111:248,1,85,8|0,0:0|0:0,0:0:0:0:
184,172,80630,1,0,0:0:0:0:
270,252,80802,2,0,L|264:315,2,42.5,0|0|8,0:0|0:0|0:0,0:0:0:0:
360,158,81144,2,0,L|353:113,2,42.5
460,261,81487,5,0,0:0:0:0:
498,123,81659,1,8,0:0:0:0:
360,158,81830,1,0,0:0:0:0:
460,261,82002,1,0,0:0:0:0:
465,294,82087,1,0,0:0:0:0:
471,327,82173,1,0,0:0:0:0:
319,370,82344,1,8,0:0:0:0:
321,335,82430,1,0,0:0:0:0:
324,301,82516,1,0,0:0:0:0:
360,158,82687,5,0,0:0:0:0:
322,178,82772,1,0,0:0:0:0:
280,181,82858,1,0,0:0:0:0:
241,167,82944,1,0,0:0:0:0:
210,138,83029,1,8,0:0:0:0:
150,36,83202,1,0,0:0:0:0:
126,45,83287,1,0,0:0:0:0:
102,54,83373,2,0,L|95:163,1,85
157,324,83716,2,0,L|164:215,1,85,8|0,0:0|0:0,0:0:0:0:
97,139,84059,5,0,0:0:0:0:
163,239,84230,1,0,0:0:0:0:
22,180,84402,1,8,0:0:0:0:
238,198,84573,1,0,0:0:0:0:
281,42,84744,1,0,0:0:0:0:
314,68,84829,1,0,0:0:0:0:
354,80,84915,1,0,0:0:0:0:
397,74,85001,1,0,0:0:0:0:
433,52,85087,1,8,0:0:0:0:
431,94,85172,1,0,0:0:0:0:
429,136,85258,1,0,0:0:0:0:
427,179,85344,1,0,0:0:0:0:
425,221,85430,5,0,0:0:0:0:
435,359,85602,1,0,0:0:0:0:
346,253,85773,1,8,0:0:0:0:
480,286,85944,1,0,0:0:0:0:
352,338,86116,1,0,0:0:0:0:
219,306,86287,1,0,0:0:0:0:
346,253,86459,1,8,0:0:0:0:
274,370,86630,1,0,0:0:0:0:
264,233,86802,5,0,0:0:0:0:
246,215,86887,1,0,0:0:0:0:
225,201,86973,1,0,0:0:0:0:
201,192,87059,1,0,0:0:0:0:
176,188,87144,1,8,0:0:0:0:
150,190,87230,1,0,0:0:0:0:
126,198,87316,1,0,0:0:0:0:
104,210,87402,1,0,0:0:0:0:
63,269,87487,5,0,0:0:0:0:
60,243,87572,1,0,0:0:0:0:
58,218,87658,1,0,0:0:0:0:
55,192,87744,1,0,0:0:0:0:
53,167,87829,1,8,0:0:0:0:
50,142,87915,1,0,0:0:0:0:
48,116,88001,1,0,0:0:0:0:
45,91,88087,1,0,0:0:0:0:
43,65,88173,5,6,0:0:0:0:
162,1,88344,1,0,0:0:0:0:
179,168,88516,1,0,0:0:0:0:
220,41,88687,1,0,0:0:0:0:
333,168,88859,1,2,0:0:0:0:
292,41,89030,1,0,0:0:0:0:
469,65,89202,1,0,0:0:0:0:
350,0,89373,1,0,0:0:0:0:
268,121,89544,5,2,0:0:0:0:
358,244,89716,1,0,0:0:0:0:
413,168,89887,1,0,0:0:0:0:
268,214,90059,1,0,0:0:0:0:
358,92,90230,1,2,0:0:0:0:
358,244,90402,2,0,L|352:309,2,36.1250006890297
487,272,90744,2,0,L|493:337,2,36.1250006890297,0|0|2,0:0|0:0|0:0,0:0:0:0:
512,165,91087,5,0,0:0:0:0:
487,59,91259,1,0,0:0:0:0:
378,53,91431,1,0,0:0:0:0:
336,153,91602,2,0,L|343:215,2,36.1250006890297,2|0|0,0:0|0:0|0:0,0:0:0:0:
220,50,91944,2,0,L|227:-12,2,36.1250006890297
130,181,92287,5,2,0:0:0:0:
135,205,92373,1,0,0:0:0:0:
140,229,92459,1,0,0:0:0:0:
0,86,92630,1,2,0:0:0:0:
2,129,92716,1,0,0:0:0:0:
5,172,92802,1,0,0:0:0:0:
43,279,92973,1,2,0:0:0:0:
75,263,93058,1,0,0:0:0:0:
110,255,93144,1,0,0:0:0:0:
146,255,93230,1,0,0:0:0:0:
182,263,93315,1,2,0:0:0:0:
214,278,93401,1,0,0:0:0:0:
242,301,93487,1,2,0:0:0:0:
277,306,93573,1,0,0:0:0:0:
313,310,93659,5,2,0:0:0:0:
412,182,93830,1,0,0:0:0:0:
407,345,94002,1,0,0:0:0:0:
317,208,94173,1,0,0:0:0:0:
467,267,94344,1,6,0:0:0:0:
483,273,94687,1,0,0:0:0:0:
317,208,95030,5,2,0:0:0:0:
180,174,95202,1,0,0:0:0:0:
309,121,95373,1,0,0:0:0:0:
236,240,95544,1,0,0:0:0:0:
226,99,95716,1,6,0:0:0:0:
317,208,95887,1,0,0:0:0:0:
384,29,96059,2,0,L|377:65,3,36.1250006890297
399,93,96402,5,2,0:0:0:0:
424,118,96487,1,0,0:0:0:0:
438,151,96573,1,0,0:0:0:0:
437,187,96659,1,0,0:0:0:0:
422,220,96744,1,0,0:0:0:0:
422,220,96916,1,0,0:0:0:0:
329,384,97087,1,6,0:0:0:0:
303,358,97172,1,0,0:0:0:0:
289,325,97258,1,0,0:0:0:0:
290,289,97344,1,0,0:0:0:0:
305,256,97430,1,0,0:0:0:0:
305,256,97602,1,0,0:0:0:0:
241,0,97773,5,2,0:0:0:0:
221,106,97944,1,0,0:0:0:0:
201,213,98115,1,2,0:0:0:0:
181,319,98287,1,0,0:0:0:0:
56,361,98459,1,2,0:0:0:0:
53,324,98544,1,0,0:0:0:0:
50,288,98630,1,2,0:0:0:0:
32,172,98802,1,2,0:0:0:0:
5,139,98887,1,0,0:0:0:0:
0,96,98973,1,10,0:0:0:0:
15,56,99059,1,0,0:0:0:0:
48,29,99144,21,4,0:0:0:0:
222,6,99316,1,0,0:0:0:0:
85,105,99487,1,8,0:0:0:0:
208,88,99659,1,0,0:0:0:0:
312,157,99830,1,0,0:0:0:0:
327,153,100173,1,8,0:0:0:0:
338,267,100516,5,0,0:0:0:0:
208,225,100687,1,0,0:0:0:0:
208,88,100859,1,8,0:0:0:0:
338,45,101030,1,0,0:0:0:0:
418,156,101202,1,0,0:0:0:0:
208,225,101373,1,0,0:0:0:0:
338,45,101544,1,8,0:0:0:0:
338,267,101716,1,0,0:0:0:0:
208,88,101887,5,0,0:0:0:0:
56,39,102059,1,0,0:0:0:0:
149,167,102230,1,8,0:0:0:0:
150,8,102402,1,0,0:0:0:0:
57,135,102573,1,0,0:0:0:0:
37,132,102916,1,8,0:0:0:0:
82,310,103259,5,0,0:0:0:0:
120,315,103344,1,0,0:0:0:0:
158,320,103430,1,0,0:0:0:0:
265,244,103602,1,8,0:0:0:0:
303,249,103687,1,0,0:0:0:0:
341,254,103773,1,0,0:0:0:0:
507,357,103944,5,0,0:0:0:0:
476,332,104029,1,0,0:0:0:0:
453,301,104115,1,0,0:0:0:0:
438,265,104201,1,0,0:0:0:0:
433,226,104286,1,8,0:0:0:0:
437,188,104372,1,0,0:0:0:0:
451,151,104458,1,2,0:0:0:0:
474,120,104544,1,0,0:0:0:0:
504,95,104629,5,0,0:0:0:0:
358,50,104802,1,0,0:0:0:0:
504,95,104973,1,8,0:0:0:0:
324,127,105144,1,0,0:0:0:0:
438,265,105316,1,0,0:0:0:0:
450,277,105659,1,8,0:0:0:0:
218,152,106002,5,0,0:0:0:0:
138,41,106173,1,0,0:0:0:0:
7,83,106345,1,8,0:0:0:0:
7,220,106516,1,0,0:0:0:0:
138,263,106687,1,0,0:0:0:0:
134,302,106773,1,0,0:0:0:0:
131,341,106859,1,0,0:0:0:0:
307,379,107030,1,8,0:0:0:0:
303,339,107116,1,0,0:0:0:0:
300,299,107202,1,0,0:0:0:0:
328,93,107373,5,0,0:0:0:0:
338,189,107544,1,2,0:0:0:0:
490,152,107716,1,8,0:0:0:0:
479,248,107887,1,2,0:0:0:0:
170,134,108059,1,0,0:0:0:0:
164,231,108230,1,2,0:0:0:0:
10,71,108402,1,8,0:0:0:0:
14,109,108487,1,0,0:0:0:0:
19,147,108573,1,2,0:0:0:0:
35,296,108744,6,0,L|31:344,2,48.8750009322167,0|2|0,0:0|0:0|0:0,0:0:0:0:
226,333,109087,2,0,L|230:383,2,48.8750009322167,8|2|0,0:0|0:0|0:0,0:0:0:0:
427,281,109430,2,0,L|408:237,3,48.8750009322167
358,236,109773,1,8,0:0:0:0:
325,199,109858,1,0,0:0:0:0:
315,152,109944,1,2,0:0:0:0:
328,106,110030,1,0,0:0:0:0:
362,71,110115,5,4,0:0:0:0:
487,46,110288,1,0,0:0:0:0:
309,8,110459,1,8,0:0:0:0:
184,33,110630,1,0,0:0:0:0:
61,4,110802,1,0,0:0:0:0:
55,21,111145,1,8,0:0:0:0:
307,95,111487,5,0,0:0:0:0:
456,144,111659,1,0,0:0:0:0:
307,349,111830,1,8,0:0:0:0:
216,222,112002,1,0,0:0:0:0:
456,144,112173,1,0,0:0:0:0:
456,300,112344,1,0,0:0:0:0:
216,222,112516,1,8,0:0:0:0:
307,95,112687,1,0,0:0:0:0:
242,301,112859,5,0,0:0:0:0:
242,142,113030,1,0,0:0:0:0:
149,270,113202,1,8,0:0:0:0:
299,221,113373,1,0,0:0:0:0:
149,173,113544,1,0,0:0:0:0:
130,176,113888,1,8,0:0:0:0:
54,7,114230,5,0,0:0:0:0:
45,44,114316,1,0,0:0:0:0:
37,82,114402,1,0,0:0:0:0:
138,255,114574,1,8,0:0:0:0:
134,216,114659,1,0,0:0:0:0:
130,176,114745,1,0,0:0:0:0:
212,42,114916,5,0,0:0:0:0:
233,74,115001,1,0,0:0:0:0:
261,101,115087,1,0,0:0:0:0:
295,121,115173,1,0,0:0:0:0:
332,132,115258,1,8,0:0:0:0:
371,134,115344,1,0,0:0:0:0:
409,127,115430,1,2,0:0:0:0:
445,112,115516,1,0,0:0:0:0:
477,89,115602,6,0,B|486:163|486:163|466:205,2,97.7500018644333,0|0|8,0:0|0:0|0:0,0:0:0:0:
354,5,116116,1,0,0:0:0:0:
212,42,116288,1,0,0:0:0:0:
216,60,116631,1,8,0:0:0:0:
387,228,116973,5,0,0:0:0:0:
200,191,117144,1,0,0:0:0:0:
329,329,117316,1,8,0:0:0:0:
306,142,117487,1,0,0:0:0:0:
214,307,117659,1,0,0:0:0:0:
175,311,117745,1,0,0:0:0:0:
135,314,117831,1,0,0:0:0:0:
28,180,118002,1,8,0:0:0:0:
67,184,118088,1,0,0:0:0:0:
107,187,118174,1,2,0:0:0:0:
205,79,118345,5,0,0:0:0:0:
301,95,118516,1,2,0:0:0:0:
453,299,118688,1,8,0:0:0:0:
356,315,118859,1,2,0:0:0:0:
229,49,119030,1,0,0:0:0:0:
325,65,119201,1,2,0:0:0:0:
332,282,119374,1,8,0:0:0:0:
284,288,119459,1,0,0:0:0:0:
235,295,119545,1,2,0:0:0:0:
48,213,119716,6,0,L|-25:201,2,48.8750009322167,0|2|0,0:0|0:0|0:0,0:0:0:0:
163,70,120059,2,0,L|90:58,2,48.8750009322167,0|2|0,0:0|0:0|0:0,0:0:0:0:
322,16,120402,5,0,0:0:0:0:
325,65,120487,1,0,0:0:0:0:
329,114,120573,1,0,0:0:0:0:
332,162,120659,1,0,0:0:0:0:
396,182,120744,21,0,0:0:0:0:
393,231,120829,1,0,0:0:0:0:
389,280,120915,1,2,0:0:0:0:
386,328,121001,1,0,0:0:0:0:
383,370,121087,1,2,0:0:0:0:
256,192,132059,37,2,0:0:0:0:
453,109,143030,5,2,0:0:0:0:
411,186,143202,1,0,0:0:0:0:
326,170,143373,1,0,0:0:0:0:
314,84,143544,1,0,0:0:0:0:
392,46,143716,1,0,0:0:0:0:
383,33,144059,1,0,0:0:0:0:
326,170,144402,5,2,0:0:0:0:
248,286,144573,1,0,0:0:0:0:
242,146,144744,1,0,0:0:0:0:
329,257,144916,1,0,0:0:0:0:
194,217,145087,1,2,0:0:0:0:
106,106,145259,1,0,0:0:0:0:
242,146,145430,1,0,0:0:0:0:
111,193,145602,1,0,0:0:0:0:
188,76,145773,5,2,0:0:0:0:
194,217,145944,1,0,0:0:0:0:
106,106,146116,1,0,0:0:0:0:
194,217,146287,1,0,0:0:0:0:
188,76,146459,1,0,0:0:0:0:
198,60,146802,1,0,0:0:0:0:
0,153,147144,5,2,0:0:0:0:
2,181,147230,1,0,0:0:0:0:
5,209,147316,1,0,0:0:0:0:
125,261,147487,1,0,0:0:0:0:
127,289,147573,1,0,0:0:0:0:
130,317,147659,1,0,0:0:0:0:
266,324,147830,2,0,L|307:335,3,36.1250006890297,2|0|0|0,0:0|0:0|0:0|0:0,0:0:0:0:
340,315,148173,1,0,0:0:0:0:
378,295,148258,1,0,0:0:0:0:
421,291,148344,1,0,0:0:0:0:
462,304,148430,1,0,0:0:0:0:
494,332,148516,6,0,L|503:230,1,72.2500013780594,2|0,0:0|0:0,0:0:0:0:
412,177,148859,2,0,L|421:75,1,72.2500013780594
323,32,149202,1,0,0:0:0:0:
308,38,149544,1,0,0:0:0:0:
121,191,149887,5,2,0:0:0:0:
19,176,150059,1,0,0:0:0:0:
2,76,150230,1,0,0:0:0:0:
92,29,150402,1,0,0:0:0:0:
164,100,150573,1,2,0:0:0:0:
192,103,150659,1,0,0:0:0:0:
220,106,150744,1,0,0:0:0:0:
365,66,150916,1,0,0:0:0:0:
348,97,151001,1,0,0:0:0:0:
343,133,151087,1,0,0:0:0:0:
351,167,151173,1,0,0:0:0:0:
371,197,151259,5,2,0:0:0:0:
436,273,151430,1,0,0:0:0:0:
300,343,151602,1,0,0:0:0:0:
292,243,151773,1,0,0:0:0:0:
205,216,151944,1,2,0:0:0:0:
154,304,152116,1,0,0:0:0:0:
55,279,152287,1,0,0:0:0:0:
52,242,152372,1,0,0:0:0:0:
49,206,152458,1,0,0:0:0:0:
46,170,152544,1,0,0:0:0:0:
44,135,152630,6,0,L|28:86,2,36.1250006890297,2|0|0,0:0|0:0|0:0,0:0:0:0:
161,40,152973,2,0,L|145:-9,2,36.1250006890297,2|0|0,0:0|0:0|0:0,0:0:0:0:
303,130,153316,1,2,0:0:0:0:
326,146,153401,1,0,0:0:0:0:
353,157,153487,1,0,0:0:0:0:
381,163,153573,1,0,0:0:0:0:
410,163,153658,1,2,0:0:0:0:
438,158,153744,1,0,0:0:0:0:
465,148,153830,1,0,0:0:0:0:
490,133,153916,1,0,0:0:0:0:
511,113,154002,6,0,L|518:37,1,72.2500013780594,2|0,0:0|0:0,0:0:0:0:
410,163,154344,2,0,L|403:239,1,72.2500013780594
394,336,154687,1,0,0:0:0:0:
409,350,155030,1,0,0:0:0:0:
144,344,155373,5,2,0:0:0:0:
61,230,155544,1,0,0:0:0:0:
194,273,155716,1,0,0:0:0:0:
61,317,155887,1,0,0:0:0:0:
144,203,156059,1,2,0:0:0:0:
118,52,156230,1,0,0:0:0:0:
227,157,156402,1,0,0:0:0:0:
76,137,156573,1,0,0:0:0:0:
211,66,156744,6,0,L|288:69,1,72.2500013780594,2|0,0:0|0:0,0:0:0:0:
365,129,157087,2,0,L|442:132,1,72.2500013780594,0|0,0:0|0:0,0:0:0:0:
512,66,157430,1,0,0:0:0:0:
510,86,157773,1,0,0:0:0:0:
452,209,158116,5,2,0:0:0:0:
450,236,158202,1,0,0:0:0:0:
448,264,158287,1,0,0:0:0:0:
365,129,158459,1,0,0:0:0:0:
363,102,158545,1,0,0:0:0:0:
361,74,158630,1,0,0:0:0:0:
299,226,158802,1,2,0:0:0:0:
274,240,158887,1,0,0:0:0:0:
246,248,158973,1,0,0:0:0:0:
217,250,159059,1,0,0:0:0:0:
189,244,159144,1,0,0:0:0:0:
163,232,159230,1,0,0:0:0:0:
141,214,159316,1,0,0:0:0:0:
123,191,159402,1,0,0:0:0:0:
112,164,159487,5,2,0:0:0:0:
138,66,159659,1,0,0:0:0:0:
25,216,159830,1,0,0:0:0:0:
0,315,160002,1,0,0:0:0:0:
28,113,160173,1,0,0:0:0:0:
17,102,160516,1,0,0:0:0:0:
258,88,160859,6,0,L|248:187,1,72.2500013780594,2|0,0:0|0:0,0:0:0:0:
153,221,161202,2,0,L|143:320,1,72.2500013780594
237,384,161544,1,2,0:0:0:0:
241,348,161629,1,0,0:0:0:0:
245,312,161715,1,0,0:0:0:0:
328,252,161887,1,0,0:0:0:0:
364,228,161972,1,0,0:0:0:0:
406,221,162058,1,0,0:0:0:0:
448,230,162144,1,0,0:0:0:0:
484,254,162229,21,2,0:0:0:0:
470,340,162402,1,0,0:0:0:0:
462,144,162573,1,0,0:0:0:0:
448,230,162744,1,0,0:0:0:0:
440,34,162916,1,2,0:0:0:0:
426,120,163087,1,0,0:0:0:0:
311,14,163259,2,0,L|300:84,3,36.1250006890297
285,80,163602,5,2,0:0:0:0:
289,115,163687,1,0,0:0:0:0:
294,151,163773,1,0,0:0:0:0:
216,243,163944,1,2,0:0:0:0:
220,279,164029,1,0,0:0:0:0:
225,314,164115,1,0,0:0:0:0:
75,357,164287,5,2,0:0:0:0:
78,313,164372,1,0,0:0:0:0:
81,270,164458,1,2,0:0:0:0:
85,227,164544,1,0,0:0:0:0:
35,184,164630,5,2,0:0:0:0:
89,183,164715,1,0,0:0:0:0:
131,151,164801,1,2,0:0:0:0:
152,102,164887,1,0,0:0:0:0:
140,50,164972,21,4,0:0:0:0:
337,82,165145,1,0,0:0:0:0:
251,20,165316,1,8,0:0:0:0:
448,52,165487,1,0,0:0:0:0:
322,204,165659,1,0,0:0:0:0:
334,213,166002,1,8,0:0:0:0:
94,291,166344,5,0,0:0:0:0:
334,213,166516,1,0,0:0:0:0:
94,135,166687,1,8,0:0:0:0:
243,340,166859,1,0,0:0:0:0:
243,86,167030,1,0,0:0:0:0:
94,291,167202,1,0,0:0:0:0:
334,213,167373,1,8,0:0:0:0:
94,135,167544,1,0,0:0:0:0:
265,262,167716,5,0,0:0:0:0:
358,134,167887,1,0,0:0:0:0:
358,293,168059,1,8,0:0:0:0:
265,165,168230,1,0,0:0:0:0:
415,213,168402,1,0,0:0:0:0:
430,217,168745,1,8,0:0:0:0:
430,35,169088,5,0,0:0:0:0:
382,28,169173,1,0,0:0:0:0:
333,19,169259,1,0,0:0:0:0:
206,86,169431,1,8,0:0:0:0:
158,93,169516,1,0,0:0:0:0:
109,98,169602,1,0,0:0:0:0:
78,368,169773,5,0,0:0:0:0:
117,340,169858,1,0,0:0:0:0:
146,300,169944,1,0,0:0:0:0:
159,254,170030,1,0,0:0:0:0:
155,205,170115,1,8,0:0:0:0:
135,161,170201,1,0,0:0:0:0:
102,125,170287,1,2,0:0:0:0:
58,104,170373,1,0,0:0:0:0:
9,110,170459,6,0,B|-2:42|-2:42|13:8,2,97.7500018644333,0|0|8,0:0|0:0|0:0,0:0:0:0:
43,238,170973,1,0,0:0:0:0:
27,367,171145,1,0,0:0:0:0:
6,371,171487,1,8,0:0:0:0:
354,347,171830,5,0,0:0:0:0:
205,203,172002,1,0,0:0:0:0:
408,232,172173,1,8,0:0:0:0:
227,328,172344,1,0,0:0:0:0:
318,144,172516,1,0,0:0:0:0:
314,104,172602,1,0,0:0:0:0:
312,64,172688,1,0,0:0:0:0:
459,3,172859,1,8,0:0:0:0:
489,41,172944,1,0,0:0:0:0:
498,89,173030,1,0,0:0:0:0:
483,135,173116,1,0,0:0:0:0:
449,169,173201,5,0,0:0:0:0:
338,341,173373,1,2,0:0:0:0:
438,240,173544,1,8,0:0:0:0:
266,352,173715,1,2,0:0:0:0:
399,302,173887,1,0,0:0:0:0:
196,333,174059,1,2,0:0:0:0:
92,210,174231,5,8,0:0:0:0:
88,257,174316,1,0,0:0:0:0:
84,305,174402,1,2,0:0:0:0:
14,134,174573,2,0,L|8:185,2,48.8750009322167,0|2|0,0:0|0:0|0:0,0:0:0:0:
129,44,174916,2,0,L|135:95,2,48.8750009322167,8|2|0,0:0|0:0|0:0,0:0:0:0:
261,131,175259,2,0,L|257:196,3,48.8750009322167
255,228,175602,1,8,0:0:0:0:
290,261,175687,1,0,0:0:0:0:
336,276,175773,1,2,0:0:0:0:
384,270,175859,1,0,0:0:0:0:
425,245,175944,5,4,0:0:0:0:
457,368,176117,1,0,0:0:0:0:
290,261,176287,1,8,0:0:0:0:
353,103,176460,1,0,0:0:0:0:
493,186,176631,1,0,0:0:0:0:
512,189,176973,1,8,0:0:0:0:
150,332,177316,5,0,0:0:0:0:
290,261,177487,1,0,0:0:0:0:
40,222,177659,1,8,0:0:0:0:
150,332,177830,1,0,0:0:0:0:
111,82,178002,1,0,0:0:0:0:
40,222,178173,1,0,0:0:0:0:
265,106,178344,1,8,0:0:0:0:
111,82,178516,1,0,0:0:0:0:
290,261,178687,5,0,0:0:0:0:
353,162,178859,1,0,0:0:0:0:
466,193,179030,1,8,0:0:0:0:
471,310,179202,1,0,0:0:0:0:
363,352,179373,1,0,0:0:0:0:
380,359,179716,1,8,0:0:0:0:
137,247,180060,5,0,0:0:0:0:
133,285,180145,1,0,0:0:0:0:
130,323,180230,1,0,0:0:0:0:
45,85,180402,1,8,0:0:0:0:
47,123,180487,1,0,0:0:0:0:
50,161,180572,1,0,0:0:0:0:
157,36,180744,5,0,0:0:0:0:
191,70,180829,1,0,0:0:0:0:
232,96,180915,1,0,0:0:0:0:
279,111,181001,1,0,0:0:0:0:
327,114,181086,1,8,0:0:0:0:
375,105,181172,1,0,0:0:0:0:
420,85,181258,1,2,0:0:0:0:
458,55,181344,1,0,0:0:0:0:
489,17,181429,5,0,0:0:0:0:
511,143,181602,1,0,0:0:0:0:
469,378,181773,1,8,0:0:0:0:
447,252,181944,1,0,0:0:0:0:
511,143,182117,1,0,0:0:0:0:
507,123,182460,1,8,0:0:0:0:
156,317,182802,5,0,0:0:0:0:
338,224,182973,1,0,0:0:0:0:
135,191,183144,1,8,0:0:0:0:
281,338,183316,1,0,0:0:0:0:
249,134,183487,1,0,0:0:0:0:
237,85,183574,1,0,0:0:0:0:
226,37,183660,1,0,0:0:0:0:
70,9,183830,1,8,0:0:0:0:
30,37,183915,1,0,0:0:0:0:
11,81,184001,1,2,0:0:0:0:
18,129,184087,1,0,0:0:0:0:
48,167,184172,5,0,0:0:0:0:
36,264,184345,1,2,0:0:0:0:
333,218,184517,1,8,0:0:0:0:
315,123,184688,1,2,0:0:0:0:
184,212,184860,1,0,0:0:0:0:
188,309,185031,1,2,0:0:0:0:
462,341,185203,1,8,0:0:0:0:
464,292,185288,1,0,0:0:0:0:
467,243,185374,1,2,0:0:0:0:
393,115,185545,6,0,L|381:54,2,48.8750009322167,0|2|0,0:0|0:0|0:0,0:0:0:0:
263,237,185888,2,0,L|259:286,2,48.8750009322167,0|2|0,0:0|0:0|0:0,0:0:0:0:
185,42,186230,5,0,0:0:0:0:
137,39,186315,1,0,0:0:0:0:
99,67,186401,1,0,0:0:0:0:
87,114,186487,1,0,0:0:0:0:
138,159,186573,21,0,0:0:0:0:
139,207,186659,1,0,0:0:0:0:
115,248,186745,1,2,0:0:0:0:
72,269,186831,1,0,0:0:0:0:
24,263,186916,1,2,0:0:0:0:
