osu file format v12

[General]
AudioFilename: sakura.mp3
AudioLeadIn: 0
PreviewTime: 99144
Countdown: 0
SampleSet: Soft
StackLeniency: 0.3
Mode: 0
LetterboxInBreaks: 1
WidescreenStoryboard: 0

[Editor]
DistanceSpacing: 1.2
BeatDivisor: 4
GridSize: 8
TimelineZoom: 2

[Metadata]
Title:Izayoi Sakura
TitleUnicode:十六夜桜
Artist:Kozato snow
ArtistUnicode:Kozato snow
Creator:Melt
Version:Hard
Source:
Tags:OblivioN yukinohara
BeatmapID:402590
BeatmapSetID:162371

[Difficulty]
HPDrainRate:5
CircleSize:4
OverallDifficulty:6
ApproachRate:8
SliderMultiplier:1.4
SliderTickRate:1

[Events]
//Background and Video events
0,0,"BG-1.jpg",0,0
//Break Periods
2,55459,65480
2,121287,131309
2,132259,142280
//Storyboard Layer 0 (Background)
//Storyboard Layer 1 (Fail)
//Storyboard Layer 2 (Pass)
//Storyboard Layer 3 (Foreground)
//Storyboard Sound Samples
//Background Colour Transformations
3,100,163,162,255

[TimingPoints]
402,342.857142857143,4,2,1,20,1,0
11373,-133.333333333333,4,2,1,20,0,0
22002,-100,4,2,1,40,0,0
22344,-100,4,2,1,30,0,0
22516,-100,4,2,1,40,0,0
23030,-166.666666666667,4,2,1,40,0,0
23716,-100,4,2,1,40,0,0
25773,-166.666666666667,4,2,1,40,0,0
26459,-100,4,2,1,40,0,0
28516,-166.666666666667,4,2,1,40,0,0
29202,-100,4,2,1,40,0,0
33316,-100,4,2,1,30,0,0
33487,-100,4,2,1,40,0,0
44287,-100,4,2,1,30,0,0
44544,-100,4,2,1,40,0,0
52516,-100,4,2,1,30,0,0
55259,-100,4,2,1,20,0,0
66230,-133.333333333333,4,2,4,25,0,0
66916,-133.333333333333,4,2,4,20,0,0
67602,-133.333333333333,4,2,4,25,0,0
69659,-133.333333333333,4,2,4,20,0,0
70344,-133.333333333333,4,2,4,25,0,0
72402,-133.333333333333,4,2,4,20,0,0
73087,-133.333333333333,4,2,4,25,0,0
75144,-133.333333333333,4,2,4,20,0,0
75487,-133.333333333333,4,2,4,25,0,0
76859,-80,4,2,2,35,0,0
77202,-100,4,2,1,40,0,0
87487,-100,4,2,1,45,0,0
88173,-133.333333333333,4,2,1,30,0,0
88344,-133.333333333333,4,2,4,30,0,0
94344,-133.333333333333,4,2,4,20,0,0
94687,-133.333333333333,4,2,4,30,0,0
95716,-133.333333333333,4,2,4,20,0,0
96059,-133.333333333333,4,2,4,30,0,0
97087,-133.333333333333,4,2,4,20,0,0
97430,-133.333333333333,4,2,4,30,0,0
98459,-133.333333333333,4,2,1,40,0,0
98802,-133.333333333333,4,2,1,45,0,0
99144,-86.9565217391304,4,2,1,35,0,1
99316,-86.9565217391304,4,2,1,50,0,1
99830,-133.333333333333,4,2,1,50,0,1
100516,-86.9565217391304,4,2,1,50,0,1
102573,-133.333333333333,4,2,1,50,0,1
103259,-86.9565217391304,4,2,1,50,0,1
104459,-86.9565217391304,4,2,2,50,0,1
104544,-86.9565217391304,4,2,1,50,0,1
105316,-133.333333333333,4,2,1,50,0,1
106002,-86.9565217391304,4,2,1,50,0,1
109944,-86.9565217391304,4,2,2,50,0,1
110030,-86.9565217391304,4,2,1,50,0,0
110116,-86.9565217391304,4,2,1,35,0,1
110287,-86.9565217391304,4,2,1,50,0,1
110802,-133.333333333333,4,2,1,50,0,1
111487,-86.9565217391304,4,2,1,50,0,1
113544,-133.333333333333,4,2,1,50,0,1
114230,-86.9565217391304,4,2,1,50,0,1
115430,-86.9565217391304,4,2,2,50,0,1
115516,-86.9565217391304,4,2,1,50,0,1
116287,-133.333333333333,4,2,1,50,0,1
116973,-86.9565217391304,4,2,1,50,0,1
118173,-86.9565217391304,4,2,2,50,0,1
121087,-100,4,2,3,30,0,0
132059,-100,4,2,3,20,0,0
143030,-133.333333333333,4,2,1,25,0,0
164287,-133.333333333333,4,2,1,40,0,0
164630,-133.333333333333,4,2,1,45,0,0
164973,-86.9565217391304,4,2,1,35,0,1
165144,-86.9565217391304,4,2,1,50,0,1
165659,-133.333333333333,4,2,1,50,0,1
166344,-86.9565217391304,4,2,1,50,0,1
168402,-133.333333333333,4,2,1,50,0,1
169087,-86.9565217391304,4,2,1,50,0,1
170287,-86.9565217391304,4,2,2,50,0,1
170373,-86.9565217391304,4,2,1,50,0,1
171144,-133.333333333333,4,2,1,50,0,1
171830,-86.9565217391304,4,2,1,50,0,1
175773,-86.9565217391304,4,2,2,50,0,1
175859,-86.9565217391304,4,2,1,50,0,0
175944,-86.9565217391304,4,2,1,35,0,1
176116,-86.9565217391304,4,2,1,50,0,1
176630,-133.333333333333,4,2,1,50,0,1
177316,-86.9565217391304,4,2,1,50,0,1
179373,-133.333333333333,4,2,1,50,0,1
180059,-86.9565217391304,4,2,1,50,0,1
181259,-86.9565217391304,4,2,2,50,0,1
181344,-86.9565217391304,4,2,1,50,0,1
182116,-133.333333333333,4,2,1,50,0,1
182802,-86.9565217391304,4,2,1,50,0,1
184002,-86.9565217391304,4,2,2,50,0,1
186916,-100,4,2,3,30,0,0

[Colours]
Combo1 : 255,215,255
Combo2 : 253,151,253
Combo3 : 245,245,245
Combo4 : 255,85,255
SliderBorder : 250,207,250

[HitObjects]
120,88,11373,5,0,0:0:0:0:
243,113,11716,1,0,0:0:0:0:
159,207,12059,1,0,0:0:0:0:
247,6,12744,21,0,0:0:0:0:
382,185,13087,1,0,0:0:0:0:
159,207,13430,1,0,0:0:0:0:
275,245,13773,1,0,0:0:0:0:
455,238,14116,5,0,0:0:0:0:
305,176,14459,1,0,0:0:0:0:
324,337,14802,1,0,0:0:0:0:
461,167,15487,5,0,0:0:0:0:
377,48,15830,1,0,0:0:0:0:
305,176,16173,1,0,0:0:0:0:
461,167,16516,1,0,0:0:0:0:
240,232,16859,21,0,0:0:0:0:
75,147,17202,1,0,0:0:0:0:
84,332,17544,1,0,0:0:0:0:
8,102,18230,5,0,0:0:0:0:
145,101,18573,1,0,0:0:0:0:
78,220,18916,1,0,0:0:0:0:
75,68,19259,1,0,0:0:0:0:
165,327,19601,5,0,0:0:0:0:
78,220,19944,1,0,0:0:0:0:
145,101,20287,1,0,0:0:0:0:
480,123,20973,37,0,0:0:0:0:
357,88,21316,1,0,0:0:0:0:
389,212,21659,1,0,0:0:0:0:
357,88,22002,2,0,L|370:38,2,35
389,212,22344,37,4,0:0:0:0:
468,237,22516,1,0,0:0:0:0:
468,321,22687,1,8,0:0:0:0:
389,347,22859,1,0,0:0:0:0:
339,280,23030,38,0,P|296:290|245:272,1,83.9999974365235,0|8,0:0|0:0,0:0:0:0:
70,273,23716,6,0,L|63:342,1,70
170,229,24059,2,0,L|176:159,1,70,8|0,0:0|0:0,0:0:0:0:
220,86,24402,1,0,0:0:0:0:
164,23,24573,1,0,0:0:0:0:
86,56,24744,1,8,0:0:0:0:
94,139,24916,1,0,0:0:0:0:
176,159,25087,2,0,L|170:229,2,70,0|0|8,0:0|0:0|0:0,0:0:0:0:
220,86,25602,1,0,0:0:0:0:
302,101,25773,38,0,P|351:115|397:94,1,83.9999974365235,0|8,0:0|0:0,0:0:0:0:
444,233,26459,6,0,L|441:156,1,70
381,106,26802,2,0,L|378:29,1,70,8|0,0:0|0:0,0:0:0:0:
300,65,27144,2,0,L|302:134,1,70
363,192,27487,2,0,L|365:261,1,70,8|0,0:0|0:0,0:0:0:0:
317,331,27830,5,0,0:0:0:0:
240,365,28002,1,0,0:0:0:0:
162,332,28173,1,8,0:0:0:0:
84,364,28344,1,0,0:0:0:0:
1,345,28516,22,0,P|-11:299|14:253,1,83.9999974365235,0|8,0:0|0:0,0:0:0:0:
128,155,29202,5,0,0:0:0:0:
49,130,29373,1,0,0:0:0:0:
49,46,29544,1,8,0:0:0:0:
128,22,29716,1,0,0:0:0:0:
178,88,29887,1,0,0:0:0:0:
198,91,29973,1,0,0:0:0:0:
218,94,30059,1,0,0:0:0:0:
300,79,30230,2,0,L|304:124,3,35,8|0|0|0,0:0|0:0|0:0|0:0,0:0:0:0:
334,141,30573,6,0,L|423:151,1,70
429,229,30916,2,0,L|340:219,1,70,8|0,0:0|0:0,0:0:0:0:
321,296,31259,2,0,L|410:306,1,70
416,384,31602,2,0,L|327:374,1,70,8|0,0:0|0:0,0:0:0:0:
263,362,31944,6,0,L|226:384,2,35
204,257,32287,2,0,L|169:249,2,35,8|0|0,0:0|0:0|0:0,0:0:0:0:
293,179,32630,2,0,L|264:142,3,35
262,82,32973,2,0,L|233:45,3,35,8|0|0|0,0:0|0:0|0:0|0:0,0:0:0:0:
174,31,33316,22,0,P|148:23|101:36,1,70,4|0,0:0|0:0,0:0:0:0:
59,101,33659,1,8,0:0:0:0:
142,100,33830,1,0,0:0:0:0:
93,168,34002,2,0,P|59:177|26:169,1,70
0,248,34344,1,8,0:0:0:0:
52,314,34516,1,0,0:0:0:0:
129,282,34687,6,0,L|211:268,1,70
176,351,35030,2,0,L|258:337,1,70,8|0,0:0|0:0,0:0:0:0:
329,340,35373,2,0,L|337:252,1,70
408,312,35716,2,0,L|416:224,1,70,8|0,0:0|0:0,0:0:0:0:
456,169,36059,5,0,0:0:0:0:
378,136,36230,1,0,0:0:0:0:
386,53,36402,1,8,0:0:0:0:
468,35,36573,1,0,0:0:0:0:
512,106,36744,1,0,0:0:0:0:
456,169,36916,1,0,0:0:0:0:
378,136,37087,1,8,0:0:0:0:
386,53,37259,1,0,0:0:0:0:
378,136,37430,22,0,L|297:142,1,70
228,111,37773,2,0,P|221:145|232:178,1,70,8|0,0:0|0:0,0:0:0:0:
277,249,38116,1,0,0:0:0:0:
265,331,38287,1,0,0:0:0:0:
181,321,38459,1,8,0:0:0:0:
192,238,38630,1,0,0:0:0:0:
116,199,38802,6,0,L|36:207,1,70
3,134,39144,2,0,L|72:127,1,70,8|0,0:0|0:0,0:0:0:0:
118,56,39487,2,0,P|166:48|214:82,1,70
249,108,39830,2,0,P|282:115|316:106,1,70,8|0,0:0|0:0,0:0:0:0:
399,117,40173,5,0,0:0:0:0:
479,143,40344,1,0,0:0:0:0:
479,227,40516,1,8,0:0:0:0:
399,253,40687,1,0,0:0:0:0:
349,185,40859,1,0,0:0:0:0:
269,211,41030,1,0,0:0:0:0:
269,295,41201,1,8,0:0:0:0:
349,321,41373,1,0,0:0:0:0:
269,295,41544,22,0,L|181:310,1,70
119,281,41887,2,0,P|111:244|123:204,1,70,8|0,0:0|0:0,0:0:0:0:
171,148,42230,1,0,0:0:0:0:
136,70,42402,1,0,0:0:0:0:
200,16,42573,2,0,P|229:30|288:16,1,70,8|0,0:0|0:0,0:0:0:0:
346,52,42916,6,0,L|355:153,1,70
329,273,43259,2,0,L|322:203,1,70,8|0,0:0|0:0,0:0:0:0:
422,18,43602,2,0,L|431:119,1,70
411,297,43944,2,0,L|404:227,1,70,8|0,0:0|0:0,0:0:0:0:
352,122,44287,6,0,P|302:137|253:122,1,105,4|0,0:0|0:0,0:0:0:0:
216,143,44630,2,0,L|211:67,1,70,8|0,0:0|0:0,0:0:0:0:
132,44,44973,1,0,0:0:0:0:
125,127,45144,1,0,0:0:0:0:
49,68,45316,1,8,0:0:0:0:
36,150,45487,1,0,0:0:0:0:
97,208,45659,21,0,0:0:0:0:
58,282,45830,1,0,0:0:0:0:
103,352,46002,2,0,P|144:360|181:344,1,70,8|0,0:0|0:0,0:0:0:0:
222,286,46344,2,0,P|256:279|314:304,3,70,0|0|8|0,0:0|0:0|0:0|0:0,0:0:0:0:
342,352,47030,6,0,P|395:366|452:346,1,105
473,324,47373,2,0,L|467:245,1,70,8|0,0:0|0:0,0:0:0:0:
507,179,47716,1,0,0:0:0:0:
499,95,47887,1,0,0:0:0:0:
426,52,48059,1,8,0:0:0:0:
349,85,48230,1,0,0:0:0:0:
381,162,48402,6,0,P|347:169|289:143,3,70,0|0|8|0,0:0|0:0|0:0|0:0,0:0:0:0:
243,114,49087,1,0,0:0:0:0:
235,197,49258,1,0,0:0:0:0:
228,281,49429,1,8,0:0:0:0:
221,365,49601,1,0,0:0:0:0:
149,319,49773,22,0,P|138:278|165:221,1,105
194,195,50116,2,0,L|277:199,1,70,8|0,0:0|0:0,0:0:0:0:
342,228,50459,2,0,P|350:267|337:302,2,70,0|0|8,0:0|0:0|0:0,0:0:0:0:
419,194,50973,1,0,0:0:0:0:
362,132,51144,5,0,0:0:0:0:
280,113,51316,1,0,0:0:0:0:
273,30,51487,1,8,0:0:0:0:
351,0,51659,1,0,0:0:0:0:
405,60,51830,1,0,0:0:0:0:
362,132,52002,1,0,0:0:0:0:
280,113,52173,1,8,0:0:0:0:
273,30,52344,1,0,0:0:0:0:
256,192,52516,12,4,55259,0:0:0:0:
453,109,66230,53,2,0:0:0:0:
326,170,66573,1,0,0:0:0:0:
392,46,66916,1,4,0:0:0:0:
198,346,67602,21,2,0:0:0:0:
168,215,67944,1,0,0:0:0:0:
112,339,68287,1,0,0:0:0:0:
168,215,68630,1,0,0:0:0:0:
98,97,68973,2,0,P|40:109|-17:79,2,105.000004005432,2|0|4,0:0|0:0|0:0,0:0:0:0:
364,35,70344,21,2,0:0:0:0:
364,35,70687,1,0,0:0:0:0:
234,77,71030,2,0,B|227:100|227:100|236:160|236:160|228:186,1,105.000004005432
294,300,71716,1,2,0:0:0:0:
230,179,72059,1,0,0:0:0:0:
353,237,72402,1,4,0:0:0:0:
55,328,73087,21,2,0:0:0:0:
125,211,73430,1,0,0:0:0:0:
1,270,73773,1,0,0:0:0:0:
125,211,74116,1,0,0:0:0:0:
261,212,74459,2,0,P|308:233|379:215,1,105.000004005432,2|0,0:0|0:0,0:0:0:0:
512,171,75144,2,0,P|465:150|394:168,1,105.000004005432,6|0,0:0|0:0,0:0:0:0:
261,212,75830,22,0,L|271:330,1,105.000004005432,2|0,0:0|0:0,0:0:0:0:
269,316,76516,1,2,0:0:0:0:
298,181,76859,38,0,L|290:74,1,87.5,0|2,0:0|0:0,0:0:0:0:
409,10,77202,6,0,L|407:80,1,70
468,156,77544,2,0,L|466:226,1,70,8|0,0:0|0:0,0:0:0:0:
463,324,77887,1,0,0:0:0:0:
369,294,78059,1,0,0:0:0:0:
348,296,78144,1,0,0:0:0:0:
327,298,78230,1,8,0:0:0:0:
236,260,78402,1,0,0:0:0:0:
152,208,78573,6,0,L|158:133,3,70,0|0|8|0,0:0|0:0|0:0|0:0,0:0:0:0:
224,66,79259,1,0,0:0:0:0:
158,138,79430,1,0,0:0:0:0:
92,64,79602,1,8,0:0:0:0:
158,138,79773,1,0,0:0:0:0:
69,180,79944,22,0,L|63:267,1,70
142,309,80287,2,0,L|148:222,1,70,8|0,0:0|0:0,0:0:0:0:
231,189,80630,2,0,L|225:276,1,70
304,318,80973,2,0,L|310:231,1,70,8|0,0:0|0:0,0:0:0:0:
376,176,81316,5,0,0:0:0:0:
473,186,81487,1,0,0:0:0:0:
487,88,81659,1,8,0:0:0:0:
389,77,81830,1,0,0:0:0:0:
315,12,82002,2,0,L|245:20,1,70
171,84,82344,2,0,L|101:92,1,70,8|0,0:0|0:0,0:0:0:0:
27,157,82687,6,0,P|19:191|37:240,3,70,0|0|8|0,0:0|0:0|0:0|0:0,0:0:0:0:
117,263,83373,2,0,L|111:364,1,70
199,379,83716,2,0,L|203:309,1,70,8|0,0:0|0:0,0:0:0:0:
212,211,84059,21,0,0:0:0:0:
298,257,84230,1,0,0:0:0:0:
387,216,84402,1,8,0:0:0:0:
473,260,84573,1,0,0:0:0:0:
387,216,84744,2,0,L|399:147,1,70
349,63,85087,2,0,P|315:54|281:62,1,70,8|0,0:0|0:0,0:0:0:0:
195,107,85430,5,0,0:0:0:0:
186,21,85602,1,0,0:0:0:0:
117,141,85773,1,8,0:0:0:0:
102,10,85944,1,0,0:0:0:0:
195,107,86116,1,0,0:0:0:0:
210,242,86287,1,0,0:0:0:0:
117,141,86459,1,8,0:0:0:0:
251,169,86630,1,0,0:0:0:0:
364,250,86802,6,0,L|373:304,7,35,0|0|0|0|8|0|0|0,0:0|0:0|0:0|0:0|0:0|0:0|0:0|0:0,0:0:0:0:
428,194,87487,2,0,L|422:159,7,35,0|0|0|0|8|0|0|0,0:0|0:0|0:0|0:0|0:0|0:0|0:0|0:0,0:0:0:0:
376,132,88173,6,0,P|394:75|365:27,1,105.000004005432,6|0,0:0|0:0,0:0:0:0:
194,168,89373,1,0,0:0:0:0:
194,168,89544,2,0,P|179:218|216:277,1,105.000004005432,2|0,0:0|0:0,0:0:0:0:
269,110,90230,2,0,P|195:77|119:115,1,157.500006008148,2|0,0:0|0:0,0:0:0:0:
59,55,90916,22,0,P|42:100|68:165,1,105.000004005432,2|0,0:0|0:0,0:0:0:0:
282,307,92116,1,0,0:0:0:0:
282,307,92287,2,0,P|301:249|279:199,1,105.000004005432,2|0,0:0|0:0,0:0:0:0:
308,63,92973,2,0,L|301:120,2,52.5000020027161,2|0|2,0:0|0:0|0:0,0:0:0:0:
471,24,93659,21,2,0:0:0:0:
409,133,94002,1,0,0:0:0:0:
472,241,94344,2,0,P|458:296|493:345,1,105.000004005432,6|0,0:0|0:0,0:0:0:0:
270,272,95030,21,2,0:0:0:0:
173,191,95373,1,0,0:0:0:0:
104,296,95716,2,0,P|54:309|4:286,1,105.000004005432,6|0,0:0|0:0,0:0:0:0:
73,132,96402,22,0,P|51:175|67:238,2,105.000004005432,2|0|4,0:0|0:0|0:0,0:0:0:0:
73,132,97430,1,0,0:0:0:0:
185,75,97773,1,2,0:0:0:0:
297,136,98116,1,0,0:0:0:0:
211,229,98459,2,0,L|206:295,3,52.5000020027161
296,312,99144,5,4,0:0:0:0:
366,378,99316,1,0,0:0:0:0:
451,333,99487,1,8,0:0:0:0:
434,238,99659,1,0,0:0:0:0:
338,225,99830,38,0,P|355:171|332:117,1,105.000004005432,0|8,0:0|0:0,0:0:0:0:
155,130,100516,5,0,0:0:0:0:
138,35,100687,1,0,0:0:0:0:
42,22,100859,1,8,0:0:0:0:
0,109,101030,1,0,0:0:0:0:
70,175,101202,1,0,0:0:0:0:
0,109,101373,1,0,0:0:0:0:
42,22,101544,1,8,0:0:0:0:
138,35,101716,1,0,0:0:0:0:
155,130,101887,6,0,L|241:137,1,80.5000015354157
297,61,102230,2,0,L|383:68,1,80.5000015354157,8|0,0:0|0:0,0:0:0:0:
463,127,102573,22,0,P|482:180|445:242,1,105.000004005432,0|8,0:0|0:0,0:0:0:0:
307,334,103259,6,0,L|389:341,1,80.5000015354157
340,259,103602,2,0,L|257:251,1,80.5000015354157,8|0,0:0|0:0,0:0:0:0:
167,300,103944,2,0,L|105:294,3,40.2500007677078
91,233,104287,2,0,L|29:227,3,40.2500007677078,8|0|2|0,0:0|0:0|0:0|0:0,0:0:0:0:
16,165,104630,5,0,0:0:0:0:
0,69,104802,1,0,0:0:0:0:
94,52,104973,1,8,0:0:0:0:
111,146,105144,1,0,0:0:0:0:
204,180,105316,22,0,P|255:195|313:166,1,105.000004005432,0|8,0:0|0:0,0:0:0:0:
247,23,106002,6,0,L|251:122,1,80.5000015354157
302,177,106344,2,0,L|306:276,1,80.5000015354157,8|0,0:0|0:0,0:0:0:0:
375,350,106687,2,0,L|374:309,2,40.2500007677078
467,278,107030,2,0,L|466:237,3,40.2500007677078
427,176,107373,6,0,P|486:183|526:151,1,80.5000015354157
295,97,107716,2,0,P|332:85|371:95,1,80.5000015354157,8|0,0:0|0:0,0:0:0:0:
165,181,108059,2,0,P|224:188|264:156,1,80.5000015354157
81,84,108402,1,8,0:0:0:0:
78,107,108487,1,0,0:0:0:0:
75,131,108573,1,0,0:0:0:0:
0,230,108744,6,0,L|6:276,2,40.2500007677078
148,297,109087,2,0,L|141:342,2,40.2500007677078,8|0|0,0:0|0:0|0:0,0:0:0:0:
285,251,109430,2,0,L|277:208,3,40.2500007677078
242,151,109773,2,0,L|250:108,3,40.2500007677078,8|0|2|0,0:0|0:0|0:0|0:0,0:0:0:0:
319,90,110116,21,4,0:0:0:0:
355,0,110287,1,0,0:0:0:0:
450,6,110459,1,8,0:0:0:0:
474,100,110630,1,0,0:0:0:0:
392,150,110802,38,0,P|410:197|389:255,1,105.000004005432,0|8,0:0|0:0,0:0:0:0:
218,272,111487,5,0,0:0:0:0:
162,353,111658,1,0,0:0:0:0:
70,321,111830,1,8,0:0:0:0:
70,224,112001,1,0,0:0:0:0:
162,194,112173,1,0,0:0:0:0:
70,224,112344,1,0,0:0:0:0:
70,321,112516,1,8,0:0:0:0:
162,353,112687,1,0,0:0:0:0:
218,272,112859,6,0,P|265:284|308:269,1,80.5000015354157
407,203,113202,2,0,P|360:191|317:206,1,80.5000015354157,8|0,0:0|0:0,0:0:0:0:
218,272,113544,22,0,L|212:151,1,105.000004005432,0|8,0:0|0:0,0:0:0:0:
118,23,114230,6,0,L|123:117,3,80.5000015354157,0|0|8|0,0:0|0:0|0:0|0:0,0:0:0:0:
52,170,114916,2,0,L|45:235,3,40.2500007677078
93,266,115259,2,0,L|100:331,3,40.2500007677078,8|0|2|0,0:0|0:0|0:0|0:0,0:0:0:0:
158,349,115602,6,0,P|203:359|260:329,2,80.5000015354157,0|0|8,0:0|0:0|0:0,0:0:0:0:
195,259,116116,1,0,0:0:0:0:
291,266,116287,22,0,P|335:249|405:276,1,105.000004005432,0|8,0:0|0:0,0:0:0:0:
356,78,116972,5,0,0:0:0:0:
414,0,117144,1,0,0:0:0:0:
505,32,117315,1,8,0:0:0:0:
504,129,117487,1,0,0:0:0:0:
413,157,117659,2,0,L|408:228,2,40.2500007677078
261,169,118002,2,0,L|258:128,3,40.2500007677078
191,96,118344,6,0,L|201:16,1,80.5000015354157,0|2,0:0|0:0,0:0:0:0:
95,203,118687,2,0,L|97:122,1,80.5000015354157,8|2,0:0|0:0,0:0:0:0:
23,343,119030,2,0,L|19:263,1,80.5000015354157,0|2,0:0|0:0,0:0:0:0:
171,248,119374,1,8,0:0:0:0:
167,272,119459,1,0,0:0:0:0:
163,296,119545,1,2,0:0:0:0:
296,306,119716,6,0,L|300:359,2,40.2500007677078,0|2|0,0:0|0:0|0:0,0:0:0:0:
406,224,120059,2,0,L|422:267,2,40.2500007677078,8|2|0,0:0|0:0|0:0,0:0:0:0:
256,192,120402,12,2,121087,0:0:0:0:
256,192,132059,37,2,0:0:0:0:
241,107,143030,21,2,0:0:0:0:
223,208,143373,1,0,0:0:0:0:
320,173,143716,1,0,0:0:0:0:
320,173,144402,21,2,0:0:0:0:
133,159,144744,1,0,0:0:0:0:
214,328,145087,1,0,0:0:0:0:
128,265,145430,1,0,0:0:0:0:
133,159,145773,22,0,P|78:168|28:141,2,105.000004005432,2|0|0,0:0|0:0|0:0,0:0:0:0:
303,54,147144,21,2,0:0:0:0:
355,144,147487,1,0,0:0:0:0:
412,56,147830,2,0,B|452:60|452:60|463:55,2,52.5000020027161
409,294,148516,21,2,0:0:0:0:
471,176,148859,1,0,0:0:0:0:
412,56,149202,1,0,0:0:0:0:
201,347,149887,21,2,0:0:0:0:
52,264,150230,1,0,0:0:0:0:
223,259,150573,1,0,0:0:0:0:
76,350,150916,1,0,0:0:0:0:
90,185,151259,22,0,P|72:133|90:80,1,105.000004005432,2|0,0:0|0:0,0:0:0:0:
251,85,151944,2,0,P|269:137|251:190,1,105.000004005432
203,26,152630,22,0,P|246:10|317:45,1,105.000004005432,2|0,0:0|0:0,0:0:0:0:
440,93,153316,2,0,L|435:149,3,52.5000020027161
425,226,154002,21,2,0:0:0:0:
440,93,154345,1,0,0:0:0:0:
323,30,154688,1,0,0:0:0:0:
85,60,155374,21,2,0:0:0:0:
97,171,155716,1,0,0:0:0:0:
164,31,156059,1,0,0:0:0:0:
18,200,156401,1,0,0:0:0:0:
176,197,156745,22,0,P|165:253|199:302,2,105.000004005432,2|0|0,0:0|0:0|0:0,0:0:0:0:
247,22,158116,22,0,P|270:67|258:117,1,105.000004005432,2|0,0:0|0:0,0:0:0:0:
245,237,158802,2,0,L|299:241,2,52.5000020027161
351,339,159488,21,2,0:0:0:0:
486,319,159831,1,0,0:0:0:0:
359,267,160174,1,0,0:0:0:0:
365,81,160859,21,2,0:0:0:0:
491,30,161202,1,0,0:0:0:0:
355,13,161545,1,0,0:0:0:0:
227,61,161887,1,0,0:0:0:0:
109,16,162231,22,0,P|93:61|124:127,1,105.000004005432,2|0,0:0|0:0,0:0:0:0:
158,302,162916,2,0,P|174:257|143:191,1,105.000004005432,2|0,0:0|0:0,0:0:0:0:
11,204,163602,22,0,P|-5:249|26:315,1,105.000004005432,2|0,0:0|0:0,0:0:0:0:
158,302,164287,2,0,L|228:321,3,52.5000020027161,0|0|0|0,0:0|0:0|0:0|0:0,0:0:0:0:
289,332,164973,37,4,0:0:0:0:
371,379,165144,1,0,0:0:0:0:
443,314,165316,1,8,0:0:0:0:
404,226,165487,1,0,0:0:0:0:
309,237,165659,38,0,P|294:185|320:131,1,105.000004005432,0|8,0:0|0:0,0:0:0:0:
163,70,166344,5,0,0:0:0:0:
150,166,166516,1,0,0:0:0:0:
55,182,166688,1,8,0:0:0:0:
10,97,166859,1,0,0:0:0:0:
76,28,167031,1,0,0:0:0:0:
10,97,167202,1,0,0:0:0:0:
55,182,167373,1,8,0:0:0:0:
150,166,167544,1,0,0:0:0:0:
55,182,167716,6,0,L|41:273,1,80.5000015354157
112,328,168059,2,0,L|124:248,1,80.5000015354157,8|0,0:0|0:0,0:0:0:0:
228,204,168402,22,0,P|276:189|342:215,1,105.000004005432,0|8,0:0|0:0,0:0:0:0:
388,349,169087,6,0,L|379:264,1,80.5000015354157
453,206,169430,2,0,L|444:121,1,80.5000015354157,8|0,0:0|0:0,0:0:0:0:
437,29,169773,2,0,L|397:23,3,40.2500007677078
334,59,170116,2,0,L|294:64,3,40.2500007677078,8|0|2|0,0:0|0:0|0:0|0:0,0:0:0:0:
237,107,170459,5,0,0:0:0:0:
188,24,170630,1,0,0:0:0:0:
93,45,170802,1,8,0:0:0:0:
85,141,170973,1,0,0:0:0:0:
174,179,171144,22,0,P|201:217|185:293,1,105.000004005432,0|8,0:0|0:0,0:0:0:0:
9,366,171831,6,0,L|19:287,1,80.5000015354157
62,200,172173,2,0,L|52:121,1,80.5000015354157,8|0,0:0|0:0,0:0:0:0:
121,52,172516,2,0,L|115:12,2,40.2500007677078
219,118,172859,2,0,L|213:158,3,40.2500007677078
259,218,173202,6,0,L|271:301,1,80.5000015354157
330,116,173545,2,0,L|342:199,1,80.5000015354157,8|0,0:0|0:0,0:0:0:0:
401,14,173887,2,0,L|413:97,1,80.5000015354157,0|0,0:0|0:0,0:0:0:0:
497,171,174231,1,8,0:0:0:0:
495,194,174316,1,0,0:0:0:0:
493,218,174402,1,0,0:0:0:0:
406,309,174573,6,0,L|420:360,2,40.2500007677078
256,344,174916,2,0,L|256:391,2,40.2500007677078,8|0|0,0:0|0:0|0:0,0:0:0:0:
95,347,175259,2,0,L|106:309,3,40.2500007677078
165,267,175602,2,0,L|154:228,3,40.2500007677078,8|0|2|0,0:0|0:0|0:0|0:0,0:0:0:0:
113,169,175944,37,4,0:0:0:0:
27,123,176116,1,0,0:0:0:0:
44,27,176287,1,8,0:0:0:0:
140,15,176459,1,0,0:0:0:0:
181,100,176630,22,0,P|231:118|298:88,1,105.000004005432,0|8,0:0|0:0,0:0:0:0:
512,114,177316,5,0,0:0:0:0:
495,18,177487,1,0,0:0:0:0:
399,6,177659,1,8,0:0:0:0:
358,91,177830,1,0,0:0:0:0:
426,160,178002,1,0,0:0:0:0:
358,91,178173,1,0,0:0:0:0:
399,6,178344,1,8,0:0:0:0:
495,18,178516,1,0,0:0:0:0:
512,114,178687,6,0,L|527:202,1,80.5000015354157
446,249,179030,2,0,L|461:337,1,80.5000015354157,8|0,0:0|0:0,0:0:0:0:
364,371,179373,22,0,P|310:385|245:354,1,105.000004005432,0|8,0:0|0:0,0:0:0:0:
66,379,180059,6,0,P|75:335|51:279,3,80.5000015354157,0|0|8|0,0:0|0:0|0:0|0:0,0:0:0:0:
96,206,180744,2,0,L|108:162,3,40.2500007677078
155,113,181087,2,0,L|143:69,3,40.2500007677078,8|0|2|0,0:0|0:0|0:0|0:0,0:0:0:0:
223,86,181431,6,0,B|202:8,2,80.5000015354157,0|0|8,0:0|0:0|0:0,0:0:0:0:
310,127,181945,1,0,0:0:0:0:
225,184,182116,22,0,P|210:235|245:291,1,105.000004005432,0|8,0:0|0:0,0:0:0:0:
483,294,182802,5,0,0:0:0:0:
413,361,182973,1,0,0:0:0:0:
328,314,183144,1,8,0:0:0:0:
347,219,183315,1,0,0:0:0:0:
443,207,183487,2,0,L|468:172,2,40.2500007677078
302,115,183831,2,0,L|298:155,3,40.2500007677078
237,199,184173,6,0,L|244:295,1,80.5000015354157,0|2,0:0|0:0,0:0:0:0:
157,384,184516,2,0,L|151:303,1,80.5000015354157,8|2,0:0|0:0,0:0:0:0:
137,104,184859,2,0,L|144:200,1,80.5000015354157,0|2,0:0|0:0,0:0:0:0:
57,289,185202,1,8,0:0:0:0:
55,264,185287,1,0,0:0:0:0:
53,240,185373,1,2,0:0:0:0:
39,107,185545,6,0,L|35:61,2,40.2500007677078,0|2|0,0:0|0:0|0:0,0:0:0:0:
209,51,185887,2,0,L|205:5,2,40.2500007677078,8|2|0,0:0|0:0|0:0,0:0:0:0:
256,192,186231,12,2,186916,0:0:0:0:
