osu file format v12

[General]
AudioFilename: sakura.mp3
AudioLeadIn: 0
PreviewTime: 99144
Countdown: 0
SampleSet: Soft
StackLeniency: 0.3
Mode: 0
LetterboxInBreaks: 1
WidescreenStoryboard: 0

[Editor]
DistanceSpacing: 1.1
BeatDivisor: 4
GridSize: 8
TimelineZoom: 2

[Metadata]
Title:Izayoi Sakura
TitleUnicode:十六夜桜
Artist:Kozato snow
ArtistUnicode:Kozato snow
Creator:Melt
Version:Easy
Source:
Tags:OblivioN yukinohara
BeatmapID:401629
BeatmapSetID:162371

[Difficulty]
HPDrainRate:2
CircleSize:3
OverallDifficulty:2
ApproachRate:2
SliderMultiplier:0.8
SliderTickRate:1

[Events]
//Background and Video events
0,0,"BG-1.jpg",0,0
//Break Periods
2,55458,64670
2,88373,97584
2,121287,130499
2,132259,141470
//Storyboard Layer 0 (Background)
//Storyboard Layer 1 (Fail)
//Storyboard Layer 2 (Pass)
//Storyboard Layer 3 (Foreground)
//Storyboard Sound Samples
//Background Colour Transformations
3,100,163,162,255

[TimingPoints]
402,342.857142857143,4,2,1,20,1,0
11373,-100,4,2,1,20,0,0
22002,-100,4,2,1,40,0,0
22344,-100,4,2,1,30,0,0
22687,-100,4,2,1,40,0,0
33316,-100,4,2,1,30,0,0
34002,-100,4,2,1,40,0,0
44287,-100,4,2,1,30,0,0
44630,-100,4,2,1,40,0,0
55259,-100,4,2,1,25,0,0
77202,-100,4,2,1,30,0,0
77544,-100,4,2,1,35,0,0
88173,-100,4,2,1,30,0,0
99144,-100,4,2,1,35,0,1
99316,-100,4,2,1,50,0,1
110030,-100,4,2,1,50,0,0
110116,-100,4,2,1,35,0,1
110287,-100,4,2,1,50,0,1
121087,-100,4,2,3,30,0,0
132059,-100,4,2,3,20,0,0
143030,-100,4,2,1,30,0,0
164973,-100,4,2,1,35,0,1
165144,-100,4,2,1,50,0,1
175859,-100,4,2,1,50,0,0
175944,-100,4,2,1,35,0,1
176116,-100,4,2,1,50,0,1
186916,-100,4,2,3,30,0,0

[Colours]
Combo1 : 255,215,255
Combo2 : 253,151,253
Combo3 : 245,245,245
Combo4 : 255,85,255
SliderBorder : 250,207,250

[HitObjects]
127,72,11373,5,0,0:0:0:0:
389,293,14116,5,0,0:0:0:0:
100,287,16859,5,0,0:0:0:0:
345,73,19601,5,0,0:0:0:0:
256,192,22002,5,0,0:0:0:0:
266,279,22344,2,0,P|339:320|420:289,1,160,6|0,0:0|0:0,0:0:0:0:
445,127,23716,2,0,L|437:222,1,80,2|0,0:0|0:0,0:0:0:0:
358,169,24402,2,0,L|366:74,1,80
294,35,25087,6,0,P|215:17|150:58,1,160,2|0,0:0|0:0,0:0:0:0:
126,230,26459,2,0,L|140:139,3,80,2|0|0|0,0:0|0:0|0:0|0:0,0:0:0:0:
64,103,27830,6,0,L|36:269,1,160,2|0,0:0|0:0,0:0:0:0:
213,264,29202,2,0,L|200:343,2,80,2|0|0,0:0|0:0|0:0,0:0:0:0:
265,193,30230,1,0,0:0:0:0:
341,236,30573,6,0,P|385:244|421:235,1,80,2|0,0:0|0:0,0:0:0:0:
420,147,31259,2,0,P|376:139|340:148,1,80,2|0,0:0|0:0,0:0:0:0:
265,193,31944,2,0,P|226:201|187:192,1,80,2|0,0:0|0:0,0:0:0:0:
108,152,32630,2,0,L|89:199,2,40
143,71,33316,5,6,0:0:0:0:
309,17,34002,1,0,0:0:0:0:
366,183,34687,1,2,0:0:0:0:
200,241,35373,1,0,0:0:0:0:
375,254,36059,5,2,0:0:0:0:
409,81,36744,1,0,0:0:0:0:
236,47,37430,1,2,0:0:0:0:
199,219,38116,1,0,0:0:0:0:
37,288,38802,6,0,P|4:218|37:148,1,160,2|0,0:0|0:0,0:0:0:0:
199,219,40173,2,0,P|231:140|191:72,1,160,2|0,0:0|0:0,0:0:0:0:
37,148,41544,6,0,P|5:227|45:295,1,160,2|0,0:0|0:0,0:0:0:0:
203,230,42916,2,0,B|242:238|242:238|290:228,3,80,2|0|0|0,0:0|0:0|0:0|0:0,0:0:0:0:
356,183,44287,6,0,P|365:143|351:105,1,80,6|0,0:0|0:0,0:0:0:0:
321,24,44973,1,0,0:0:0:0:
488,78,45659,1,2,0:0:0:0:
462,162,46002,1,0,0:0:0:0:
501,240,46344,2,0,P|512:278|501:320,1,80
419,344,47030,6,0,L|329:340,1,80,2|0,0:0|0:0,0:0:0:0:
257,306,47716,2,0,P|186:277|111:311,1,160,0|2,0:0|0:0,0:0:0:0:
45,364,48745,1,0,0:0:0:0:
33,277,49087,2,0,L|49:186,1,80
132,175,49773,6,0,L|145:96,1,80,2|0,0:0|0:0,0:0:0:0:
163,9,50459,1,0,0:0:0:0:
333,53,51144,2,0,P|374:43|424:61,1,80,2|0,0:0|0:0,0:0:0:0:
410,140,51830,2,0,P|371:150|333:141,1,80
254,101,52516,5,2,0:0:0:0:
182,152,52859,1,0,0:0:0:0:
181,240,53202,1,0,0:0:0:0:
254,288,53544,1,0,0:0:0:0:
327,239,53887,6,0,P|364:231|414:249,1,80,2|0,0:0|0:0,0:0:0:0:
469,301,54573,2,0,L|458:382,2,80,0|0|4,0:0|0:0|0:0,0:0:0:0:
89,248,66230,5,4,0:0:0:0:
89,248,67602,1,0,0:0:0:0:
406,95,68973,5,0,0:0:0:0:
406,95,70344,1,0,0:0:0:0:
58,39,71716,6,0,L|58:119,2,80
144,192,73087,2,0,L|144:112,2,80
272,311,74459,6,0,P|317:320|352:309,1,80
346,222,75144,2,0,P|384:212|422:221,1,80
493,275,75830,2,0,P|491:318|511:360,2,80
512,99,77202,6,0,P|438:123|352:83,1,160,6|0,0:0|0:0,0:0:0:0:
202,24,78573,2,0,L|121:34,1,80,2|0,0:0|0:0,0:0:0:0:
108,120,79259,2,0,L|187:110,1,80
264,151,79944,6,0,P|282:222|226:288,1,160,2|0,0:0|0:0,0:0:0:0:
167,346,80973,1,0,0:0:0:0:
123,269,81316,1,2,0:0:0:0:
39,295,81659,1,0,0:0:0:0:
0,215,82002,2,0,L|14:128,1,80
69,68,82687,6,0,P|91:30|128:13,2,80,2|0|0,0:0|0:0|0:0,0:0:0:0:
152,97,83716,1,0,0:0:0:0:
224,46,84059,2,0,P|263:55|313:41,1,80,2|0,0:0|0:0,0:0:0:0:
385,19,84744,2,0,P|423:11|462:20,1,80
421,98,85430,5,2,0:0:0:0:
374,172,85773,1,0,0:0:0:0:
438,231,86116,1,0,0:0:0:0:
389,304,86459,1,0,0:0:0:0:
256,192,86802,12,4,88173,0:0:0:0:
130,121,99144,22,0,L|138:209,1,80,4|8,0:0|0:0,0:0:0:0:
218,165,99830,2,0,L|226:253,1,80,0|8,0:0|0:0,0:0:0:0:
305,281,100516,2,0,P|355:290|394:278,1,80,0|8,0:0|0:0,0:0:0:0:
462,245,101202,2,0,L|469:165,1,80,0|8,0:0|0:0,0:0:0:0:
479,77,101887,6,0,P|407:46|329:67,1,160
243,78,102916,1,8,0:0:0:0:
167,123,103259,2,0,L|176:219,1,80,0|8,0:0|0:0,0:0:0:0:
248,250,103944,2,0,L|239:346,1,80,0|8,0:0|0:0,0:0:0:0:
158,363,104630,6,0,P|115:372|80:363,3,80,0|8|0|8,0:0|0:0|0:0|0:0,0:0:0:0:
1,323,106002,2,0,P|-8:275|6:236,1,80,0|8,0:0|0:0,0:0:0:0:
66,187,106687,2,0,P|74:148|65:109,1,80,0|8,0:0|0:0,0:0:0:0:
40,25,107373,6,0,B|77:20|77:20|167:33|167:33|216:27,1,160
250,101,108402,1,8,0:0:0:0:
269,187,108744,2,0,P|381:249|489:203,1,240,0|8,0:0|0:0,0:0:0:0:
479,213,110116,6,0,L|495:294,1,80,4|0,0:0|0:0,0:0:0:0:
413,327,110802,2,0,L|397:246,1,80,0|8,0:0|0:0,0:0:0:0:
319,206,111487,2,0,L|303:127,1,80,0|8,0:0|0:0,0:0:0:0:
378,82,112173,2,0,L|393:160,1,80,0|8,0:0|0:0,0:0:0:0:
398,248,112859,6,0,P|323:294|252:264,1,160
177,242,113888,1,8,0:0:0:0:
201,157,114231,2,0,L|194:78,1,80,0|8,0:0|0:0,0:0:0:0:
106,67,114916,2,0,L|113:146,1,80,0|8,0:0|0:0,0:0:0:0:
52,211,115602,6,0,P|17:283|61:357,1,160
108,283,116631,1,8,0:0:0:0:
182,329,116974,2,0,L|264:318,1,80,0|8,0:0|0:0,0:0:0:0:
341,354,117659,2,0,L|423:343,1,80,0|8,0:0|0:0,0:0:0:0:
507,330,118345,5,0,0:0:0:0:
471,249,118687,1,8,0:0:0:0:
502,166,119030,1,0,0:0:0:0:
467,84,119373,1,8,0:0:0:0:
256,192,119716,12,2,121087,0:0:0:0:
256,192,132059,53,2,0:0:0:0:
380,65,143030,5,2,0:0:0:0:
207,29,143716,1,0,0:0:0:0:
60,126,144402,1,2,0:0:0:0:
234,164,145087,1,0,0:0:0:0:
408,143,145773,6,0,P|447:203|406:290,1,160,2|0,0:0|0:0,0:0:0:0:
258,354,147144,2,0,L|349:352,2,80
364,217,148516,5,2,0:0:0:0:
330,44,149202,1,0,0:0:0:0:
155,41,149887,2,0,P|77:31|14:89,1,160,2|0,0:0|0:0,0:0:0:0:
63,155,150916,1,0,0:0:0:0:
142,192,151259,6,0,P|179:261|138:338,1,160,2|0,0:0|0:0,0:0:0:0:
92,262,152287,1,0,0:0:0:0:
9,292,152630,2,0,P|-1:347|14:378,2,80,2|0|0,0:0|0:0|0:0,0:0:0:0:
92,262,153659,1,0,0:0:0:0:
179,272,154002,5,2,0:0:0:0:
338,347,154688,1,0,0:0:0:0:
505,292,155374,1,2,0:0:0:0:
349,210,156059,1,0,0:0:0:0:
509,136,156745,6,0,P|434:107|417:29,1,160,2|0,0:0|0:0,0:0:0:0:
502,49,157773,1,0,0:0:0:0:
416,36,158116,2,0,L|336:43,2,80
239,25,159488,5,2,0:0:0:0:
145,174,160174,1,0,0:0:0:0:
48,27,160859,2,0,P|91:18|142:35,2,80,2|0|0,0:0|0:0|0:0,0:0:0:0:
89,106,161888,1,0,0:0:0:0:
145,174,162231,6,0,P|213:213|287:188,1,160,2|0,0:0|0:0,0:0:0:0:
338,118,163259,1,0,0:0:0:0:
415,160,163602,2,0,L|430:242,3,80,2|0|0|0,0:0|0:0|0:0|0:0,0:0:0:0:
425,326,164973,5,4,0:0:0:0:
353,374,165315,1,8,0:0:0:0:
266,377,165658,1,0,0:0:0:0:
192,332,166001,1,8,0:0:0:0:
268,288,166345,2,0,L|274:195,1,80,0|8,0:0|0:0,0:0:0:0:
208,147,167030,2,0,L|202:54,1,80,0|8,0:0|0:0,0:0:0:0:
117,46,167716,5,0,0:0:0:0:
36,75,168058,1,8,0:0:0:0:
0,152,168401,1,0,0:0:0:0:
21,234,168744,1,8,0:0:0:0:
97,280,169088,2,0,L|193:288,1,80,0|8,0:0|0:0,0:0:0:0:
244,342,169773,2,0,L|340:334,1,80,0|8,0:0|0:0,0:0:0:0:
386,273,170459,6,0,L|482:265,2,80,0|8|0,0:0|0:0|0:0,0:0:0:0:
323,335,171487,1,8,0:0:0:0:
302,250,171830,2,0,L|295:170,1,80,0|8,0:0|0:0,0:0:0:0:
210,195,172516,2,0,L|203:115,1,80,0|8,0:0|0:0,0:0:0:0:
226,30,173202,6,0,P|265:22|318:39,1,80,0|8,0:0|0:0,0:0:0:0:
336,112,173887,2,0,P|377:122|427:105,1,80,0|8,0:0|0:0,0:0:0:0:
447,195,174573,2,0,P|503:94|413:28,1,240,0|8,0:0|0:0,0:0:0:0:
333,16,175944,5,4,0:0:0:0:
253,49,176286,1,8,0:0:0:0:
215,126,176629,1,0,0:0:0:0:
240,208,176972,1,8,0:0:0:0:
316,254,177316,2,0,L|411:248,1,80,0|8,0:0|0:0,0:0:0:0:
434,328,178002,2,0,L|354:333,1,80,0|8,0:0|0:0,0:0:0:0:
268,342,178687,5,0,0:0:0:0:
186,308,179030,1,8,0:0:0:0:
107,347,179373,1,0,0:0:0:0:
26,311,179716,1,8,0:0:0:0:
63,231,180060,2,0,P|72:196|63:151,1,80,0|8,0:0|0:0,0:0:0:0:
6,87,180744,2,0,P|-1:48|7:9,1,80,0|8,0:0|0:0,0:0:0:0:
85,51,181431,6,0,P|121:61|174:44,3,80,0|8|0|8,0:0|0:0|0:0|0:0,0:0:0:0:
247,31,182803,2,0,L|251:127,1,80,0|8,0:0|0:0,0:0:0:0:
314,170,183487,2,0,L|310:266,1,80,0|8,0:0|0:0,0:0:0:0:
256,319,184173,5,0,0:0:0:0:
330,364,184515,1,8,0:0:0:0:
416,353,184858,1,0,0:0:0:0:
477,292,185201,1,8,0:0:0:0:
256,192,185545,12,2,186916,0:0:0:0:
