osu file format v9

[General]
AudioFilename: Izayoi Saukura.mp3
AudioLeadIn: 0
PreviewTime: 99140
Countdown: 0
SampleSet: Soft
StackLeniency: 0.6
Mode: 0
LetterboxInBreaks: 1

[Editor]
DistanceSpacing: 1.5
BeatDivisor: 4
GridSize: 8

[Metadata]
Title:Izayoi Sakura
Artist:Kozato Snow
Creator:Mystica
Version:Insane
Source:
Tags:impossiblexu eveless wmfchris

[Difficulty]
HPDrainRate:6
CircleSize:4
OverallDifficulty:7
ApproachRate:8
SliderMultiplier:1.8
SliderTickRate:1

[Events]
//Background and Video events
0,0,"bg.jpg"
//Break Periods
2,55455,65476
2,121283,131305
2,142883,153248
//Storyboard Layer 0 (Background)
//Storyboard Layer 1 (Fail)
//Storyboard Layer 2 (Pass)
//Storyboard Layer 3 (Foreground)
//Storyboard Sound Samples
//Background Colour Transformations
3,100,163,162,255

[TimingPoints]
398,342.857142857143,4,2,1,75,1,0
11626,-100,4,2,1,65,0,0
11969,-100,4,2,1,55,0,0
12312,-100,4,2,1,45,0,0
12655,-100,4,2,1,35,0,0
12997,-100,4,2,1,25,0,0
13340,-100,4,2,1,15,0,0
13683,-100,4,2,1,5,0,0
14026,-100,4,2,1,75,0,0
14369,-100,4,2,1,65,0,0
14712,-100,4,2,1,55,0,0
15055,-100,4,2,1,45,0,0
15397,-100,4,2,1,35,0,0
15740,-100,4,2,1,25,0,0
16083,-100,4,2,1,15,0,0
16426,-100,4,2,1,5,0,0
16769,-100,4,2,1,75,0,0
17112,-100,4,2,1,65,0,0
17455,-100,4,2,1,55,0,0
17798,-100,4,2,1,45,0,0
18140,-100,4,2,1,35,0,0
18483,-100,4,2,1,25,0,0
18826,-100,4,2,1,15,0,0
19169,-100,4,2,1,5,0,0
19512,-100,4,2,1,75,0,0
19855,-100,4,2,1,65,0,0
20197,-100,4,2,1,55,0,0
20540,-100,4,2,1,45,0,0
20883,-100,4,2,1,35,0,0
21226,-100,4,2,1,25,0,0
21569,-100,4,2,1,15,0,0
21740,-100,4,2,1,26,0,0
21912,-100,4,2,1,55,0,0
22083,-100,4,2,1,76,0,0
22340,-100,4,2,2,76,0,1
37940,-100,4,2,1,100,0,1
38112,-100,4,2,2,76,0,1
44112,-100,4,2,1,100,0,1
44283,-100,4,2,2,76,0,1
52512,-100,4,2,2,60,0,1
55255,-100,4,2,1,76,0,0
66140,-142.857142857143,4,2,1,76,0,0
72312,-142.857142857143,4,2,2,76,0,0
72483,-142.857142857143,4,2,1,76,0,0
73683,-142.857142857143,4,2,2,76,0,0
73855,-142.857142857143,4,2,1,76,0,0
74712,-142.857142857143,4,2,2,76,0,0
74883,-142.857142857143,4,2,1,76,0,0
75398,-142.857142857143,4,2,2,76,0,0
75569,-142.857142857143,4,2,1,76,0,0
75740,-100,4,2,2,76,0,0
76512,-100,4,2,1,55,0,0
76683,-100,4,2,2,76,0,0
76855,-100,4,2,1,55,0,0
77026,-100,4,2,2,76,0,0
88169,-100,4,2,2,60,0,0
94255,-100,4,2,1,60,0,0
94426,-100,4,2,2,60,0,0
95626,-100,4,2,1,60,0,0
95798,-100,4,2,2,60,0,0
97083,-100,4,2,1,60,0,0
97126,-100,4,2,2,60,0,0
98626,-100,4,2,1,55,0,0
98798,-100,4,2,2,75,0,0
98969,-100,4,2,1,55,0,0
99140,-100,4,2,2,76,0,1
104455,-100,4,2,1,50,0,1
104626,-100,4,2,2,76,0,1
115426,-100,4,2,1,50,0,1
115598,-100,4,2,2,76,0,1
116626,-100,4,2,1,76,0,1
116969,-100,4,2,2,76,0,1
118340,-100,4,2,1,65,0,1
118683,-100,4,2,1,70,0,1
119026,-100,4,2,1,75,0,1
119369,-100,4,2,1,80,0,1
119712,-100,4,2,2,76,0,1
121083,-100,4,2,1,76,0,0
131969,-100,4,2,1,76,0,0
132312,-100,4,2,1,64,0,0
132655,-100,4,2,1,54,0,0
132998,-100,4,2,1,45,0,0
133340,-100,4,2,1,35,0,0
133683,-100,4,2,1,25,0,0
134026,-100,4,2,1,15,0,0
134369,-100,4,2,1,5,0,0
134712,-100,4,2,1,76,0,0
135055,-100,4,2,1,65,0,0
135398,-100,4,2,1,55,0,0
135740,-100,4,2,1,45,0,0
136083,-100,4,2,1,36,0,0
136426,-100,4,2,1,25,0,0
136769,-100,4,2,1,15,0,0
137112,-100,4,2,1,5,0,0
137455,-100,4,2,1,75,0,0
137798,-100,4,2,1,65,0,0
138140,-100,4,2,1,55,0,0
138483,-100,4,2,1,45,0,0
138826,-100,4,2,1,35,0,0
139169,-100,4,2,1,25,0,0
139512,-100,4,2,1,15,0,0
139855,-100,4,2,1,5,0,0
140198,-100,4,2,1,75,0,0
140540,-100,4,2,1,65,0,0
140883,-100,4,2,1,55,0,0
141226,-100,4,2,1,45,0,0
141569,-100,4,2,1,35,0,0
141912,-100,4,2,1,25,0,0
142255,-100,4,2,1,15,0,0
142598,-100,4,2,1,5,0,0
153912,-100,4,2,1,60,0,0
156055,-100,4,2,2,45,0,0
156740,-100,4,2,1,60,0,0
158798,-100,4,2,2,45,0,0
159483,-100,4,2,1,60,0,0
161540,-100,4,2,2,45,0,0
162226,-100,4,2,1,60,0,0
163598,-100,4,2,2,45,0,0
163683,-100,4,2,1,60,0,0
164283,-100,4,2,2,75,0,0
164969,-100,4,2,2,81,0,1
181255,-100,4,2,1,65,0,1
181426,-100,4,2,2,81,0,1
182455,-100,4,2,1,81,0,1
182798,-100,4,2,2,81,0,1
186912,-100,4,2,1,76,0,0

[Colours]
Combo1 : 234,45,45
Combo2 : 252,105,189
Combo3 : 196,49,238
Combo4 : 29,116,248

[HitObjects]
256,112,11369,1,4
176,192,11712,1,0
256,272,12055,1,0
336,192,12398,1,0
256,80,12740,5,2
144,192,13083,1,0
256,304,13426,1,0
368,192,13769,1,0
168,280,14112,5,4
344,280,14455,1,0
344,104,14798,1,0
168,104,15140,1,0
136,304,15483,5,2
136,88,15826,1,0
376,88,16169,1,0
376,304,16512,1,0
256,64,16855,5,4
120,192,17198,1,0
256,320,17540,1,0
384,192,17883,1,0
384,192,18055,1,0
384,192,18226,5,2
256,320,18569,1,0
120,192,18912,1,0
256,64,19255,1,0
392,64,19598,5,4
392,336,19940,1,0
120,336,20283,1,0
120,64,20626,1,0
120,64,20798,1,0
120,64,20969,5,2
120,336,21312,1,0
392,336,21655,5,0
392,192,21826,1,10
392,64,21998,1,8
392,192,22169,1,2
288,192,22340,5,0
248,192,22426,1,0
208,192,22512,1,2
248,96,22683,1,8
288,192,22855,1,2
248,288,23026,1,0
56,192,23369,5,10
416,48,23712,5,0
480,144,23883,1,2
400,232,24055,1,8
288,192,24226,1,2
304,72,24398,5,0
200,40,24569,1,2
128,120,24740,1,8
176,216,24912,1,2
264,280,25083,6,0,B|264:336|264:336,2,45,0|0|2
352,216,25426,5,8
400,120,25598,1,2
416,336,25769,5,0
96,336,26112,1,10
96,40,26455,5,0
96,72,26540,1,0
96,112,26626,1,2
96,224,26798,5,8
96,192,26883,1,0
96,152,26969,1,2
96,256,27140,5,0
128,232,27226,1,0
160,216,27312,1,2
192,232,27398,1,0
216,256,27483,2,0,B|264:256|264:256,3,45,10|0|2|0
216,288,27826,5,0
304,352,27998,1,2
392,288,28169,1,8
360,184,28340,1,2
256,184,28512,1,0
256,184,28855,5,10
424,48,29198,5,0
320,48,29369,1,2
408,96,29540,1,8
296,96,29712,1,2
392,144,29883,5,0
376,184,29969,1,0
360,224,30055,1,2
144,128,30226,5,8
152,160,30312,1,0
176,192,30398,1,2
208,216,30483,1,0
240,232,30569,1,0
344,256,30740,5,2
272,336,30912,1,8
240,232,31083,1,2
272,336,31255,1,0
168,312,31426,1,2
240,232,31598,5,8
272,216,31683,1,0
296,192,31769,1,2
312,160,31855,1,0
328,128,31940,2,0,B|336:80|336:80,3,45,2|0|2|0
335,83,32283,2,0,B|304:48|304:48,3,45,10|0|2|0
305,49,32626,2,0,B|232:40|232:40,3,45,2|0|2|2
224,56,32969,5,2
136,192,33140,1,4
224,328,33312,2,0,B|320:304|384:224,1,180,2|8
374,235,33826,5,2
432,144,33998,1,0
376,56,34169,1,2
432,144,34340,1,8
374,235,34512,1,2
256,64,34683,6,0,B|208:64|208:64,2,45,0|0|2
312,152,35026,1,8
374,235,35198,1,2
312,152,35369,1,0
240,232,35540,1,2
168,152,35712,1,8
88,232,35883,1,2
168,312,36055,6,0,B|120:312|120:312,2,45,0|0|2
312,312,36398,2,0,B|360:312|360:312,2,45,8|0|2
200,232,36740,2,0,B|176:192|176:192,2,45,0|0|2
280,232,37083,2,0,B|304:192|304:192,2,45,8|0|2
240,128,37426,5,0
200,232,37597,1,2
184,280,37683,1,0
200,328,37769,1,8
288,384,37940,5,4
376,336,38112,5,0
400,312,38197,1,0
416,280,38283,1,2
424,248,38369,1,0
424,208,38455,1,8
424,208,38626,1,2
256,64,38797,5,0
168,136,38969,1,2
208,240,39140,1,8
320,240,39312,1,2
352,136,39483,5,0
352,136,39569,1,0
352,136,39655,1,2
256,64,39826,1,8
168,136,39997,1,2
320,240,40340,5,2
208,240,40512,1,8
168,136,40683,1,2
256,64,40855,5,0
256,64,40940,1,0
256,64,41026,1,2
352,136,41197,1,8
320,240,41369,1,2
208,240,41540,6,0,B|168:280|168:280,2,45,0|0|2
128,168,41883,2,0,B|80:184,2,45,8|0|2
88,64,42226,2,0,B|40:56|40:56,4,45,0|0|2|0|8
360,96,42740,5,2
448,192,42912,1,0
360,288,43083,1,2
256,192,43255,1,8
256,192,43340,1,0
256,192,43426,1,2
256,32,43597,5,0
88,160,43769,1,2
176,320,43940,1,8
328,320,44112,1,4
456,168,44283,5,0
376,96,44455,1,2
360,200,44626,1,8
456,168,44797,1,2
360,200,44969,1,0
440,272,45140,1,2
360,200,45312,1,8
344,312,45483,1,2
264,144,45826,5,2
176,80,45997,1,8
168,184,46169,1,2
264,144,46340,1,0
168,184,46512,1,2
256,248,46683,1,8
264,144,46855,1,2
144,320,47197,5,2
248,336,47369,1,8
208,232,47540,1,2
208,232,47712,1,0
248,336,47883,1,2
320,256,48055,1,8
208,232,48226,1,2
288,176,48397,6,0,B|320:128|320:128,2,45,0|2|2
240,64,48740,2,0,B|216:24|216:24,2,45,8|2|2
136,88,49083,5,0
88,184,49255,1,2
112,288,49426,1,8
200,352,49597,1,2
304,328,49769,1,0
304,328,49855,1,0
304,328,49940,1,2
224,256,50112,5,8
248,152,50283,1,2
328,224,50455,1,0
224,256,50626,1,2
144,184,50797,1,8
248,152,50969,1,2
400,304,51312,5,2
328,224,51483,1,8
432,208,51655,1,2
328,224,51826,1,0
368,120,51997,1,2
432,208,52169,1,8
328,224,52340,1,2
264,136,52512,5,0
280,120,52597,1,0
304,112,52683,1,2
328,112,52769,1,0
352,120,52855,1,10
376,136,52940,1,0
392,160,53026,1,2
400,184,53112,1,0
384,208,53197,5,0
368,224,53283,1,0
344,240,53369,1,2
320,256,53455,1,0
304,280,53540,1,10
304,304,53626,1,0
312,328,53712,1,2
328,352,53797,1,0
352,360,53883,5,0
376,352,53969,1,0
392,328,54055,1,2
400,304,54140,1,0
400,280,54226,1,10
392,256,54312,1,0
376,232,54397,1,2
352,224,54483,1,0
328,224,54569,5,2
304,224,54655,1,2
280,232,54740,1,0
256,248,54826,1,2
240,264,54912,1,10
224,288,54997,1,0
216,312,55083,1,2
216,312,55255,5,6
80,80,66226,6,0,B|144:112|272:64|336:80,1,251.999993991852,0|4
432,304,67597,6,0,B|368:272|240:320|176:304,1,251.999993991852,0|4
48,32,68969,6,0,B|16:96|64:224|48:288,1,251.999993991852,0|4
464,352,70340,6,0,B|496:288|448:160|464:96,1,251.999993991852,0|4
136,40,71712,6,0,B|128:80|136:104|144:136|128:176,1,125.999996995926
131,165,72397,1,4
376,344,73083,6,0,B|384:304|376:280|368:248|384:208,1,125.999996995926
380,218,73769,1,4
96,320,74455,6,0,B|136:304|168:320|192:336|232:312,1,125.999996995926,0|4
416,64,75140,6,0,B|376:80|344:64|320:48|280:72,1,125.999996995926,0|4
256,320,75826,5,0
360,280,75997,1,4
416,192,76169,1,0
360,104,76340,1,4
256,64,76512,5,2
232,64,76597,1,2
208,64,76683,1,2
184,64,76769,1,0
160,64,76855,1,2
136,64,76940,1,2
112,64,77026,1,2
112,176,77197,5,0
184,256,77369,1,2
216,152,77540,2,0,B|272:144|304:152,1,90,8|2
464,336,77883,5,0
352,336,78055,1,2
408,248,78226,2,0,B|408:200|360:176,1,90,8|2
176,48,78569,5,0
264,104,78740,1,2
168,152,78912,2,0,B|136:192|88:208,1,90,8|2
240,320,79255,5,0
352,336,79426,1,2
304,240,79598,2,0,B|328:192|384:176,1,90,8|2
360,72,79940,5,0
256,40,80112,1,2
280,144,80283,1,8
360,72,80455,1,2
384,176,80626,5,0
280,144,80797,1,2
304,248,80969,1,8
384,176,81140,1,2
408,280,81312,5,0
304,248,81483,1,2
336,352,81655,1,8
408,280,81826,1,2
336,352,81997,6,0,B|272:328|272:328,2,45,2|0|2
304,248,82340,2,0,B|280:208|280:208,2,45,10|0|2
352,152,82683,2,0,B|368:104|368:104,4,45,0|2|2|2|10
352,152,83197,1,2
136,48,83369,6,0,B|88:64|64:104,1,90,0|2
96,208,83712,1,8
184,144,83883,1,2
200,248,84055,5,0
184,144,84226,1,2
280,184,84397,1,8
200,248,84569,1,2
280,184,84740,5,0
296,288,84912,1,2
376,216,85083,1,8
296,288,85255,1,2
392,336,85426,6,0,B|432:360|432:360,2,45,0|0|2
464,256,85769,2,0,B|512:256|512:256,2,45,8|0|2
464,144,86112,2,0,B|504:112|504:112,2,45,0|0|2
376,80,86455,2,0,B|408:24|408:24,2,45,8|0|2
264,80,86797,2,0,B|240:32|240:32,4,45,0|0|2|0|10
296,168,87312,5,2
384,256,87483,5,0
360,272,87569,1,0
336,288,87655,1,2
312,296,87740,1,0
288,296,87826,1,2
264,288,87912,1,0
240,280,87998,1,2
216,272,88083,1,0
192,256,88169,5,0
112,184,88340,1,0
192,120,88512,1,0
280,184,88683,1,0
192,256,88855,5,0
280,320,89026,1,0
368,256,89198,1,0
280,184,89369,1,0
368,120,89540,5,0
456,184,89712,1,0
368,256,89883,1,0
280,184,90055,1,0
192,256,90226,5,0
112,184,90398,1,0
112,184,90483,1,0
112,184,90569,1,0
192,120,90740,1,0
280,184,90912,5,0
192,120,91083,1,0
280,184,91255,1,0
192,256,91426,1,0
280,320,91598,5,0
368,256,91769,1,0
368,256,91855,1,0
368,256,91940,1,0
280,184,92112,1,0
200,112,92283,6,0,B|200:64|200:64,2,45
104,160,92626,2,0,B|64:120|64:120,2,45
104,272,92969,2,0,B|64:304|64:304,4,45
192,336,93483,1,0
280,280,93655,5,0
280,176,93826,1,0
368,232,93998,1,0
272,232,94169,1,0
368,232,94340,1,4
368,232,94683,1,0
232,64,95026,5,0
232,176,95198,1,0
136,120,95369,1,0
240,120,95540,1,0
136,120,95712,1,4
136,120,96055,1,0
256,296,96398,6,0,B|256:344|256:344,2,45,0|0|0
256,192,96740,2,0,B|256:256|256:256,2,45
256,80,97083,6,0,B|256:32|256:32,2,45,4|0|0
256,192,97426,2,0,B|256:136|256:136,2,45
256,80,97769,5,0
144,168,97940,1,2
184,288,98112,1,0
328,288,98283,1,10
368,168,98455,1,8
256,80,98626,5,2
256,104,98712,1,2
256,128,98798,1,0
256,152,98883,1,0
256,176,98969,1,2
96,80,99140,5,0
40,176,99312,1,2
144,176,99483,1,8
96,80,99655,1,2
144,176,99826,1,0
144,176,100169,1,10
400,336,100512,5,0
344,248,100683,1,2
456,248,100855,1,8
400,336,101026,1,2
344,248,101198,1,0
280,336,101369,1,2
224,248,101540,1,8
344,248,101712,1,2
408,40,101883,5,0
344,128,102055,1,2
280,40,102226,1,8
408,40,102398,1,2
344,128,102569,1,0
344,128,102912,1,10
128,128,103255,6,0,B|80:128|80:128,2,45,2|2|0
192,216,103598,2,0,B|192:272|192:272,2,45,10|2|0
256,128,103940,2,0,B|320:128|320:128,4,45,2|2|0|2|8
192,216,104455,1,2
376,336,104626,5,0
376,224,104798,1,2
280,280,104969,1,8
376,224,105140,1,2
480,280,105312,1,0
376,104,105655,1,10
120,40,105998,5,0
32,96,106169,1,2
120,160,106340,1,8
208,96,106512,1,2
120,160,106683,2,0,B|120:216|120:216,2,45,0|0|2
120,312,107026,2,0,B|120:264|120:264,4,45,8|0|2|0|0
232,312,107540,5,2
344,312,107712,1,8
232,312,107883,1,2
344,312,108055,1,0
448,312,108226,1,2
344,312,108398,6,0,B|344:256|344:256,2,45,8|0|2
448,312,108740,1,0
344,312,108912,1,2
232,312,109083,1,8
344,312,109255,1,2
344,208,109426,5,0
336,184,109512,1,0
312,168,109598,1,2
288,152,109683,1,0
264,152,109769,1,10
240,168,109855,1,0
224,184,109940,1,2
208,208,110026,1,2
200,232,110112,5,0
96,232,110283,1,2
96,120,110455,1,8
200,120,110626,1,2
200,232,110798,1,0
200,232,111140,1,10
416,232,111483,5,0
304,232,111655,1,2
304,120,111826,1,8
416,120,111998,1,2
304,120,112169,5,0
304,232,112340,1,2
416,232,112512,1,8
416,120,112683,1,2
304,120,112855,5,0
208,168,113026,1,2
304,232,113198,1,8
208,288,113369,1,2
304,344,113540,1,0
120,232,113883,1,10
208,48,114226,5,0
208,48,114312,1,2
208,48,114398,1,2
208,184,114569,1,8
208,184,114655,1,2
208,184,114740,1,2
328,120,114912,5,0
328,120,114998,1,2
328,120,115083,1,2
328,120,115169,1,2
328,120,115255,1,10
328,256,115426,1,2
208,320,115598,5,0
104,320,115769,1,2
208,280,115940,1,8
104,280,116112,1,2
208,248,116283,1,0
208,248,116626,1,10
408,320,116969,5,0
304,320,117140,1,2
408,288,117312,1,8
304,288,117483,1,2
408,256,117655,2,0,B|408:208|408:208,2,45,0|0|2
304,256,117998,2,0,B|304:208|304:208,2,45,8|0|2
384,144,118340,5,0
272,72,118512,1,2
160,144,118683,1,8
208,272,118855,1,2
344,272,119026,1,0
384,144,119198,1,2
272,72,119369,2,0,B|272:136|272:136,2,45,8|0|2
136,72,119712,5,0
112,88,119798,1,0
96,112,119883,1,2
88,136,119969,1,0
80,160,120055,1,0
80,184,120140,1,0
88,208,120226,1,2
96,232,120312,1,0
104,256,120398,2,0,B|128:304|128:304,3,45,0|0|2|0
144,312,120740,2,0,B|184:336|184:336,3,45,2|0|2|0
208,336,121083,1,4
80,64,132055,5,4
136,64,132398,1,0
192,64,132740,1,0
248,64,133083,1,0
136,128,133426,5,2
192,128,133769,1,0
248,128,134112,1,0
304,128,134455,1,0
192,192,134798,5,4
248,192,135140,1,0
304,192,135483,1,0
360,192,135826,1,0
248,256,136169,5,2
304,256,136512,1,0
360,256,136855,1,0
416,256,137198,1,0
256,80,137540,5,4
256,80,137883,1,0
256,144,138226,1,0
256,144,138569,1,0
256,192,138740,1,2
256,248,138912,5,2
256,248,139255,1,0
256,312,139598,1,0
256,312,139940,1,0
136,192,140283,5,4
136,192,140626,1,0
200,192,140969,1,0
200,192,141312,1,0
256,192,141483,1,2
312,192,141655,5,2
312,192,141998,1,0
376,192,142340,1,0
376,192,142683,1,0
152,56,153998,5,0
64,120,154169,1,2
64,224,154340,1,0
152,288,154512,1,2
152,176,154683,1,0
152,176,155026,1,4
336,56,155369,5,0
424,120,155540,1,2
424,232,155712,1,0
336,288,155883,1,2
424,232,156055,1,0
424,120,156226,1,2
336,56,156398,1,0
336,176,156569,1,2
256,352,156740,5,0
168,288,156912,1,2
256,352,157083,1,0
336,288,157255,1,2
256,224,157426,1,0
256,224,157769,1,4
256,32,158112,6,0,B|256:80|256:80,2,45,0|0|2
256,144,158455,1,0
256,144,158540,1,0
256,144,158626,1,2
256,256,158798,5,0
256,280,158883,1,0
256,304,158969,1,2
256,328,159055,1,0
256,352,159140,1,2
144,352,159312,1,2
144,248,159483,5,0
64,176,159655,1,2
144,104,159826,1,0
224,176,159998,1,2
144,248,160169,1,0
144,248,160512,1,4
304,104,160855,5,0
224,176,161026,1,2
304,248,161198,1,0
384,176,161369,1,2
304,104,161540,1,0
304,104,161626,1,0
304,104,161712,1,2
384,32,161883,5,0
464,104,162055,1,2
384,176,162226,2,0,B|384:240|384:240,2,45,0|0|2
304,248,162569,2,0,B|304:304|304:304,2,45,0|0|2
216,312,162912,2,0,B|216:360|216:360,4,45,0|0|2|0|0
216,312,163426,1,2
136,248,163598,5,4
136,248,163683,1,0
136,248,163769,1,2
56,176,163940,1,0
56,176,164026,1,0
56,176,164112,1,2
136,104,164283,5,2
136,104,164369,1,0
136,104,164455,1,2
136,104,164540,1,0
136,104,164626,1,2
136,104,164712,1,0
136,104,164798,1,2
136,104,164883,1,2
136,104,164969,5,0
272,104,165140,1,2
208,224,165312,1,8
272,104,165483,1,2
336,224,165655,1,0
64,320,165998,1,10
64,320,166340,5,0
200,320,166512,1,2
128,208,166683,1,8
200,320,166855,1,2
272,208,167026,5,0
200,96,167198,1,2
128,208,167369,1,8
272,208,167540,1,2
344,96,167712,5,0
200,96,167883,1,2
272,208,168055,1,8
408,208,168226,1,2
344,96,168398,1,0
344,96,168740,1,10
80,48,169083,5,0
80,72,169169,1,0
80,96,169255,1,2
160,208,169426,1,8
160,184,169512,1,0
160,160,169598,1,2
288,120,169769,5,0
312,120,169855,1,0
336,120,169940,1,2
360,120,170026,1,0
384,120,170112,2,0,B|432:120|432:120,3,45,10|0|2|0
429,120,170455,5,0
432,256,170626,1,2
429,120,170798,1,8
432,256,170969,1,2
312,192,171140,1,0
312,192,171483,1,10
80,328,171826,5,0
200,264,171998,1,2
80,200,172169,1,8
200,136,172340,1,2
80,72,172512,1,0
80,72,172598,1,0
80,72,172683,1,2
200,136,172855,5,8
320,72,173026,1,2
200,136,173198,1,0
200,136,173283,1,0
200,136,173369,1,2
320,200,173540,5,8
200,264,173712,1,2
320,200,173883,1,0
320,200,173969,1,0
320,200,174055,1,2
320,336,174226,5,8
200,264,174398,1,2
320,336,174569,1,0
320,336,174655,1,2
320,336,174740,1,2
200,264,174912,1,8
200,264,174998,1,2
200,264,175083,1,2
88,336,175255,5,0
88,336,175340,1,0
88,336,175426,1,2
88,336,175512,1,0
88,336,175598,2,0,B|88:384|88:384,3,45,12|2|2|2
88,336,175940,5,0
224,336,176112,1,2
224,200,176283,1,8
88,200,176455,1,2
224,200,176626,1,0
224,200,176969,1,10
456,336,177312,5,0
320,336,177483,1,2
320,200,177655,1,8
464,200,177826,1,2
392,264,177998,1,0
392,128,178169,1,2
256,128,178340,5,8
256,264,178512,1,2
320,200,178683,1,0
320,64,178855,1,2
456,64,179026,1,8
456,200,179198,1,2
320,200,179369,1,0
320,200,179712,1,10
88,200,180055,5,0
88,200,180140,1,2
88,200,180226,1,2
224,200,180398,1,8
224,200,180483,1,2
224,200,180569,1,2
160,80,180740,5,0
160,80,180826,1,2
160,80,180912,1,2
160,80,180998,1,2
160,80,181083,5,10
160,80,181255,1,2
224,200,181426,1,0
160,320,181598,1,2
96,200,181769,1,8
160,320,181940,1,2
224,200,182112,1,0
224,200,182455,1,10
384,40,182798,5,0
296,136,182969,1,2
384,40,183140,1,8
472,136,183312,1,2
384,232,183483,1,0
384,232,183569,1,0
384,232,183655,1,2
384,368,183826,5,8
384,368,183912,1,0
384,368,183998,1,2
272,296,184169,5,0
272,160,184340,1,2
152,224,184512,1,10
152,224,184598,1,0
152,224,184683,1,2
152,88,184855,5,0
272,24,185026,1,2
392,88,185198,1,10
392,88,185283,1,0
392,88,185369,1,2
400,224,185540,5,0
400,224,185626,1,0
400,224,185712,1,2
272,296,185883,1,2
272,296,185969,1,0
272,296,186055,1,2
272,160,186226,5,2
272,160,186312,1,0
272,160,186398,1,0
272,160,186483,1,2
272,160,186569,1,2
272,160,186655,1,0
272,160,186740,1,2
272,160,186826,1,0
272,160,186912,1,4
