osu file format v14

[General]
AudioFilename: Kozato - -Yue-.mp3
AudioLeadIn: 0
PreviewTime: 131320
Countdown: 0
SampleSet: None
StackLeniency: 0.2
Mode: 0
LetterboxInBreaks: 0
WidescreenStoryboard: 0

[Editor]
DistanceSpacing: 1.5
BeatDivisor: 4
GridSize: 4
TimelineZoom: 1

[Metadata]
Title:Tsuki -Yue-
TitleUnicode:月 -Yue-
Artist:Kozato
ArtistUnicode:Kozato
Creator:ktgster
Version:O
Source:
Tags:
BeatmapID:715044
BeatmapSetID:321437

[Difficulty]
HPDrainRate:4.5
CircleSize:5
OverallDifficulty:8.5
ApproachRate:8.5
SliderMultiplier:1.7
SliderTickRate:1

[Events]
//Background and Video events
0,0,"1234.jpg",0,0
//Break Periods
2,157120,169045
//Storyboard Layer 0 (Background)
//Storyboard Layer 1 (Fail)
//Storyboard Layer 2 (Pass)
//Storyboard Layer 3 (Foreground)
//Storyboard Sound Samples

[TimingPoints]
1720,400,4,2,1,40,1,0
41720,-100,4,2,1,40,0,1
67320,-100,4,2,1,40,0,0
131320,-100,4,2,1,40,0,1
156920,-100,4,2,1,40,0,0
222520,-100,4,2,1,40,0,1
248120,-100,4,2,1,40,0,0

[HitObjects]
36,332,16120,5,0,0:0:0:0:
113,298,16320,1,0,0:0:0:0:
188,337,16520,1,0,0:0:0:0:
260,292,16720,1,0,0:0:0:0:
325,346,16920,1,0,0:0:0:0:
325,346,17120,1,0,0:0:0:0:
394,297,17320,1,0,0:0:0:0:
307,221,17520,1,0,0:0:0:0:
470,54,17720,5,0,0:0:0:0:
393,88,17920,1,0,0:0:0:0:
318,49,18120,1,0,0:0:0:0:
246,94,18320,1,0,0:0:0:0:
181,40,18520,1,0,0:0:0:0:
181,40,18720,1,0,0:0:0:0:
112,89,18920,1,0,0:0:0:0:
177,143,19120,1,0,0:0:0:0:
23,334,19320,5,0,0:0:0:0:
93,287,19520,1,0,0:0:0:0:
175,311,19720,1,0,0:0:0:0:
93,287,19920,1,0,0:0:0:0:
155,229,20120,1,0,0:0:0:0:
175,311,20320,1,0,0:0:0:0:
74,203,20520,1,0,0:0:0:0:
218,169,20720,1,0,0:0:0:0:
247,355,20920,5,0,0:0:0:0:
307,294,21120,1,0,0:0:0:0:
367,354,21320,1,0,0:0:0:0:
427,293,21520,1,0,0:0:0:0:
489,149,21720,5,0,0:0:0:0:
429,210,21920,1,0,0:0:0:0:
369,150,22120,1,0,0:0:0:0:
309,211,22320,1,0,0:0:0:0:
225,27,22520,5,0,0:0:0:0:
164,87,22720,1,0,0:0:0:0:
224,147,22920,1,0,0:0:0:0:
163,207,23120,1,0,0:0:0:0:
78,219,23320,1,0,0:0:0:0:
2,179,23520,1,0,0:0:0:0:
74,134,23720,1,0,0:0:0:0:
83,303,23920,1,0,0:0:0:0:
281,359,24120,5,0,0:0:0:0:
342,299,24320,1,0,0:0:0:0:
282,239,24520,1,0,0:0:0:0:
343,179,24720,1,0,0:0:0:0:
428,167,24920,1,0,0:0:0:0:
504,207,25120,1,0,0:0:0:0:
432,252,25320,1,0,0:0:0:0:
428,167,25520,1,0,0:0:0:0:
253,29,25720,5,0,0:0:0:0:
169,44,25920,1,0,0:0:0:0:
270,43,26120,5,0,0:0:0:0:
172,61,26320,1,0,0:0:0:0:
290,58,26520,5,0,0:0:0:0:
177,77,26720,1,0,0:0:0:0:
310,74,26920,5,0,0:0:0:0:
183,98,27120,1,0,0:0:0:0:
206,195,27320,5,0,0:0:0:0:
122,210,27520,1,0,0:0:0:0:
223,209,27720,5,0,0:0:0:0:
125,227,27920,1,0,0:0:0:0:
243,224,28120,5,0,0:0:0:0:
130,243,28320,1,0,0:0:0:0:
202,331,28520,1,0,0:0:0:0:
202,331,28920,5,0,0:0:0:0:
283,355,29120,1,0,0:0:0:0:
365,333,29320,1,0,0:0:0:0:
445,359,29520,1,0,0:0:0:0:
427,275,29720,1,0,0:0:0:0:
365,333,29920,1,0,0:0:0:0:
490,218,30120,1,0,0:0:0:0:
365,333,30320,1,0,0:0:0:0:
304,55,30520,5,0,0:0:0:0:
223,31,30720,1,0,0:0:0:0:
141,53,30920,1,0,0:0:0:0:
61,27,31120,1,0,0:0:0:0:
79,111,31320,1,0,0:0:0:0:
203,139,31520,1,0,0:0:0:0:
111,185,31720,1,0,0:0:0:0:
203,139,31920,1,0,0:0:0:0:
92,350,32120,5,0,0:0:0:0:
152,289,32320,1,0,0:0:0:0:
231,319,32520,1,0,0:0:0:0:
291,258,32720,1,0,0:0:0:0:
314,339,32920,1,0,0:0:0:0:
291,258,33120,1,0,0:0:0:0:
209,236,33320,1,0,0:0:0:0:
350,196,33520,1,0,0:0:0:0:
468,79,33720,5,0,0:0:0:0:
393,37,33920,1,0,0:0:0:0:
313,67,34120,1,0,0:0:0:0:
236,30,34320,1,0,0:0:0:0:
37,144,34520,5,0,0:0:0:0:
112,186,34720,1,0,0:0:0:0:
192,156,34920,1,0,0:0:0:0:
269,193,35120,1,0,0:0:0:0:
460,303,35320,5,0,0:0:0:0:
399,363,35520,1,0,0:0:0:0:
338,302,35720,1,0,0:0:0:0:
400,244,35920,1,0,0:0:0:0:
460,303,36120,5,0,0:0:0:0:
338,302,36320,1,0,0:0:0:0:
399,363,36520,1,0,0:0:0:0:
400,244,36720,1,0,0:0:0:0:
203,176,36920,5,0,0:0:0:0:
264,236,37120,1,0,0:0:0:0:
325,175,37320,1,0,0:0:0:0:
263,117,37520,1,0,0:0:0:0:
203,176,37720,5,0,0:0:0:0:
325,175,37920,1,0,0:0:0:0:
264,236,38120,1,0,0:0:0:0:
203,176,38320,1,0,0:0:0:0:
263,117,38520,5,0,0:0:0:0:
344,92,38720,1,0,0:0:0:0:
325,175,38920,1,0,0:0:0:0:
263,117,39120,1,0,0:0:0:0:
264,236,39320,1,0,0:0:0:0:
325,175,39520,1,0,0:0:0:0:
344,92,39720,1,0,0:0:0:0:
203,176,39920,1,0,0:0:0:0:
345,256,40120,5,0,0:0:0:0:
286,317,40320,1,0,0:0:0:0:
368,338,40520,1,0,0:0:0:0:
286,317,40720,1,0,0:0:0:0:
209,355,40920,1,0,0:0:0:0:
215,270,41120,1,0,0:0:0:0:
286,317,41320,1,0,0:0:0:0:
286,317,41720,5,0,0:0:0:0:
286,317,42120,1,0,0:0:0:0:
363,281,42320,1,0,0:0:0:0:
397,255,42420,1,0,0:0:0:0:
357,239,42520,1,0,0:0:0:0:
230,222,42720,1,0,0:0:0:0:
308,121,42920,1,0,0:0:0:0:
36,44,43320,5,0,0:0:0:0:
162,25,43520,1,0,0:0:0:0:
87,128,43720,1,0,0:0:0:0:
162,25,43920,1,0,0:0:0:0:
137,59,44020,1,0,0:0:0:0:
179,64,44120,1,0,0:0:0:0:
247,13,44320,1,0,0:0:0:0:
272,138,44520,1,0,0:0:0:0:
247,13,44720,1,0,0:0:0:0:
473,46,44920,5,0,0:0:0:0:
347,68,45120,1,0,0:0:0:0:
473,46,45320,1,0,0:0:0:0:
430,166,45520,1,0,0:0:0:0:
446,126,45620,1,0,0:0:0:0:
416,95,45720,1,0,0:0:0:0:
350,149,45920,1,0,0:0:0:0:
473,46,46120,1,0,0:0:0:0:
347,68,46320,1,0,0:0:0:0:
353,237,46520,5,0,0:0:0:0:
425,280,46720,1,0,0:0:0:0:
466,286,46820,1,0,0:0:0:0:
450,246,46920,1,0,0:0:0:0:
300,347,47120,1,0,0:0:0:0:
259,353,47220,1,0,0:0:0:0:
275,313,47320,1,0,0:0:0:0:
234,319,47420,1,0,0:0:0:0:
250,279,47520,1,0,0:0:0:0:
208,285,47620,1,0,0:0:0:0:
166,292,47720,1,0,0:0:0:0:
124,281,47820,1,0,0:0:0:0:
165,271,47920,1,0,0:0:0:0:
123,260,48020,1,0,0:0:0:0:
164,250,48120,5,0,0:0:0:0:
198,127,48320,1,0,0:0:0:0:
239,133,48420,1,0,0:0:0:0:
223,93,48520,1,0,0:0:0:0:
348,66,48720,1,0,0:0:0:0:
307,72,48820,1,0,0:0:0:0:
323,32,48920,1,0,0:0:0:0:
345,157,49120,1,0,0:0:0:0:
423,56,49320,1,0,0:0:0:0:
369,291,49720,5,0,0:0:0:0:
345,157,49920,1,0,0:0:0:0:
369,291,50120,1,0,0:0:0:0:
247,252,50320,1,0,0:0:0:0:
288,242,50420,1,0,0:0:0:0:
258,211,50520,1,0,0:0:0:0:
285,335,50720,1,0,0:0:0:0:
375,222,50920,1,0,0:0:0:0:
166,276,51120,1,0,0:0:0:0:
472,185,51320,5,0,0:0:0:0:
472,57,51520,1,0,0:0:0:0:
361,120,51720,1,0,0:0:0:0:
472,185,51920,1,0,0:0:0:0:
432,170,52020,1,0,0:0:0:0:
438,211,52120,1,0,0:0:0:0:
472,57,52320,1,0,0:0:0:0:
472,185,52520,1,0,0:0:0:0:
361,120,52720,1,0,0:0:0:0:
255,49,52920,5,0,0:0:0:0:
213,58,53020,1,0,0:0:0:0:
171,67,53120,1,0,0:0:0:0:
129,76,53220,1,0,0:0:0:0:
171,85,53320,1,0,0:0:0:0:
213,94,53420,1,0,0:0:0:0:
255,103,53520,1,0,0:0:0:0:
213,112,53620,1,0,0:0:0:0:
171,121,53720,1,0,0:0:0:0:
213,130,53820,1,0,0:0:0:0:
171,139,53920,1,0,0:0:0:0:
213,148,54020,1,0,0:0:0:0:
171,157,54120,1,0,0:0:0:0:
72,238,54320,1,0,0:0:0:0:
129,266,54420,1,0,0:0:0:0:
188,289,54520,5,0,0:0:0:0:
438,218,54920,1,0,0:0:0:0:
390,308,55120,1,0,0:0:0:0:
341,292,55220,1,0,0:0:0:0:
351,341,55320,1,0,0:0:0:0:
226,312,55520,1,0,0:0:0:0:
426,272,55720,1,0,0:0:0:0:
426,272,56120,5,0,0:0:0:0:
285,304,56320,1,0,0:0:0:0:
426,272,56520,1,0,0:0:0:0:
294,211,56720,1,0,0:0:0:0:
246,192,56820,1,0,0:0:0:0:
286,161,56920,1,0,0:0:0:0:
349,271,57120,1,0,0:0:0:0:
221,271,57320,1,0,0:0:0:0:
221,271,57520,1,0,0:0:0:0:
426,272,57720,5,0,0:0:0:0:
324,272,57920,1,0,0:0:0:0:
375,184,58120,1,0,0:0:0:0:
375,360,58320,1,0,0:0:0:0:
347,316,58420,1,0,0:0:0:0:
324,272,58520,1,0,0:0:0:0:
426,272,58720,1,0,0:0:0:0:
375,184,58920,1,0,0:0:0:0:
375,360,59120,1,0,0:0:0:0:
324,272,59320,5,0,0:0:0:0:
247,170,59520,1,0,0:0:0:0:
295,186,59620,1,0,0:0:0:0:
284,136,59720,1,0,0:0:0:0:
142,299,59920,1,0,0:0:0:0:
129,249,60020,1,0,0:0:0:0:
93,285,60120,1,0,0:0:0:0:
86,234,60220,1,0,0:0:0:0:
73,184,60320,1,0,0:0:0:0:
37,220,60420,1,0,0:0:0:0:
24,170,60520,1,0,0:0:0:0:
73,184,60620,1,0,0:0:0:0:
122,198,60720,1,0,0:0:0:0:
129,249,60820,1,0,0:0:0:0:
142,299,60920,5,0,0:0:0:0:
181,149,61120,1,0,0:0:0:0:
201,195,61220,1,0,0:0:0:0:
232,154,61320,1,0,0:0:0:0:
287,268,61520,1,0,0:0:0:0:
267,314,61620,1,0,0:0:0:0:
236,273,61720,1,0,0:0:0:0:
181,149,61920,1,0,0:0:0:0:
287,268,62120,1,0,0:0:0:0:
287,268,62520,5,0,0:0:0:0:
410,301,62720,1,0,0:0:0:0:
287,268,62920,1,0,0:0:0:0:
410,301,63120,1,0,0:0:0:0:
377,262,63220,1,0,0:0:0:0:
427,253,63320,1,0,0:0:0:0:
325,362,63520,1,0,0:0:0:0:
385,152,63720,1,0,0:0:0:0:
410,301,63920,1,0,0:0:0:0:
254,152,64120,5,0,0:0:0:0:
160,111,64320,1,0,0:0:0:0:
242,51,64520,1,0,0:0:0:0:
171,212,64720,1,0,0:0:0:0:
178,262,64820,1,0,0:0:0:0:
130,243,64920,1,0,0:0:0:0:
254,152,65120,1,0,0:0:0:0:
160,111,65320,1,0,0:0:0:0:
242,51,65520,1,0,0:0:0:0:
274,253,65720,5,0,0:0:0:0:
288,301,65820,1,0,0:0:0:0:
286,250,65920,1,0,0:0:0:0:
300,298,66020,1,0,0:0:0:0:
298,247,66120,1,0,0:0:0:0:
312,295,66220,1,0,0:0:0:0:
310,244,66320,1,0,0:0:0:0:
324,292,66420,1,0,0:0:0:0:
321,241,66520,1,0,0:0:0:0:
335,289,66620,1,0,0:0:0:0:
333,238,66720,1,0,0:0:0:0:
347,286,66820,1,0,0:0:0:0:
345,235,66920,1,0,0:0:0:0:
359,283,67020,1,0,0:0:0:0:
357,232,67120,1,0,0:0:0:0:
371,280,67220,1,0,0:0:0:0:
368,229,67320,5,0,0:0:0:0:
202,268,67720,1,0,0:0:0:0:
368,229,68120,1,0,0:0:0:0:
334,307,68320,1,0,0:0:0:0:
418,298,68520,1,0,0:0:0:0:
334,307,68720,1,0,0:0:0:0:
452,219,68920,5,0,0:0:0:0:
426,185,69020,1,0,0:0:0:0:
400,151,69120,1,0,0:0:0:0:
384,189,69220,1,0,0:0:0:0:
368,229,69320,1,0,0:0:0:0:
418,298,69520,1,0,0:0:0:0:
400,151,69720,1,0,0:0:0:0:
452,219,69920,1,0,0:0:0:0:
334,307,70120,1,0,0:0:0:0:
400,151,70320,1,0,0:0:0:0:
502,288,70520,5,0,0:0:0:0:
327,209,70820,1,0,0:0:0:0:
483,98,71120,1,0,0:0:0:0:
483,98,71520,1,0,0:0:0:0:
448,175,71720,1,0,0:0:0:0:
398,105,71920,1,0,0:0:0:0:
448,175,72120,5,0,0:0:0:0:
433,28,72320,1,0,0:0:0:0:
448,175,72520,1,0,0:0:0:0:
433,28,72720,1,0,0:0:0:0:
433,28,73120,1,0,0:0:0:0:
391,31,73220,1,0,0:0:0:0:
348,35,73320,1,0,0:0:0:0:
389,42,73420,1,0,0:0:0:0:
430,50,73520,1,0,0:0:0:0:
388,53,73620,1,0,0:0:0:0:
345,57,73720,5,0,0:0:0:0:
178,21,74120,1,0,0:0:0:0:
334,87,74520,1,0,0:0:0:0:
167,51,74920,1,0,0:0:0:0:
323,111,75320,1,0,0:0:0:0:
156,147,75720,1,0,0:0:0:0:
325,137,76120,1,0,0:0:0:0:
158,173,76520,1,0,0:0:0:0:
272,298,76920,5,0,0:0:0:0:
272,298,77520,1,0,0:0:0:0:
314,303,77620,1,0,0:0:0:0:
297,263,77720,1,0,0:0:0:0:
266,183,77920,1,0,0:0:0:0:
297,263,78120,1,0,0:0:0:0:
314,303,78220,1,0,0:0:0:0:
339,268,78320,1,0,0:0:0:0:
392,334,78520,5,0,0:0:0:0:
59,261,79320,1,0,0:0:0:0:
450,173,80120,5,0,0:0:0:0:
372,138,80320,1,0,0:0:0:0:
356,177,80420,1,0,0:0:0:0:
365,219,80520,1,0,0:0:0:0:
313,286,80720,1,0,0:0:0:0:
365,219,80920,1,0,0:0:0:0:
398,297,81120,1,0,0:0:0:0:
313,286,81320,1,0,0:0:0:0:
365,219,81520,1,0,0:0:0:0:
346,364,81720,5,0,0:0:0:0:
329,324,81820,1,0,0:0:0:0:
313,286,81920,1,0,0:0:0:0:
288,320,82020,1,0,0:0:0:0:
264,355,82120,1,0,0:0:0:0:
229,277,82320,1,0,0:0:0:0:
179,346,82520,1,0,0:0:0:0:
279,208,82720,1,0,0:0:0:0:
109,191,82920,1,0,0:0:0:0:
209,53,83120,1,0,0:0:0:0:
191,222,83320,5,0,0:0:0:0:
209,53,83620,1,0,0:0:0:0:
204,95,83720,1,0,0:0:0:0:
191,222,83920,1,0,0:0:0:0:
191,222,84320,1,0,0:0:0:0:
209,53,84520,1,0,0:0:0:0:
191,222,84720,1,0,0:0:0:0:
294,148,84920,5,0,0:0:0:0:
209,141,85120,1,0,0:0:0:0:
251,144,85220,1,0,0:0:0:0:
294,148,85320,1,0,0:0:0:0:
209,141,85520,1,0,0:0:0:0:
354,229,85920,1,0,0:0:0:0:
312,232,86020,1,0,0:0:0:0:
269,236,86120,1,0,0:0:0:0:
310,243,86220,1,0,0:0:0:0:
351,251,86320,1,0,0:0:0:0:
309,254,86420,1,0,0:0:0:0:
266,258,86520,5,0,0:0:0:0:
279,131,86820,1,0,0:0:0:0:
283,88,86920,1,0,0:0:0:0:
275,172,87120,1,0,0:0:0:0:
352,138,87320,1,0,0:0:0:0:
194,128,87520,1,0,0:0:0:0:
291,56,87720,1,0,0:0:0:0:
254,209,87920,1,0,0:0:0:0:
489,250,88120,5,0,0:0:0:0:
425,306,88320,1,0,0:0:0:0:
383,297,88420,1,0,0:0:0:0:
341,289,88520,1,0,0:0:0:0:
276,343,88720,1,0,0:0:0:0:
355,374,88920,1,0,0:0:0:0:
413,214,89120,1,0,0:0:0:0:
431,382,89320,1,0,0:0:0:0:
489,250,89520,1,0,0:0:0:0:
321,276,89720,5,0,0:0:0:0:
443,311,90020,1,0,0:0:0:0:
401,300,90120,1,0,0:0:0:0:
321,276,90320,1,0,0:0:0:0:
361,289,90420,1,0,0:0:0:0:
401,300,90520,1,0,0:0:0:0:
413,214,90720,1,0,0:0:0:0:
332,185,90920,1,0,0:0:0:0:
292,172,91020,1,0,0:0:0:0:
323,143,91120,1,0,0:0:0:0:
206,321,91320,5,0,0:0:0:0:
164,330,91420,1,0,0:0:0:0:
155,288,91520,1,0,0:0:0:0:
197,280,91620,1,0,0:0:0:0:
206,321,91720,5,0,0:0:0:0:
164,330,91820,1,0,0:0:0:0:
155,288,91920,1,0,0:0:0:0:
197,280,92020,1,0,0:0:0:0:
206,321,92120,5,0,0:0:0:0:
155,288,92220,1,0,0:0:0:0:
193,241,92320,1,0,0:0:0:0:
244,274,92420,1,0,0:0:0:0:
206,321,92520,5,0,0:0:0:0:
147,246,92620,1,0,0:0:0:0:
241,232,92720,1,0,0:0:0:0:
168,85,92920,5,0,0:0:0:0:
268,33,93186,1,0,0:0:0:0:
168,85,93453,1,0,0:0:0:0:
275,118,93719,1,0,0:0:0:0:
168,85,93986,1,0,0:0:0:0:
220,183,94252,1,0,0:0:0:0:
168,85,94520,5,0,0:0:0:0:
137,164,94720,1,0,0:0:0:0:
84,97,94920,1,0,0:0:0:0:
168,85,95120,1,0,0:0:0:0:
137,164,95320,1,0,0:0:0:0:
119,202,95420,1,0,0:0:0:0:
161,199,95520,1,0,0:0:0:0:
230,247,95720,1,0,0:0:0:0:
193,323,95920,1,0,0:0:0:0:
405,304,96120,5,0,0:0:0:0:
305,356,96386,1,0,0:0:0:0:
405,304,96653,1,0,0:0:0:0:
298,271,96919,1,0,0:0:0:0:
405,304,97186,1,0,0:0:0:0:
353,206,97452,1,0,0:0:0:0:
405,304,97720,5,0,0:0:0:0:
488,289,97920,1,0,0:0:0:0:
433,224,98120,1,0,0:0:0:0:
488,289,98320,1,0,0:0:0:0:
320,317,98520,1,0,0:0:0:0:
488,289,98720,1,0,0:0:0:0:
372,163,98920,1,0,0:0:0:0:
488,289,99120,1,0,0:0:0:0:
326,235,99320,5,0,0:0:0:0:
266,174,99520,1,0,0:0:0:0:
247,212,99620,1,0,0:0:0:0:
223,176,99720,1,0,0:0:0:0:
204,214,99820,1,0,0:0:0:0:
187,253,99920,1,0,0:0:0:0:
187,253,100020,1,0,0:0:0:0:
168,291,100120,1,0,0:0:0:0:
127,304,100220,1,0,0:0:0:0:
98,272,100320,1,0,0:0:0:0:
139,259,100420,1,0,0:0:0:0:
136,216,100520,1,0,0:0:0:0:
95,229,100620,1,0,0:0:0:0:
66,197,100720,1,0,0:0:0:0:
107,184,100820,1,0,0:0:0:0:
116,142,100920,5,0,0:0:0:0:
147,171,101020,1,0,0:0:0:0:
124,135,101120,1,0,0:0:0:0:
155,164,101220,1,0,0:0:0:0:
132,128,101320,5,0,0:0:0:0:
194,102,101453,1,0,0:0:0:0:
254,132,101586,1,0,0:0:0:0:
315,103,101720,5,0,0:0:0:0:
346,132,101820,1,0,0:0:0:0:
323,96,101920,1,0,0:0:0:0:
354,125,102020,1,0,0:0:0:0:
329,89,102120,1,0,0:0:0:0:
360,118,102220,1,0,0:0:0:0:
336,82,102320,1,0,0:0:0:0:
367,111,102420,1,0,0:0:0:0:
344,74,102520,5,0,0:0:0:0:
472,219,102720,1,0,0:0:0:0:
429,214,102820,1,0,0:0:0:0:
386,209,102920,1,0,0:0:0:0:
425,225,103020,1,0,0:0:0:0:
382,220,103120,1,0,0:0:0:0:
339,215,103220,1,0,0:0:0:0:
375,236,103320,1,0,0:0:0:0:
332,231,103420,1,0,0:0:0:0:
371,247,103520,1,0,0:0:0:0:
328,242,103620,1,0,0:0:0:0:
366,260,103720,1,0,0:0:0:0:
314,254,103820,1,0,0:0:0:0:
361,271,103920,1,0,0:0:0:0:
309,265,104020,1,0,0:0:0:0:
356,283,104120,5,0,0:0:0:0:
305,289,104220,1,0,0:0:0:0:
254,295,104320,1,0,0:0:0:0:
208,351,104420,5,0,0:0:0:0:
157,345,104520,1,0,0:0:0:0:
106,339,104620,1,0,0:0:0:0:
57,285,104720,5,0,0:0:0:0:
63,234,104820,1,0,0:0:0:0:
69,183,104920,1,0,0:0:0:0:
121,140,105053,5,0,0:0:0:0:
114,72,105186,1,0,0:0:0:0:
121,140,105320,1,0,0:0:0:0:
188,200,105453,5,0,0:0:0:0:
181,268,105586,1,0,0:0:0:0:
188,200,105720,5,0,0:0:0:0:
343,131,106120,1,0,0:0:0:0:
265,165,106320,1,0,0:0:0:0:
303,147,106420,1,0,0:0:0:0:
343,131,106520,1,0,0:0:0:0:
265,164,106720,1,0,0:0:0:0:
188,200,106920,1,0,0:0:0:0:
188,200,107320,5,0,0:0:0:0:
256,250,107520,1,0,0:0:0:0:
265,165,107720,1,0,0:0:0:0:
178,284,107920,1,0,0:0:0:0:
178,284,108020,1,0,0:0:0:0:
178,284,108120,1,0,0:0:0:0:
334,216,108320,1,0,0:0:0:0:
178,284,108520,1,0,0:0:0:0:
334,216,108720,1,0,0:0:0:0:
204,116,108920,5,0,0:0:0:0:
233,195,109120,1,0,0:0:0:0:
288,130,109320,1,0,0:0:0:0:
204,116,109520,1,0,0:0:0:0:
165,98,109620,1,0,0:0:0:0:
200,74,109720,1,0,0:0:0:0:
233,195,109920,1,0,0:0:0:0:
270,29,110120,1,0,0:0:0:0:
270,29,110320,1,0,0:0:0:0:
233,195,110520,5,0,0:0:0:0:
176,258,110720,1,0,0:0:0:0:
133,263,110820,1,0,0:0:0:0:
151,224,110920,1,0,0:0:0:0:
308,287,111120,1,0,0:0:0:0:
351,282,111220,1,0,0:0:0:0:
333,321,111320,1,0,0:0:0:0:
351,282,111420,1,0,0:0:0:0:
369,243,111520,1,0,0:0:0:0:
453,248,111720,1,0,0:0:0:0:
435,287,111820,1,0,0:0:0:0:
417,326,111920,1,0,0:0:0:0:
435,287,112020,1,0,0:0:0:0:
453,248,112120,5,0,0:0:0:0:
410,174,112320,1,0,0:0:0:0:
369,161,112420,1,0,0:0:0:0:
369,118,112520,1,0,0:0:0:0:
218,229,112720,1,0,0:0:0:0:
259,216,112820,1,0,0:0:0:0:
259,173,112920,1,0,0:0:0:0:
259,88,113120,1,0,0:0:0:0:
259,88,113320,1,0,0:0:0:0:
259,88,113720,5,0,0:0:0:0:
259,216,113920,1,0,0:0:0:0:
259,88,114120,1,0,0:0:0:0:
203,152,114320,1,0,0:0:0:0:
160,152,114420,1,0,0:0:0:0:
203,152,114520,1,0,0:0:0:0:
118,152,114720,1,0,0:0:0:0:
315,152,114920,1,0,0:0:0:0:
400,152,115120,1,0,0:0:0:0:
485,152,115320,5,0,0:0:0:0:
400,152,115520,1,0,0:0:0:0:
442,78,115720,1,0,0:0:0:0:
400,152,115920,1,0,0:0:0:0:
382,190,116020,1,0,0:0:0:0:
424,187,116120,1,0,0:0:0:0:
410,270,116320,1,0,0:0:0:0:
485,152,116520,1,0,0:0:0:0:
499,321,116720,1,0,0:0:0:0:
331,349,116920,5,0,0:0:0:0:
288,343,117020,1,0,0:0:0:0:
245,340,117120,1,0,0:0:0:0:
288,334,117220,1,0,0:0:0:0:
328,320,117320,1,0,0:0:0:0:
285,314,117420,1,0,0:0:0:0:
242,311,117520,1,0,0:0:0:0:
285,305,117620,1,0,0:0:0:0:
326,293,117720,1,0,0:0:0:0:
283,287,117820,1,0,0:0:0:0:
240,284,117920,1,0,0:0:0:0:
283,278,118020,1,0,0:0:0:0:
325,272,118120,5,0,0:0:0:0:
262,262,118220,1,0,0:0:0:0:
199,252,118320,1,0,0:0:0:0:
136,242,118420,1,0,0:0:0:0:
72,232,118520,5,0,0:0:0:0:
72,232,118920,1,0,0:0:0:0:
115,158,119120,1,0,0:0:0:0:
74,144,119220,1,0,0:0:0:0:
106,116,119320,1,0,0:0:0:0:
188,136,119520,1,0,0:0:0:0:
255,84,119720,1,0,0:0:0:0:
255,84,120120,5,0,0:0:0:0:
188,136,120320,1,0,0:0:0:0:
266,169,120520,1,0,0:0:0:0:
175,52,120720,1,0,0:0:0:0:
182,93,120820,1,0,0:0:0:0:
188,136,120920,1,0,0:0:0:0:
266,169,121120,1,0,0:0:0:0:
188,136,121320,1,0,0:0:0:0:
255,84,121520,1,0,0:0:0:0:
333,117,121720,5,0,0:0:0:0:
266,169,121920,1,0,0:0:0:0:
188,136,122120,1,0,0:0:0:0:
266,169,122320,1,0,0:0:0:0:
298,142,122420,1,0,0:0:0:0:
333,117,122520,1,0,0:0:0:0:
266,169,122720,1,0,0:0:0:0:
333,117,122920,1,0,0:0:0:0:
266,169,123120,1,0,0:0:0:0:
344,202,123320,5,0,0:0:0:0:
308,279,123520,1,0,0:0:0:0:
288,317,123620,1,0,0:0:0:0:
330,316,123720,1,0,0:0:0:0:
463,324,123920,1,0,0:0:0:0:
483,362,124020,1,0,0:0:0:0:
441,361,124120,1,0,0:0:0:0:
483,362,124220,1,0,0:0:0:0:
463,324,124320,1,0,0:0:0:0:
416,252,124520,1,0,0:0:0:0:
396,214,124620,1,0,0:0:0:0:
438,215,124720,1,0,0:0:0:0:
396,214,124820,1,0,0:0:0:0:
416,252,124920,5,0,0:0:0:0:
395,258,125020,1,0,0:0:0:0:
374,263,125120,5,0,0:0:0:0:
331,261,125220,1,0,0:0:0:0:
350,298,125320,5,0,0:0:0:0:
329,303,125420,1,0,0:0:0:0:
309,310,125520,5,0,0:0:0:0:
266,308,125620,1,0,0:0:0:0:
285,345,125720,5,0,0:0:0:0:
264,350,125820,1,0,0:0:0:0:
222,341,125920,5,0,0:0:0:0:
201,346,126020,1,0,0:0:0:0:
161,329,126120,5,0,0:0:0:0:
140,334,126220,1,0,0:0:0:0:
119,339,126320,1,0,0:0:0:0:
98,344,126420,1,0,0:0:0:0:
65,316,126520,5,0,0:0:0:0:
72,296,126620,1,0,0:0:0:0:
102,265,126720,5,0,0:0:0:0:
95,245,126820,1,0,0:0:0:0:
64,214,126920,5,0,0:0:0:0:
71,194,127020,1,0,0:0:0:0:
101,163,127120,5,0,0:0:0:0:
88,122,127220,1,0,0:0:0:0:
129,131,127320,5,0,0:0:0:0:
149,125,127420,1,0,0:0:0:0:
179,94,127520,5,0,0:0:0:0:
199,100,127620,1,0,0:0:0:0:
229,130,127720,5,0,0:0:0:0:
249,124,127820,1,0,0:0:0:0:
279,93,127920,5,0,0:0:0:0:
299,99,128020,1,0,0:0:0:0:
329,129,128120,5,0,0:0:0:0:
349,123,128220,1,0,0:0:0:0:
379,153,128320,5,0,0:0:0:0:
375,173,128420,1,0,0:0:0:0:
344,203,128520,5,0,0:0:0:0:
348,223,128620,1,0,0:0:0:0:
378,253,128720,5,0,0:0:0:0:
356,289,128820,1,0,0:0:0:0:
398,291,128920,5,0,0:0:0:0:
421,272,129020,1,0,0:0:0:0:
471,274,129120,5,0,0:0:0:0:
474,244,129220,1,0,0:0:0:0:
509,207,129320,5,0,0:0:0:0:
490,183,129420,1,0,0:0:0:0:
508,135,129520,5,0,0:0:0:0:
478,131,129620,1,0,0:0:0:0:
440,165,129720,5,0,0:0:0:0:
413,208,129820,1,0,0:0:0:0:
389,162,129920,1,0,0:0:0:0:
364,206,130020,1,0,0:0:0:0:
337,163,130120,1,0,0:0:0:0:
313,209,130220,1,0,0:0:0:0:
290,163,130320,1,0,0:0:0:0:
263,206,130420,1,0,0:0:0:0:
239,160,130520,5,0,0:0:0:0:
210,102,130620,1,0,0:0:0:0:
239,160,130720,1,0,0:0:0:0:
210,102,130820,1,0,0:0:0:0:
128,251,130920,5,0,0:0:0:0:
171,164,131020,1,0,0:0:0:0:
128,251,131120,1,0,0:0:0:0:
171,164,131220,1,0,0:0:0:0:
227,345,131320,5,0,0:0:0:0:
353,123,131720,1,0,0:0:0:0:
397,242,131920,1,0,0:0:0:0:
367,298,132020,1,0,0:0:0:0:
430,297,132120,1,0,0:0:0:0:
314,242,132320,1,0,0:0:0:0:
227,345,132520,1,0,0:0:0:0:
227,345,132920,5,0,0:0:0:0:
367,298,133120,1,0,0:0:0:0:
227,345,133320,1,0,0:0:0:0:
125,268,133520,1,0,0:0:0:0:
172,309,133620,1,0,0:0:0:0:
227,345,133720,1,0,0:0:0:0:
242,218,133920,1,0,0:0:0:0:
227,345,134120,1,0,0:0:0:0:
125,268,134320,1,0,0:0:0:0:
486,253,134520,5,0,0:0:0:0:
367,298,134720,1,0,0:0:0:0:
387,172,134920,1,0,0:0:0:0:
435,290,135120,1,0,0:0:0:0:
413,230,135220,1,0,0:0:0:0:
387,172,135320,1,0,0:0:0:0:
268,219,135520,1,0,0:0:0:0:
486,253,135720,1,0,0:0:0:0:
367,298,135920,1,0,0:0:0:0:
493,131,136120,5,0,0:0:0:0:
399,43,136320,1,0,0:0:0:0:
349,83,136420,1,0,0:0:0:0:
408,106,136520,1,0,0:0:0:0:
228,97,136720,1,0,0:0:0:0:
278,137,136820,1,0,0:0:0:0:
219,160,136920,1,0,0:0:0:0:
159,138,137020,1,0,0:0:0:0:
110,178,137120,1,0,0:0:0:0:
169,200,137220,1,0,0:0:0:0:
184,261,137320,1,0,0:0:0:0:
244,239,137420,1,0,0:0:0:0:
293,279,137520,1,0,0:0:0:0:
234,301,137620,1,0,0:0:0:0:
303,216,137720,5,0,0:0:0:0:
303,216,137920,1,0,0:0:0:0:
293,279,138020,1,0,0:0:0:0:
244,239,138120,1,0,0:0:0:0:
110,178,138320,1,0,0:0:0:0:
159,138,138420,1,0,0:0:0:0:
169,200,138520,1,0,0:0:0:0:
91,300,138720,1,0,0:0:0:0:
293,279,138920,1,0,0:0:0:0:
293,279,139320,5,0,0:0:0:0:
269,153,139520,1,0,0:0:0:0:
293,279,139720,1,0,0:0:0:0:
389,195,139920,1,0,0:0:0:0:
342,238,140020,1,0,0:0:0:0:
402,258,140120,1,0,0:0:0:0:
378,132,140320,1,0,0:0:0:0:
282,216,140520,1,0,0:0:0:0:
402,258,140720,1,0,0:0:0:0:
305,341,140920,5,0,0:0:0:0:
378,132,141120,1,0,0:0:0:0:
402,258,141320,1,0,0:0:0:0:
282,216,141520,1,0,0:0:0:0:
331,176,141620,1,0,0:0:0:0:
378,132,141720,1,0,0:0:0:0:
284,45,141920,1,0,0:0:0:0:
174,110,142120,1,0,0:0:0:0:
67,39,142320,1,0,0:0:0:0:
22,307,142520,5,0,0:0:0:0:
83,289,142620,1,0,0:0:0:0:
68,351,142720,1,0,0:0:0:0:
129,333,142820,1,0,0:0:0:0:
144,271,142920,1,0,0:0:0:0:
205,253,143020,1,0,0:0:0:0:
190,315,143120,1,0,0:0:0:0:
251,297,143220,1,0,0:0:0:0:
266,235,143320,5,0,0:0:0:0:
312,278,143420,1,0,0:0:0:0:
327,216,143520,1,0,0:0:0:0:
266,235,143620,1,0,0:0:0:0:
312,278,143720,1,0,0:0:0:0:
341,154,143920,1,0,0:0:0:0:
327,216,144020,1,0,0:0:0:0:
312,278,144120,5,0,0:0:0:0:
366,28,144520,1,0,0:0:0:0:
341,154,144720,1,0,0:0:0:0:
355,91,144820,1,0,0:0:0:0:
327,216,144920,1,0,0:0:0:0:
355,91,145120,1,0,0:0:0:0:
327,216,145320,1,0,0:0:0:0:
148,34,145720,5,0,0:0:0:0:
78,140,145920,1,0,0:0:0:0:
148,34,146120,1,0,0:0:0:0:
205,148,146320,1,0,0:0:0:0:
179,88,146420,1,0,0:0:0:0:
236,203,146520,1,0,0:0:0:0:
108,194,146720,1,0,0:0:0:0:
179,88,146920,1,0,0:0:0:0:
108,194,147120,1,0,0:0:0:0:
222,138,147320,5,0,0:0:0:0:
337,83,147520,1,0,0:0:0:0:
327,210,147720,1,0,0:0:0:0:
337,83,147920,1,0,0:0:0:0:
332,146,148020,1,0,0:0:0:0:
342,19,148120,1,0,0:0:0:0:
447,91,148320,1,0,0:0:0:0:
332,146,148520,1,0,0:0:0:0:
226,74,148720,1,0,0:0:0:0:
447,91,148920,5,0,0:0:0:0:
467,216,149120,1,0,0:0:0:0:
479,278,149220,1,0,0:0:0:0:
456,153,149320,1,0,0:0:0:0:
337,105,149520,1,0,0:0:0:0:
325,167,149620,1,0,0:0:0:0:
348,42,149720,5,0,0:0:0:0:
284,42,149820,1,0,0:0:0:0:
238,87,149920,1,0,0:0:0:0:
174,87,150020,1,0,0:0:0:0:
238,87,150120,5,0,0:0:0:0:
174,87,150220,1,0,0:0:0:0:
128,132,150320,1,0,0:0:0:0:
64,132,150420,1,0,0:0:0:0:
18,177,150520,5,0,0:0:0:0:
144,194,150720,1,0,0:0:0:0:
128,132,150820,1,0,0:0:0:0:
82,177,150920,1,0,0:0:0:0:
82,177,151120,1,0,0:0:0:0:
128,132,151220,1,0,0:0:0:0:
144,194,151320,1,0,0:0:0:0:
81,305,151520,1,0,0:0:0:0:
82,177,151720,1,0,0:0:0:0:
253,365,152120,5,0,0:0:0:0:
253,237,152320,1,0,0:0:0:0:
253,109,152520,1,0,0:0:0:0:
253,237,152720,1,0,0:0:0:0:
253,173,152820,1,0,0:0:0:0:
253,300,152920,1,0,0:0:0:0:
253,109,153120,1,0,0:0:0:0:
253,365,153320,1,0,0:0:0:0:
253,109,153520,1,0,0:0:0:0:
460,318,153720,5,0,0:0:0:0:
372,225,153920,1,0,0:0:0:0:
496,196,154120,1,0,0:0:0:0:
372,225,154320,1,0,0:0:0:0:
434,210,154420,1,0,0:0:0:0:
310,241,154520,1,0,0:0:0:0:
283,116,154720,1,0,0:0:0:0:
189,202,154920,1,0,0:0:0:0:
310,241,155120,1,0,0:0:0:0:
189,202,155320,5,0,0:0:0:0:
163,260,155420,1,0,0:0:0:0:
226,254,155520,1,0,0:0:0:0:
200,312,155620,1,0,0:0:0:0:
136,318,155720,1,0,0:0:0:0:
99,266,155820,1,0,0:0:0:0:
67,210,155920,1,0,0:0:0:0:
36,154,156020,1,0,0:0:0:0:
81,108,156120,5,0,2:0:0:0:
143,71,156220,1,0,2:0:0:0:
145,143,156320,1,0,2:0:0:0:
79,36,156420,1,0,2:0:0:0:
205,33,156520,5,0,2:0:0:0:
145,143,156620,1,0,2:0:0:0:
79,36,156720,1,0,2:0:0:0:
256,328,156920,5,0,0:0:0:0:
43,340,169720,5,0,0:0:0:0:
167,314,170020,1,0,0:0:0:0:
125,323,170120,1,0,0:0:0:0:
208,306,170320,1,0,0:0:0:0:
125,323,170520,1,0,0:0:0:0:
208,306,170720,1,0,0:0:0:0:
151,242,170920,1,0,0:0:0:0:
208,306,171120,1,0,0:0:0:0:
291,290,171320,5,0,0:0:0:0:
167,314,171620,1,0,0:0:0:0:
208,306,171720,1,0,0:0:0:0:
264,371,171920,1,0,0:0:0:0:
291,290,172120,1,0,0:0:0:0:
264,371,172320,1,0,0:0:0:0:
236,225,172520,1,0,0:0:0:0:
264,371,172720,1,0,0:0:0:0:
320,210,172920,5,0,0:0:0:0:
277,330,173220,1,0,0:0:0:0:
291,290,173320,1,0,0:0:0:0:
374,276,173520,1,0,0:0:0:0:
320,210,173720,1,0,0:0:0:0:
345,356,173920,1,0,0:0:0:0:
236,225,174120,1,0,0:0:0:0:
345,356,174320,1,0,0:0:0:0:
374,276,174520,5,0,0:0:0:0:
345,356,174720,1,0,0:0:0:0:
359,316,174820,1,0,0:0:0:0:
374,276,174920,1,0,0:0:0:0:
428,341,175120,1,0,0:0:0:0:
458,261,175320,1,0,0:0:0:0:
428,341,175520,1,0,0:0:0:0:
400,308,175620,1,0,0:0:0:0:
374,276,175720,1,0,0:0:0:0:
458,261,175920,1,0,0:0:0:0:
345,356,176120,5,0,0:0:0:0:
389,236,176420,1,0,0:0:0:0:
374,276,176520,1,0,0:0:0:0:
428,341,176720,1,0,0:0:0:0:
458,261,176920,1,0,0:0:0:0:
345,356,177120,1,0,0:0:0:0:
511,324,177320,1,0,0:0:0:0:
345,356,177520,1,0,0:0:0:0:
458,261,177720,5,0,0:0:0:0:
374,276,177920,1,0,0:0:0:0:
415,268,178020,1,0,0:0:0:0:
458,261,178120,1,0,0:0:0:0:
428,341,178320,1,0,0:0:0:0:
405,193,178520,1,0,0:0:0:0:
428,341,178720,1,0,0:0:0:0:
458,261,178920,1,0,0:0:0:0:
428,341,179120,1,0,0:0:0:0:
374,276,179320,5,0,0:0:0:0:
458,261,179520,1,0,0:0:0:0:
415,268,179620,1,0,0:0:0:0:
374,276,179720,1,0,0:0:0:0:
428,341,179920,1,0,0:0:0:0:
405,193,180120,1,0,0:0:0:0:
428,341,180320,1,0,0:0:0:0:
321,208,180520,1,0,0:0:0:0:
428,341,180720,1,0,0:0:0:0:
458,261,180920,5,0,0:0:0:0:
405,193,181120,1,0,0:0:0:0:
363,200,181220,1,0,0:0:0:0:
321,208,181320,1,0,0:0:0:0:
374,276,181520,1,0,0:0:0:0:
435,113,181720,1,0,0:0:0:0:
263,141,181920,1,0,0:0:0:0:
305,134,182020,1,0,0:0:0:0:
347,126,182120,1,0,0:0:0:0:
435,113,182320,1,0,0:0:0:0:
374,276,182520,5,0,0:0:0:0:
274,224,182786,1,0,0:0:0:0:
374,276,183053,1,0,0:0:0:0:
267,309,183319,1,0,0:0:0:0:
374,276,183586,1,0,0:0:0:0:
322,374,183852,1,0,0:0:0:0:
374,276,184120,5,0,0:0:0:0:
457,262,184320,1,0,0:0:0:0:
372,262,184520,1,0,0:0:0:0:
455,248,184720,1,0,0:0:0:0:
346,256,184920,5,0,0:0:0:0:
477,233,185120,1,0,0:0:0:0:
343,233,185320,1,0,0:0:0:0:
474,211,185520,1,0,0:0:0:0:
338,211,185720,5,0,0:0:0:0:
417,130,185986,1,0,0:0:0:0:
338,211,186253,1,0,0:0:0:0:
449,209,186519,1,0,0:0:0:0:
338,211,186786,1,0,0:0:0:0:
417,288,187052,1,0,0:0:0:0:
338,211,187320,5,0,0:0:0:0:
324,128,187520,1,0,0:0:0:0:
324,213,187720,1,0,0:0:0:0:
310,130,187920,1,0,0:0:0:0:
318,239,188120,5,0,0:0:0:0:
295,108,188320,1,0,0:0:0:0:
295,242,188520,1,0,0:0:0:0:
273,111,188720,1,0,0:0:0:0:
273,247,188920,5,0,0:0:0:0:
194,214,189120,1,0,0:0:0:0:
200,256,189220,1,0,0:0:0:0:
160,240,189320,1,0,0:0:0:0:
154,198,189420,1,0,0:0:0:0:
194,214,189520,1,0,0:0:0:0:
187,172,189620,1,0,0:0:0:0:
229,172,189720,1,0,0:0:0:0:
222,214,189820,1,0,0:0:0:0:
262,198,189920,1,0,0:0:0:0:
256,240,190020,1,0,0:0:0:0:
294,222,190120,1,0,0:0:0:0:
327,248,190220,1,0,0:0:0:0:
287,264,190320,1,0,0:0:0:0:
321,290,190420,1,0,0:0:0:0:
360,275,190520,5,0,0:0:0:0:
354,317,190620,1,0,0:0:0:0:
393,302,190720,1,0,0:0:0:0:
400,260,190820,1,0,0:0:0:0:
366,233,190920,5,0,0:0:0:0:
340,171,191053,1,0,0:0:0:0:
370,111,191186,1,0,0:0:0:0:
341,50,191320,5,0,0:0:0:0:
299,56,191420,1,0,0:0:0:0:
314,17,191520,1,0,0:0:0:0:
356,10,191620,1,0,0:0:0:0:
383,42,191720,1,0,0:0:0:0:
369,82,191820,1,0,0:0:0:0:
327,88,191920,1,0,0:0:0:0:
299,56,192020,1,0,0:0:0:0:
341,50,192120,5,0,0:0:0:0:
358,133,192320,1,0,0:0:0:0:
367,174,192420,1,0,0:0:0:0:
376,215,192520,1,0,0:0:0:0:
347,183,192620,1,0,0:0:0:0:
356,224,192720,1,0,0:0:0:0:
365,265,192820,1,0,0:0:0:0:
335,234,192920,1,0,0:0:0:0:
344,275,193020,1,0,0:0:0:0:
353,316,193120,1,0,0:0:0:0:
324,284,193220,1,0,0:0:0:0:
333,325,193320,1,0,0:0:0:0:
342,366,193420,1,0,0:0:0:0:
309,332,193520,1,0,0:0:0:0:
300,291,193620,1,0,0:0:0:0:
290,249,193720,5,0,0:0:0:0:
249,261,193820,1,0,0:0:0:0:
260,220,193920,1,0,0:0:0:0:
311,168,194020,5,0,0:0:0:0:
352,180,194120,1,0,0:0:0:0:
341,139,194220,1,0,0:0:0:0:
289,87,194320,5,0,0:0:0:0:
248,99,194420,1,0,0:0:0:0:
259,58,194520,5,0,0:0:0:0:
191,65,194653,1,0,0:0:0:0:
259,58,194787,1,0,0:0:0:0:
56,165,194920,5,0,0:0:0:0:
151,174,195053,1,0,0:0:0:0:
96,253,195186,1,0,0:0:0:0:
151,174,195320,5,0,0:0:0:0:
96,253,196653,5,0,0:0:0:0:
96,253,196786,1,0,0:0:0:0:
96,253,196920,1,0,0:0:0:0:
65,173,197120,1,0,0:0:0:0:
79,213,197220,1,0,0:0:0:0:
107,181,197320,1,0,0:0:0:0:
191,178,197520,1,0,0:0:0:0:
177,218,197620,1,0,0:0:0:0:
149,186,197720,1,0,0:0:0:0:
232,169,197920,1,0,0:0:0:0:
191,178,198020,1,0,0:0:0:0:
149,186,198120,1,0,0:0:0:0:
204,250,198320,1,0,0:0:0:0:
175,105,198520,5,0,0:0:0:0:
232,169,198720,1,0,0:0:0:0:
204,136,198820,1,0,0:0:0:0:
175,105,198920,1,0,0:0:0:0:
259,88,199120,1,0,0:0:0:0:
216,96,199220,1,0,0:0:0:0:
175,105,199320,1,0,0:0:0:0:
232,169,199520,1,0,0:0:0:0:
247,129,199620,1,0,0:0:0:0:
259,88,199720,1,0,0:0:0:0:
202,24,199920,1,0,0:0:0:0:
232,169,200120,5,0,0:0:0:0:
259,88,200320,1,0,0:0:0:0:
300,78,200420,1,0,0:0:0:0:
288,118,200520,1,0,0:0:0:0:
371,100,200720,1,0,0:0:0:0:
330,110,200820,1,0,0:0:0:0:
342,70,200920,1,0,0:0:0:0:
403,128,201120,1,0,0:0:0:0:
362,141,201220,1,0,0:0:0:0:
371,100,201320,1,0,0:0:0:0:
436,154,201520,1,0,0:0:0:0:
356,184,201720,5,0,0:0:0:0:
436,154,201920,1,0,0:0:0:0:
429,195,202020,1,0,0:0:0:0:
469,181,202120,1,0,0:0:0:0:
389,211,202320,1,0,0:0:0:0:
349,226,202420,1,0,0:0:0:0:
381,253,202520,1,0,0:0:0:0:
420,237,202620,1,0,0:0:0:0:
459,222,202720,1,0,0:0:0:0:
453,264,202820,1,0,0:0:0:0:
414,280,202920,1,0,0:0:0:0:
447,306,203020,1,0,0:0:0:0:
407,322,203120,1,0,0:0:0:0:
373,295,203220,1,0,0:0:0:0:
340,268,203320,5,0,0:0:0:0:
301,343,203520,1,0,0:0:0:0:
317,304,203620,1,0,0:0:0:0:
275,310,203720,1,0,0:0:0:0:
191,322,203920,1,0,0:0:0:0:
233,316,204020,1,0,0:0:0:0:
207,282,204120,1,0,0:0:0:0:
268,223,204320,1,0,0:0:0:0:
237,252,204420,1,0,0:0:0:0:
207,282,204520,1,0,0:0:0:0:
175,361,204720,1,0,0:0:0:0:
123,293,204920,5,0,0:0:0:0:
207,282,205120,1,0,0:0:0:0:
197,240,205220,1,0,0:0:0:0:
186,199,205320,1,0,0:0:0:0:
268,223,205520,1,0,0:0:0:0:
228,208,205620,1,0,0:0:0:0:
186,199,205720,1,0,0:0:0:0:
207,282,205920,1,0,0:0:0:0:
237,252,206020,1,0,0:0:0:0:
268,223,206120,1,0,0:0:0:0:
186,199,206320,1,0,0:0:0:0:
247,140,206520,5,0,0:0:0:0:
268,223,206720,1,0,0:0:0:0:
258,181,206820,1,0,0:0:0:0:
298,193,206920,1,0,0:0:0:0:
331,271,207120,1,0,0:0:0:0:
383,203,207320,1,0,0:0:0:0:
298,193,207520,1,0,0:0:0:0:
340,196,207620,1,0,0:0:0:0:
383,203,207720,1,0,0:0:0:0:
349,124,207920,1,0,0:0:0:0:
331,271,208120,5,0,0:0:0:0:
356,236,208220,1,0,0:0:0:0:
383,203,208320,1,0,0:0:0:0:
383,245,208420,1,0,0:0:0:0:
408,210,208520,1,0,0:0:0:0:
435,177,208620,1,0,0:0:0:0:
436,219,208720,1,0,0:0:0:0:
461,184,208820,1,0,0:0:0:0:
488,151,208920,5,0,0:0:0:0:
488,193,209020,1,0,0:0:0:0:
488,235,209120,1,0,0:0:0:0:
488,277,209220,1,0,0:0:0:0:
488,319,209320,5,0,0:0:0:0:
488,255,209420,1,0,0:0:0:0:
488,191,209520,1,0,0:0:0:0:
488,127,209620,1,0,0:0:0:0:
488,63,209720,5,0,0:0:0:0:
388,85,209920,1,0,0:0:0:0:
338,96,210020,1,0,0:0:0:0:
288,108,210120,1,0,0:0:0:0:
288,108,210320,1,0,0:0:0:0:
338,118,210420,1,0,0:0:0:0:
388,129,210520,1,0,0:0:0:0:
338,140,210620,1,0,0:0:0:0:
288,152,210720,1,0,0:0:0:0:
388,175,210920,1,0,0:0:0:0:
288,198,211120,1,0,0:0:0:0:
319,100,211320,5,0,0:0:0:0:
288,198,211520,1,0,0:0:0:0:
337,186,211620,1,0,0:0:0:0:
388,175,211720,1,0,0:0:0:0:
388,175,211920,1,0,0:0:0:0:
337,186,212020,1,0,0:0:0:0:
288,198,212120,1,0,0:0:0:0:
388,175,212320,1,0,0:0:0:0:
337,186,212420,1,0,0:0:0:0:
288,198,212520,1,0,0:0:0:0:
300,148,212620,1,0,0:0:0:0:
319,100,212720,1,0,0:0:0:0:
388,175,212920,5,0,0:0:0:0:
288,198,213120,1,0,0:0:0:0:
337,186,213220,1,0,0:0:0:0:
300,148,213320,1,0,0:0:0:0:
276,248,213520,1,0,0:0:0:0:
325,236,213620,1,0,0:0:0:0:
288,198,213720,1,0,0:0:0:0:
264,298,213920,1,0,0:0:0:0:
313,286,214020,1,0,0:0:0:0:
276,248,214120,1,0,0:0:0:0:
252,348,214320,1,0,0:0:0:0:
349,319,214520,5,0,0:0:0:0:
252,348,214720,1,0,0:0:0:0:
301,336,214820,1,0,0:0:0:0:
264,298,214920,1,0,0:0:0:0:
264,298,215120,1,0,0:0:0:0:
301,336,215220,1,0,0:0:0:0:
252,348,215320,1,0,0:0:0:0:
264,298,215420,1,0,0:0:0:0:
276,248,215520,1,0,0:0:0:0:
313,286,215620,1,0,0:0:0:0:
325,236,215720,1,0,0:0:0:0:
288,198,215820,1,0,0:0:0:0:
300,148,215920,1,0,0:0:0:0:
349,136,216020,1,0,0:0:0:0:
337,186,216120,5,0,0:0:0:0:
348,190,216220,1,0,0:0:0:0:
359,195,216320,1,0,0:0:0:0:
393,170,216420,1,0,0:0:0:0:
398,212,216520,5,0,0:0:0:0:
409,216,216620,1,0,0:0:0:0:
420,221,216720,1,0,0:0:0:0:
454,196,216820,1,0,0:0:0:0:
459,238,216920,5,0,0:0:0:0:
460,250,217020,1,0,0:0:0:0:
429,280,217120,5,0,0:0:0:0:
430,292,217220,1,0,0:0:0:0:
399,322,217320,5,0,0:0:0:0:
400,334,217420,1,0,0:0:0:0:
401,346,217520,1,0,0:0:0:0:
402,358,217620,1,0,0:0:0:0:
319,377,217720,5,0,0:0:0:0:
318,365,217820,1,0,0:0:0:0:
287,334,217920,5,0,0:0:0:0:
286,322,218020,1,0,0:0:0:0:
255,291,218120,5,0,0:0:0:0:
254,279,218220,1,0,0:0:0:0:
223,248,218320,1,0,0:0:0:0:
192,278,218420,1,0,0:0:0:0:
161,247,218520,5,0,0:0:0:0:
162,235,218620,1,0,0:0:0:0:
193,204,218720,5,0,0:0:0:0:
194,192,218820,1,0,0:0:0:0:
224,161,218920,5,0,0:0:0:0:
225,149,219020,1,0,0:0:0:0:
256,118,219120,5,0,0:0:0:0:
257,106,219220,1,0,0:0:0:0:
339,86,219320,5,0,0:0:0:0:
338,98,219420,1,0,0:0:0:0:
368,128,219520,5,0,0:0:0:0:
367,140,219620,1,0,0:0:0:0:
336,171,219720,5,0,0:0:0:0:
335,183,219820,1,0,0:0:0:0:
365,213,219920,5,0,0:0:0:0:
361,255,220020,1,0,0:0:0:0:
259,318,220120,5,0,0:0:0:0:
260,306,220220,1,0,0:0:0:0:
230,276,220320,5,0,0:0:0:0:
231,264,220420,1,0,0:0:0:0:
262,233,220520,5,0,0:0:0:0:
263,221,220620,1,0,0:0:0:0:
232,190,220720,5,0,0:0:0:0:
233,178,220820,1,0,0:0:0:0:
202,147,220920,5,0,0:0:0:0:
165,183,221020,1,0,0:0:0:0:
202,147,221120,1,0,0:0:0:0:
152,133,221220,1,0,0:0:0:0:
202,147,221320,1,0,0:0:0:0:
189,97,221420,1,0,0:0:0:0:
202,147,221520,1,0,0:0:0:0:
238,111,221620,1,0,0:0:0:0:
202,147,221720,1,0,0:0:0:0:
251,161,221820,1,0,0:0:0:0:
202,147,221920,1,0,0:0:0:0:
214,196,222020,1,0,0:0:0:0:
202,147,222120,5,0,0:0:0:0:
263,131,222220,1,0,0:0:0:0:
324,115,222320,1,0,0:0:0:0:
385,99,222420,1,0,0:0:0:0:
324,115,222520,5,0,0:0:0:0:
42,181,222920,1,0,0:0:0:0:
122,300,223120,1,0,0:0:0:0:
79,241,223220,1,0,0:0:0:0:
151,234,223320,1,0,0:0:0:0:
96,367,223520,1,0,0:0:0:0:
239,349,223720,1,0,0:0:0:0:
239,349,224120,5,0,0:0:0:0:
96,367,224320,1,0,0:0:0:0:
151,234,224520,1,0,0:0:0:0:
239,349,224720,1,0,0:0:0:0:
198,289,224820,1,0,0:0:0:0:
167,354,224920,1,0,0:0:0:0:
239,349,225020,1,0,0:0:0:0:
310,342,225120,1,0,0:0:0:0:
268,282,225220,1,0,0:0:0:0:
226,222,225320,1,0,0:0:0:0:
198,289,225420,1,0,0:0:0:0:
167,354,225520,1,0,0:0:0:0:
239,349,225620,1,0,0:0:0:0:
310,342,225720,5,0,0:0:0:0:
453,330,225920,1,0,0:0:0:0:
369,210,226120,1,0,0:0:0:0:
310,342,226320,1,0,0:0:0:0:
381,333,226420,1,0,0:0:0:0:
337,275,226520,1,0,0:0:0:0:
409,270,226620,1,0,0:0:0:0:
369,210,226720,1,0,0:0:0:0:
369,210,226920,1,0,0:0:0:0:
409,270,227020,1,0,0:0:0:0:
337,275,227120,1,0,0:0:0:0:
399,144,227320,5,0,0:0:0:0:
481,262,227520,1,0,0:0:0:0:
409,270,227620,1,0,0:0:0:0:
337,275,227720,1,0,0:0:0:0:
369,210,227820,1,0,0:0:0:0:
441,202,227920,1,0,0:0:0:0:
399,144,228020,1,0,0:0:0:0:
369,210,228120,1,0,0:0:0:0:
441,202,228220,1,0,0:0:0:0:
481,262,228320,1,0,0:0:0:0:
409,270,228420,1,0,0:0:0:0:
337,275,228520,1,0,0:0:0:0:
369,210,228620,1,0,0:0:0:0:
399,144,228720,1,0,0:0:0:0:
441,202,228820,1,0,0:0:0:0:
481,262,228920,5,0,0:0:0:0:
399,144,229120,1,0,0:0:0:0:
369,210,229220,1,0,0:0:0:0:
327,151,229320,1,0,0:0:0:0:
409,270,229520,1,0,0:0:0:0:
369,210,229620,1,0,0:0:0:0:
337,275,229720,1,0,0:0:0:0:
202,223,229920,1,0,0:0:0:0:
223,365,230120,1,0,0:0:0:0:
223,365,230520,5,0,0:0:0:0:
337,275,230720,1,0,0:0:0:0:
202,223,230920,1,0,0:0:0:0:
223,365,231120,1,0,0:0:0:0:
212,294,231220,1,0,0:0:0:0:
202,223,231320,1,0,0:0:0:0:
145,267,231420,1,0,0:0:0:0:
212,294,231520,1,0,0:0:0:0:
269,250,231620,1,0,0:0:0:0:
259,178,231720,1,0,0:0:0:0:
192,151,231820,1,0,0:0:0:0:
135,196,231920,1,0,0:0:0:0:
145,267,232020,1,0,0:0:0:0:
212,294,232120,5,0,0:0:0:0:
192,151,232320,1,0,0:0:0:0:
326,205,232520,1,0,0:0:0:0:
212,294,232720,1,0,0:0:0:0:
269,250,232820,1,0,0:0:0:0:
202,223,232920,1,0,0:0:0:0:
259,178,233020,1,0,0:0:0:0:
326,205,233120,1,0,0:0:0:0:
336,276,233220,1,0,0:0:0:0:
279,321,233320,1,0,0:0:0:0:
269,250,233420,1,0,0:0:0:0:
202,223,233520,1,0,0:0:0:0:
212,294,233620,1,0,0:0:0:0:
279,321,233720,5,0,0:0:0:0:
336,276,233820,1,0,0:0:0:0:
269,250,233920,1,0,0:0:0:0:
326,205,234020,1,0,0:0:0:0:
259,178,234120,1,0,0:0:0:0:
316,134,234220,1,0,0:0:0:0:
249,107,234320,1,0,0:0:0:0:
305,62,234420,1,0,0:0:0:0:
239,35,234520,1,0,0:0:0:0:
249,107,234620,1,0,0:0:0:0:
316,134,234720,1,0,0:0:0:0:
326,205,234820,1,0,0:0:0:0:
269,250,234920,1,0,0:0:0:0:
279,321,235020,1,0,0:0:0:0:
346,348,235120,1,0,0:0:0:0:
336,276,235220,1,0,0:0:0:0:
403,303,235320,5,0,0:0:0:0:
403,303,235720,1,0,0:0:0:0:
383,161,235920,1,0,0:0:0:0:
326,205,236020,1,0,0:0:0:0:
393,232,236120,1,0,0:0:0:0:
373,89,236320,1,0,0:0:0:0:
259,178,236520,1,0,0:0:0:0:
259,178,236920,5,0,0:0:0:0:
393,232,237120,1,0,0:0:0:0:
259,178,237320,1,0,0:0:0:0:
119,216,237520,1,0,0:0:0:0:
49,235,237620,1,0,0:0:0:0:
189,197,237720,5,0,0:0:0:0:
171,267,237820,1,0,0:0:0:0:
101,286,237920,1,0,0:0:0:0:
49,235,238020,1,0,0:0:0:0:
68,165,238120,1,0,0:0:0:0:
138,146,238220,1,0,0:0:0:0:
119,216,238320,1,0,0:0:0:0:
101,286,238420,1,0,0:0:0:0:
83,356,238520,5,0,0:0:0:0:
119,216,238720,1,0,0:0:0:0:
222,317,238920,1,0,0:0:0:0:
258,177,239120,1,0,0:0:0:0:
240,247,239220,1,0,0:0:0:0:
276,107,239320,5,0,0:0:0:0:
327,158,239420,1,0,0:0:0:0:
310,228,239520,1,0,0:0:0:0:
258,177,239620,1,0,0:0:0:0:
240,247,239720,1,0,0:0:0:0:
310,228,239820,1,0,0:0:0:0:
327,158,239920,1,0,0:0:0:0:
397,139,240020,1,0,0:0:0:0:
414,69,240120,5,0,0:0:0:0:
380,210,240320,1,0,0:0:0:0:
310,228,240420,1,0,0:0:0:0:
327,158,240520,1,0,0:0:0:0:
258,177,240620,1,0,0:0:0:0:
240,247,240720,1,0,0:0:0:0:
292,298,240820,1,0,0:0:0:0:
362,280,240920,5,0,0:0:0:0:
310,228,241020,1,0,0:0:0:0:
240,247,241120,1,0,0:0:0:0:
222,317,241220,1,0,0:0:0:0:
292,298,241320,1,0,0:0:0:0:
240,247,241420,1,0,0:0:0:0:
310,228,241520,1,0,0:0:0:0:
258,177,241620,1,0,0:0:0:0:
188,196,241720,5,0,0:0:0:0:
327,158,241920,1,0,0:0:0:0:
310,228,242020,1,0,0:0:0:0:
258,177,242120,1,0,0:0:0:0:
222,317,242320,1,0,0:0:0:0:
239,247,242420,1,0,0:0:0:0:
291,298,242520,1,0,0:0:0:0:
327,158,242720,1,0,0:0:0:0:
188,196,242920,1,0,0:0:0:0:
188,196,243320,5,0,0:0:0:0:
152,336,243520,1,0,0:0:0:0:
291,298,243720,1,0,0:0:0:0:
327,158,243920,1,0,0:0:0:0:
310,228,244020,1,0,0:0:0:0:
258,177,244120,1,0,0:0:0:0:
239,247,244220,1,0,0:0:0:0:
222,317,244320,1,0,0:0:0:0:
170,266,244420,1,0,0:0:0:0:
152,336,244520,1,0,0:0:0:0:
100,285,244620,1,0,0:0:0:0:
119,215,244720,1,0,0:0:0:0:
67,164,244820,1,0,0:0:0:0:
86,94,244920,5,0,0:0:0:0:
49,234,245120,1,0,0:0:0:0:
188,196,245320,1,0,0:0:0:0:
152,336,245520,1,0,0:0:0:0:
100,285,245620,1,0,0:0:0:0:
170,266,245720,1,0,0:0:0:0:
49,234,245920,1,0,0:0:0:0:
119,215,246020,1,0,0:0:0:0:
188,196,246120,1,0,0:0:0:0:
170,266,246220,1,0,0:0:0:0:
152,336,246320,1,0,0:0:0:0:
100,285,246420,1,0,0:0:0:0:
119,215,246520,5,0,0:0:0:0:
135,131,246620,1,0,0:0:0:0:
55,160,246720,1,0,0:0:0:0:
70,76,246820,1,0,0:0:0:0:
199,186,246920,5,0,0:0:0:0:
215,102,247020,1,0,0:0:0:0:
135,131,247120,1,0,0:0:0:0:
150,47,247220,1,0,0:0:0:0:
279,157,247320,5,0,0:0:0:0:
295,73,247420,1,0,0:0:0:0:
359,128,247520,1,0,0:0:0:0:
344,212,247620,1,0,0:0:0:0:
264,241,247720,5,0,0:0:0:0:
344,212,247820,1,0,0:0:0:0:
395,279,247920,1,0,0:0:0:0:
349,350,248020,1,0,0:0:0:0:
267,326,248120,5,0,0:0:0:0:
