osu file format v14

[General]
AudioFilename: yue_01.mp3
AudioLeadIn: 0
PreviewTime: 131231
Countdown: 0
SampleSet: Soft
StackLeniency: 0.7
Mode: 3
LetterboxInBreaks: 0
SpecialStyle: 0
WidescreenStoryboard: 0

[Editor]
Bookmarks: 41631,54431,67231,80031,118431,131231
DistanceSpacing: 0.5
BeatDivisor: 4
GridSize: 4
TimelineZoom: 1

[Metadata]
Title:Tsuki -Yue-
TitleUnicode:月 -Yue-
Artist:Kozato
ArtistUnicode:Kozato
Creator:KawaEE
Version:Normal
Source:
Tags:spiritual Trance
BeatmapID:571520
BeatmapSetID:248504

[Difficulty]
HPDrainRate:7
CircleSize:7
OverallDifficulty:7
ApproachRate:5
SliderMultiplier:1.4
SliderTickRate:1

[Events]
//Background and Video events
0,0,"1234.jpg",0,0
//Break Periods
//Storyboard Layer 0 (Background)
//Storyboard Layer 1 (Fail)
//Storyboard Layer 2 (Pass)
//Storyboard Layer 3 (Foreground)
//Storyboard Sound Samples

[TimingPoints]
831,400,4,1,1,30,1,0
2431,400,4,1,1,30,1,0
16031,400,4,3,1,40,1,0
41631,-100,4,2,1,40,0,1
67231,-100,4,3,1,40,0,0
105631,-100,4,2,1,40,0,0
131231,-100,4,2,1,40,0,1
156831,-100,4,2,1,40,0,0

[HitObjects]
182,192,16031,5,0,0:0:0:0:
329,192,16031,1,0,1:0:0:0:
109,192,17631,1,0,0:0:0:0:
402,192,17631,1,0,1:0:0:0:
36,192,19231,1,0,0:0:0:0:
475,192,19231,1,0,1:0:0:0:
182,192,20831,1,0,0:0:0:0:
329,192,20831,1,0,1:0:0:0:
109,192,21631,1,0,0:0:0:0:
402,192,21631,1,0,1:0:0:0:
36,192,22431,1,0,0:0:0:0:
475,192,22431,1,0,1:0:0:0:
109,192,24031,1,0,0:0:0:0:
402,192,24031,1,0,1:0:0:0:
36,192,25631,1,0,0:0:0:0:
475,192,25631,1,0,1:0:0:0:
182,192,27231,1,0,0:0:0:0:
329,192,27231,1,0,1:0:0:0:
109,192,28031,1,0,0:0:0:0:
402,192,28031,1,0,1:0:0:0:
475,192,28831,5,0,1:0:0:0:
36,192,28831,1,0,0:0:0:0:
109,192,30431,1,0,0:0:0:0:
402,192,30431,1,0,1:0:0:0:
36,192,32031,1,0,0:0:0:0:
475,192,32031,1,0,1:0:0:0:
329,192,33631,1,0,1:0:0:0:
182,192,33631,1,0,0:0:0:0:
109,192,34431,1,0,0:0:0:0:
402,192,34431,1,0,1:0:0:0:
475,192,35231,1,0,1:0:0:0:
36,192,35231,1,0,0:0:0:0:
182,192,36831,1,0,0:0:0:0:
329,192,36831,1,0,1:0:0:0:
402,192,38431,1,0,1:0:0:0:
109,192,38431,1,0,0:0:0:0:
36,192,40031,1,0,0:0:0:0:
475,192,40031,1,0,1:0:0:0:
36,192,41631,5,0,0:0:0:70:bass.wav
475,192,41631,1,4,0:0:0:0:
329,192,42031,1,0,0:0:0:70:bass.wav
182,192,42431,1,0,0:0:0:70:bass.wav
329,192,42831,1,0,0:0:0:70:bass.wav
109,192,43231,1,0,0:0:0:70:bass.wav
402,192,43631,1,2,0:0:0:70:bass.wav
109,192,44031,1,0,0:0:0:70:bass.wav
402,192,44431,1,8,0:0:0:70:bass.wav
182,192,44831,1,0,0:0:0:70:bass.wav
329,192,45231,1,0,0:0:0:70:bass.wav
182,192,45631,1,0,0:0:0:70:bass.wav
329,192,46031,1,0,0:0:0:70:bass.wav
109,192,46431,1,0,0:0:0:70:bass.wav
402,192,46831,1,0,0:0:0:70:bass.wav
109,192,47231,1,0,0:0:0:70:bass.wav
329,192,47631,1,0,0:0:0:0:
182,192,47831,1,0,0:0:0:0:
36,192,48031,1,0,0:0:0:70:bass.wav
475,192,48031,1,4,0:0:0:0:
256,192,48431,1,8,0:0:0:70:bass.wav
402,192,48831,1,0,0:0:0:70:bass.wav
256,192,49231,1,8,0:0:0:70:bass.wav
109,192,49631,1,0,0:0:0:70:bass.wav
329,192,50031,1,8,0:0:0:70:bass.wav
182,192,50431,1,0,0:0:0:70:bass.wav
329,192,50831,1,8,0:0:0:70:bass.wav
109,192,51231,1,0,0:0:0:70:bass.wav
256,192,51631,1,8,0:0:0:70:bass.wav
402,192,52031,1,0,0:0:0:70:bass.wav
182,192,52431,1,8,0:0:0:70:bass.wav
329,192,52831,1,0,0:0:0:70:bass.wav
182,192,53231,1,0,0:0:0:70:bass.wav
475,192,53631,1,0,0:0:0:70:bass.wav
329,192,53831,1,0,0:0:0:70:bass.wav
182,192,54031,1,0,0:0:0:0:
329,192,54231,1,0,0:0:0:0:
475,192,54431,1,0,0:0:0:70:bass.wav
36,192,54431,1,4,0:0:0:0:
329,192,54831,1,8,0:0:0:0:
182,192,54831,1,0,0:0:0:0:
109,192,55231,1,0,0:0:0:70:bass.wav
182,192,55631,1,0,0:0:0:0:
329,192,55631,1,8,0:0:0:0:
402,192,56031,1,0,0:0:0:70:bass.wav
109,192,56431,1,0,0:0:0:0:
256,192,56431,1,8,0:0:0:0:
36,192,56831,1,0,0:0:0:70:bass.wav
402,192,57231,1,8,0:0:0:0:
256,192,57231,1,0,0:0:0:0:
475,192,57631,1,0,0:0:0:70:bass.wav
329,192,58031,1,8,0:0:0:0:
182,192,58031,1,0,0:0:0:0:
36,192,58431,1,0,0:0:0:70:bass.wav
329,192,58831,1,8,0:0:0:0:
182,192,58831,1,0,0:0:0:0:
475,192,59231,1,0,0:0:0:70:bass.wav
329,192,59631,1,0,0:0:0:0:
182,192,59631,1,8,0:0:0:0:
36,192,60031,1,0,0:0:0:70:bass.wav
329,192,60431,1,0,0:0:0:0:
182,192,60631,1,0,0:0:0:0:
36,192,60831,1,4,0:0:0:0:
475,192,60831,1,0,0:0:0:70:bass.wav
182,192,61231,1,0,0:0:0:0:
329,192,61231,1,8,0:0:0:0:
475,192,61631,1,0,0:0:0:70:bass.wav
256,192,62031,1,8,0:0:0:0:
109,192,62031,1,0,0:0:0:0:
402,192,62431,1,0,0:0:0:70:bass.wav
182,192,62831,1,0,0:0:0:0:
36,192,62831,1,8,0:0:0:0:
256,192,63231,1,0,0:0:0:70:bass.wav
329,192,63631,1,0,0:0:0:0:
475,192,63631,1,8,0:0:0:0:
109,192,64031,1,0,0:0:0:70:bass.wav
256,192,64431,1,8,0:0:0:0:
402,192,64431,1,0,0:0:0:0:
36,192,64831,1,0,0:0:0:70:bass.wav
329,192,65231,1,8,0:0:0:0:
182,192,65231,1,0,0:0:0:0:
36,192,65631,1,0,0:0:0:70:bass.wav
329,192,66031,1,8,0:0:0:0:
475,192,66031,1,0,0:0:0:0:
109,192,66431,1,0,0:0:0:70:bass.wav
256,192,66631,1,0,0:0:0:70:bass.wav
402,192,66831,1,0,0:0:0:0:
256,192,67031,1,0,0:0:0:0:
475,192,67231,1,2,1:0:0:0:
36,192,67231,1,4,2:0:0:0:
256,192,67631,1,2,1:0:0:0:
109,192,68031,1,2,1:0:0:0:
402,192,68231,1,2,1:0:0:0:
182,192,68431,1,2,1:0:0:0:
329,192,68631,1,2,1:0:0:0:
475,192,68831,1,2,1:0:0:0:
36,192,68831,1,0,3:0:0:0:
182,192,69231,1,2,1:0:0:0:
329,192,69431,1,2,1:0:0:0:
182,192,69631,1,2,1:0:0:0:
36,192,69831,1,2,1:0:0:0:
182,192,70031,1,2,1:0:0:0:
329,192,70231,1,2,1:0:0:0:
475,192,70431,1,2,1:0:0:0:
36,192,70431,1,0,3:0:0:0:
329,192,70731,1,2,1:0:0:0:
182,192,71031,1,2,1:0:0:0:
402,192,71431,1,2,1:0:0:0:
256,192,71631,1,2,1:0:0:0:
402,192,71831,1,2,1:0:0:0:
36,192,72031,1,2,1:0:0:0:
182,192,72231,1,2,1:0:0:0:
475,192,72431,1,2,1:0:0:0:
329,192,72631,1,2,1:0:0:0:
182,192,73031,1,2,1:0:0:0:
329,192,73231,1,2,1:0:0:0:
182,192,73431,1,2,1:0:0:0:
36,192,73631,1,0,3:0:0:0:
475,192,73631,1,2,1:0:0:0:
329,192,74031,1,2,1:0:0:0:
182,192,74431,1,2,1:0:0:0:
329,192,74831,1,2,1:0:0:0:
36,192,75231,1,2,1:0:0:0:
256,192,75631,1,2,1:0:0:0:
475,192,76031,1,2,1:0:0:0:
256,192,76431,1,2,1:0:0:0:
36,192,76831,1,2,1:0:0:0:
402,192,77431,1,2,1:0:0:0:
256,192,77531,1,2,1:0:0:0:
109,192,77631,1,2,1:0:0:0:
329,192,77831,1,2,1:0:0:0:
109,192,78031,1,2,1:0:0:0:
256,192,78131,1,2,1:0:0:0:
402,192,78231,1,2,1:0:0:0:
182,192,78431,1,2,1:0:0:0:
36,192,79231,1,2,1:0:0:0:
475,192,79231,1,2,2:0:0:0:
329,192,80031,5,8,2:0:0:0:
182,192,80031,1,2,1:0:0:0:
36,192,80431,1,2,1:0:0:0:
182,192,80831,1,2,1:0:0:0:
402,192,81031,1,2,1:0:0:0:
182,192,81231,1,2,1:0:0:0:
329,192,81431,1,2,1:0:0:0:
475,192,81631,1,2,1:0:0:0:
36,192,81631,1,8,2:0:0:0:
109,192,82031,1,2,1:0:0:0:
256,192,82231,1,2,1:0:0:0:
402,192,82431,1,2,1:0:0:0:
36,192,82631,1,2,1:0:0:0:
182,192,82831,1,2,1:0:0:0:
329,192,83031,1,2,1:0:0:0:
36,192,83231,1,2,1:0:0:0:
475,192,83231,1,8,3:0:0:0:
329,192,83531,1,2,1:0:0:0:
182,192,83831,1,2,1:0:0:0:
36,192,84231,1,2,1:0:0:0:
182,192,84431,1,2,1:0:0:0:
329,192,84631,1,2,1:0:0:0:
36,192,84831,1,2,1:0:0:0:
475,192,84831,1,8,3:0:0:0:
256,192,85031,1,2,1:0:0:0:
402,192,85231,1,2,1:0:0:0:
109,192,85431,1,2,1:0:0:0:
182,192,85831,1,2,1:0:0:0:
329,192,86031,1,2,1:0:0:0:
182,192,86231,1,2,1:0:0:0:
36,192,86431,1,2,1:0:0:0:
475,192,86431,1,8,3:0:0:0:
329,192,86831,1,2,1:0:0:0:
182,192,87231,1,2,1:0:0:0:
475,192,87631,1,2,1:0:0:0:
329,192,88031,1,2,1:0:0:0:
182,192,88031,1,8,2:0:0:0:
36,192,88431,1,2,1:0:0:0:
256,192,88831,1,2,1:0:0:0:
475,192,89231,1,2,1:0:0:0:
329,192,89631,1,2,1:0:0:0:
182,192,89631,1,8,2:0:0:0:
402,192,90231,1,2,1:0:0:0:
256,192,90331,1,2,1:0:0:0:
109,192,90431,1,2,1:0:0:0:
329,192,90631,1,2,1:0:0:0:
109,192,90831,1,2,1:0:0:0:
256,192,90931,1,2,1:0:0:0:
402,192,91031,1,2,1:0:0:0:
36,192,91231,1,2,1:0:0:0:
182,192,91431,1,2,1:0:0:0:
329,192,91631,1,2,1:0:0:0:
475,192,91831,1,2,1:0:0:0:
329,192,92031,1,2,1:0:0:0:
182,192,92231,1,2,1:0:0:0:
36,192,92431,1,2,1:0:0:0:
182,192,92531,1,2,1:0:0:0:
329,192,92631,1,2,1:0:0:0:
36,192,92831,1,2,1:0:0:0:
475,192,92831,1,0,3:0:0:0:
182,192,93097,1,2,1:0:0:0:
329,192,93364,1,2,1:0:0:0:
182,192,93631,1,2,1:0:0:0:
329,192,93897,1,2,1:0:0:0:
475,192,94164,1,2,1:0:0:0:
36,192,94431,1,2,1:0:0:0:
256,192,94631,1,2,1:0:0:0:
36,192,94831,1,2,1:0:0:0:
256,192,95031,1,2,1:0:0:0:
475,192,95231,1,2,1:0:0:0:
256,192,95431,1,2,1:0:0:0:
475,192,95631,1,2,1:0:0:0:
182,192,95831,1,2,1:0:0:0:
402,192,96031,1,2,1:0:0:0:
109,192,96297,1,2,1:0:0:0:
329,192,96564,1,2,1:0:0:0:
36,192,96831,1,2,1:0:0:0:
256,192,97097,1,2,1:0:0:0:
475,192,97364,1,2,1:0:0:0:
329,192,97631,1,2,1:0:0:0:
182,192,97831,1,2,1:0:0:0:
36,192,98031,1,2,1:0:0:0:
182,192,98231,1,2,1:0:0:0:
329,192,98431,1,2,1:0:0:0:
182,192,98631,1,2,1:0:0:0:
475,192,98831,1,2,1:0:0:0:
256,192,99031,1,2,1:0:0:0:
36,192,99231,1,2,1:0:0:0:
329,192,99431,1,2,1:0:0:0:
109,192,99631,1,2,1:0:0:0:
402,192,99831,1,2,1:0:0:0:
182,192,100031,1,2,1:0:0:0:
475,192,100231,1,2,1:0:0:0:
256,192,100431,1,2,1:0:0:0:
36,192,100631,1,2,1:0:0:0:
182,192,100831,1,2,1:0:0:0:
329,192,101031,1,2,1:0:0:0:
475,192,101231,1,2,1:0:0:0:
329,192,101364,1,2,1:0:0:0:
182,192,101497,1,2,1:0:0:0:
36,192,101631,1,2,1:0:0:0:
182,192,101831,1,2,1:0:0:0:
329,192,102031,1,2,1:0:0:0:
182,192,102231,1,2,1:0:0:0:
36,192,102431,1,2,2:0:0:0:
475,192,102431,1,2,1:0:0:0:
109,192,102831,1,2,2:0:0:0:
402,192,102831,1,2,1:0:0:0:
182,192,103231,1,2,2:0:0:0:
329,192,103231,1,2,1:0:0:0:
109,192,103631,1,2,2:0:0:0:
402,192,103631,1,2,1:0:0:0:
475,192,104031,1,2,2:0:0:0:
36,192,104031,1,2,1:0:0:0:
36,192,104831,1,2,1:0:0:0:
182,192,104964,1,2,1:0:0:0:
329,192,105097,1,2,1:0:0:0:
475,192,105231,1,2,1:0:0:0:
329,192,105364,1,2,1:0:0:0:
182,192,105497,1,2,1:0:0:0:
36,192,105631,1,2,0:0:0:0:
475,192,105631,1,4,0:0:0:0:
329,192,106031,1,0,0:0:0:0:
109,192,106231,1,0,0:0:0:0:
256,192,106331,1,0,0:0:0:0:
402,192,106431,1,0,0:0:0:0:
256,192,106631,1,0,0:0:0:0:
109,192,106831,1,0,0:0:0:0:
475,192,107231,1,0,0:0:0:0:
256,192,107431,1,0,0:0:0:0:
36,192,107631,1,0,0:0:0:0:
475,192,107831,1,0,0:0:0:0:
329,192,107931,1,0,0:0:0:0:
182,192,108031,1,0,0:0:0:0:
402,192,108231,1,0,0:0:0:0:
256,192,108431,1,0,0:0:0:0:
109,192,108631,1,0,0:0:0:0:
36,192,108831,1,0,0:0:0:0:
256,192,109031,1,0,0:0:0:0:
475,192,109231,1,0,0:0:0:0:
109,192,109431,1,0,0:0:0:0:
256,192,109531,1,0,0:0:0:0:
402,192,109631,1,0,0:0:0:0:
329,192,109831,1,0,0:0:0:0:
182,192,110031,1,0,0:0:0:0:
329,192,110231,1,0,0:0:0:0:
109,192,110431,1,2,0:0:0:0:
256,192,110631,1,0,0:0:0:0:
402,192,110831,1,2,0:0:0:0:
256,192,111031,1,0,0:0:0:0:
109,192,111231,1,2,0:0:0:0:
256,192,111431,1,0,0:0:0:0:
402,192,111631,1,2,0:0:0:0:
256,192,111831,1,0,0:0:0:0:
36,192,112031,1,4,0:0:0:0:
475,192,112031,1,2,0:0:0:0:
182,192,112231,1,0,0:0:0:0:
329,192,112331,1,0,0:0:0:0:
182,192,112431,1,0,0:0:0:0:
36,192,112631,1,0,0:0:0:0:
256,192,112731,1,0,0:0:0:0:
475,192,112831,1,0,0:0:0:0:
182,192,113031,1,0,0:0:0:0:
329,192,113231,1,0,0:0:0:0:
475,192,113631,1,0,0:0:0:0:
256,192,113831,1,0,0:0:0:0:
36,192,114031,1,0,0:0:0:0:
182,192,114231,1,0,0:0:0:0:
329,192,114331,1,0,0:0:0:0:
182,192,114431,1,0,0:0:0:0:
402,192,114631,1,0,0:0:0:0:
109,192,114831,1,0,0:0:0:0:
402,192,115031,1,0,0:0:0:0:
109,192,115231,1,0,0:0:0:0:
256,192,115431,1,0,0:0:0:0:
402,192,115631,1,0,0:0:0:0:
36,192,115831,1,0,0:0:0:0:
256,192,115931,1,0,0:0:0:0:
475,192,116031,1,0,0:0:0:0:
182,192,116231,1,0,0:0:0:0:
329,192,116431,1,0,0:0:0:0:
182,192,116631,1,0,0:0:0:0:
402,192,116831,1,2,0:0:0:0:
256,192,117031,1,0,0:0:0:0:
109,192,117231,1,2,0:0:0:0:
256,192,117431,1,0,0:0:0:0:
402,192,117631,1,2,0:0:0:0:
256,192,117831,1,0,0:0:0:0:
109,192,118031,1,2,0:0:0:0:
256,192,118231,1,0,0:0:0:0:
475,192,118431,1,2,0:0:0:0:
36,192,118431,1,4,0:0:0:0:
329,192,118831,1,0,0:0:0:0:
109,192,119031,1,0,0:0:0:0:
256,192,119131,1,0,0:0:0:0:
402,192,119231,1,0,0:0:0:0:
256,192,119431,1,0,0:0:0:0:
109,192,119631,1,0,0:0:0:0:
475,192,120031,1,0,0:0:0:0:
329,192,120231,1,0,0:0:0:0:
182,192,120431,1,0,0:0:0:0:
36,192,120631,1,0,0:0:0:0:
256,192,120731,1,0,0:0:0:0:
475,192,120831,1,0,0:0:0:0:
182,192,121031,1,0,0:0:0:0:
329,192,121231,1,0,0:0:0:0:
182,192,121431,1,0,0:0:0:0:
36,192,121631,1,0,0:0:0:0:
256,192,121831,1,0,0:0:0:0:
475,192,122031,1,0,0:0:0:0:
109,192,122231,1,0,0:0:0:0:
256,192,122331,1,0,0:0:0:0:
402,192,122431,1,0,0:0:0:0:
182,192,122631,1,0,0:0:0:0:
329,192,122831,1,0,0:0:0:0:
182,192,123031,1,0,0:0:0:0:
36,192,123231,1,2,0:0:0:0:
256,192,123431,1,0,0:0:0:0:
475,192,123631,1,2,0:0:0:0:
256,192,123831,1,0,0:0:0:0:
109,192,124031,1,2,0:0:0:0:
256,192,124231,1,0,0:0:0:0:
402,192,124431,1,2,0:0:0:0:
256,192,124631,1,0,0:0:0:0:
36,192,124831,1,4,0:0:0:0:
475,192,124831,1,2,0:0:0:0:
182,192,125031,1,0,0:0:0:0:
329,192,125231,1,0,0:0:0:0:
182,192,125431,1,0,0:0:0:0:
329,192,125631,1,0,0:0:0:0:
182,192,125831,1,0,0:0:0:0:
329,192,126031,1,0,0:0:0:0:
182,192,126231,1,0,0:0:0:0:
402,192,126431,1,0,0:0:0:0:
109,192,126631,1,0,0:0:0:0:
402,192,126831,1,0,0:0:0:0:
109,192,127031,1,0,0:0:0:0:
402,192,127231,1,0,0:0:0:0:
109,192,127431,1,0,0:0:0:0:
402,192,127631,1,0,0:0:0:0:
109,192,127831,1,0,0:0:0:0:
475,192,128031,1,0,0:0:0:0:
36,192,128231,1,0,0:0:0:0:
475,192,128431,1,0,0:0:0:0:
36,192,128631,1,0,0:0:0:0:
475,192,128831,1,0,0:0:0:0:
36,192,129031,1,0,0:0:0:0:
475,192,129231,1,0,0:0:0:0:
36,192,129431,1,0,0:0:0:0:
402,192,129631,1,0,0:0:0:0:
109,192,129831,1,0,0:0:0:0:
329,192,130031,1,0,0:0:0:0:
182,192,130231,1,0,0:0:0:0:
475,192,130431,1,0,0:0:0:0:
36,192,130631,1,0,0:0:0:0:
329,192,130831,1,0,0:0:0:0:
182,192,131031,1,0,0:0:0:0:
475,192,131231,1,2,0:0:0:0:
36,192,131231,1,0,0:0:0:70:bass.wav
256,192,131231,1,0,0:0:0:0:
182,192,131631,1,0,0:0:0:0:
329,192,131631,1,8,0:0:0:0:
109,192,132031,1,0,0:0:0:70:bass.wav
256,192,132431,1,0,0:0:0:0:
402,192,132431,1,8,0:0:0:0:
475,192,132831,1,0,0:0:0:70:bass.wav
109,192,133231,1,0,0:0:0:0:
256,192,133231,1,8,0:0:0:0:
36,192,133631,1,0,0:0:0:70:bass.wav
329,192,134031,1,8,0:0:0:0:
182,192,134031,1,0,0:0:0:0:
402,192,134431,1,0,0:0:0:70:bass.wav
109,192,134831,1,0,0:0:0:0:
256,192,134831,1,8,0:0:0:0:
36,192,135231,1,0,0:0:0:70:bass.wav
256,192,135631,1,0,0:0:0:0:
402,192,135631,1,8,0:0:0:0:
475,192,136031,1,2,0:0:0:0:
182,192,136431,1,8,0:0:0:0:
329,192,136431,1,0,0:0:0:0:
36,192,136831,1,2,0:0:0:0:
329,192,137231,1,0,0:0:0:0:
475,192,137231,1,8,0:0:0:0:
256,192,137431,1,0,0:0:0:0:
182,192,137631,1,2,0:0:0:70:bass.wav
36,192,137631,1,4,0:0:0:0:
475,192,138031,1,0,0:0:0:0:
329,192,138031,1,8,0:0:0:0:
109,192,138431,1,0,0:0:0:70:bass.wav
256,192,138831,1,8,0:0:0:0:
402,192,138831,1,0,0:0:0:0:
36,192,139231,1,0,0:0:0:70:bass.wav
182,192,139631,1,8,0:0:0:0:
329,192,139631,1,0,0:0:0:0:
475,192,140031,1,0,0:0:0:70:bass.wav
182,192,140431,1,0,0:0:0:0:
329,192,140431,1,8,0:0:0:0:
475,192,140831,1,0,0:0:0:70:bass.wav
256,192,141231,1,0,0:0:0:0:
109,192,141231,1,8,0:0:0:0:
402,192,141631,1,0,0:0:0:70:bass.wav
182,192,142031,1,0,0:0:0:0:
36,192,142031,1,8,0:0:0:0:
256,192,142431,1,2,0:0:0:0:
475,192,142831,1,8,0:0:0:0:
329,192,142831,1,0,0:0:0:0:
256,192,143231,1,2,0:0:0:0:
402,192,143431,1,0,0:0:0:70:bass.wav
182,192,143631,1,0,0:0:0:0:
36,192,143631,1,8,0:0:0:0:
256,192,143831,1,0,0:0:0:0:
475,192,144031,1,4,0:0:0:0:
329,192,144031,1,2,0:0:0:70:bass.wav
36,192,144431,1,8,0:0:0:0:
475,192,144431,1,0,0:0:0:0:
182,192,144631,1,0,0:0:0:0:
329,192,144731,1,0,0:0:0:0:
475,192,144831,1,0,0:0:0:0:
329,192,145031,1,0,0:0:0:0:
182,192,145231,1,0,0:0:0:0:
36,192,145231,1,8,0:0:0:0:
329,192,145631,1,0,0:0:0:0:
182,192,145831,1,0,0:0:0:0:
36,192,146031,1,8,0:0:0:0:
475,192,146031,1,0,0:0:0:0:
182,192,146231,1,0,0:0:0:0:
329,192,146331,1,0,0:0:0:0:
182,192,146431,1,0,0:0:0:0:
402,192,146631,1,0,0:0:0:0:
109,192,146831,1,0,0:0:0:0:
256,192,146831,1,8,0:0:0:0:
402,192,147031,1,0,0:0:0:0:
36,192,147231,1,0,0:0:0:0:
182,192,147431,1,0,0:0:0:0:
329,192,147631,1,0,0:0:0:0:
475,192,147631,1,8,0:0:0:0:
109,192,147831,1,0,0:0:0:0:
256,192,147931,1,0,0:0:0:0:
402,192,148031,1,0,0:0:0:0:
329,192,148231,1,0,0:0:0:0:
182,192,148431,1,8,0:0:0:0:
36,192,148431,1,0,0:0:0:0:
329,192,148631,1,0,0:0:0:0:
182,192,148831,1,2,0:0:0:0:
475,192,149231,1,8,0:0:0:0:
329,192,149231,1,2,0:0:0:0:
182,192,149631,1,2,0:0:0:0:
475,192,150031,1,0,0:0:0:0:
329,192,150031,1,8,0:0:0:0:
256,192,150231,1,0,0:0:0:0:
182,192,150431,1,4,0:0:0:0:
36,192,150431,1,2,0:0:0:0:
329,192,150631,1,0,0:0:0:0:
475,192,150731,1,0,0:0:0:0:
329,192,150831,1,8,0:0:0:0:
182,192,150831,1,0,0:0:0:0:
36,192,151031,1,0,0:0:0:0:
256,192,151131,1,0,0:0:0:0:
475,192,151231,1,0,0:0:0:0:
182,192,151431,1,0,0:0:0:0:
329,192,151631,1,8,0:0:0:0:
475,192,151631,1,0,0:0:0:0:
329,192,152031,1,0,0:0:0:0:
182,192,152231,1,0,0:0:0:0:
36,192,152431,1,0,0:0:0:0:
475,192,152431,1,8,0:0:0:0:
182,192,152631,1,0,0:0:0:0:
329,192,152731,1,0,0:0:0:0:
182,192,152831,1,0,0:0:0:0:
475,192,153031,1,0,0:0:0:0:
36,192,153231,1,0,0:0:0:0:
256,192,153231,1,8,0:0:0:0:
475,192,153431,1,0,0:0:0:0:
36,192,153631,1,0,0:0:0:0:
182,192,153831,1,0,0:0:0:0:
329,192,154031,1,0,0:0:0:0:
475,192,154031,1,8,0:0:0:0:
109,192,154231,1,0,0:0:0:0:
256,192,154331,1,0,0:0:0:0:
402,192,154431,1,0,0:0:0:0:
182,192,154631,1,0,0:0:0:0:
475,192,154831,1,0,0:0:0:0:
36,192,154831,1,8,0:0:0:0:
329,192,155031,1,0,0:0:0:0:
182,192,155231,1,2,0:0:0:0:
329,192,155431,1,2,0:0:0:0:
109,192,155631,1,2,0:0:0:0:
402,192,155831,1,2,0:0:0:0:
36,192,156031,1,2,0:0:0:0:
182,192,156131,1,2,0:0:0:0:
329,192,156231,1,2,0:0:0:0:
475,192,156331,1,2,0:0:0:0:
109,192,156431,1,2,0:0:0:0:
256,192,156531,1,2,0:0:0:0:
402,192,156631,1,2,0:0:0:0:
36,192,156831,1,2,0:0:0:0:
475,192,156831,1,4,0:0:0:0:
