osu file format v14

[General]
AudioFilename: yue_01.mp3
AudioLeadIn: 0
PreviewTime: 130831
Countdown: 0
SampleSet: Soft
StackLeniency: 0.7
Mode: 3
LetterboxInBreaks: 0
SpecialStyle: 0
WidescreenStoryboard: 0

[Editor]
Bookmarks: 41631,54431,80031,118431
DistanceSpacing: 0.5
BeatDivisor: 4
GridSize: 4
TimelineZoom: 0.8

[Metadata]
Title:Tsuki -Yue-
TitleUnicode:月 -Yue-
Artist:Kozato
ArtistUnicode:Kozato
Creator:Harbyter
Version:HD
Source:
Tags:spiritual Trance
BeatmapID:646604
BeatmapSetID:286411

[Difficulty]
HPDrainRate:7.5
CircleSize:4
OverallDifficulty:8
ApproachRate:5
SliderMultiplier:1.4
SliderTickRate:1

[Events]
//Background and Video events
0,0,"1234.jpg",0,0
//Break Periods
//Storyboard Layer 0 (Background)
//Storyboard Layer 1 (Fail)
//Storyboard Layer 2 (Pass)
//Storyboard Layer 3 (Foreground)
//Storyboard Sound Samples

[TimingPoints]
831,400,4,2,1,30,1,0
2431,400,4,2,1,30,1,0
16031,400,4,2,1,20,1,0
41631,-100,4,2,1,40,0,0
67231,-100,4,2,1,20,0,0
105631,-100,4,2,1,30,0,0
131231,-100,4,2,1,40,0,1
156831,-100,4,2,1,40,0,0

[HitObjects]
64,192,16031,5,2,0:0:0:0:
448,192,16031,1,2,0:0:0:0:
192,192,16231,1,2,0:0:0:0:
320,192,16431,1,2,0:0:0:0:
64,192,16631,1,2,0:0:0:0:
448,192,16831,1,2,0:0:0:0:
192,192,17031,1,2,0:0:0:0:
448,192,17231,1,2,0:0:0:0:
320,192,17431,1,2,0:0:0:0:
64,192,17631,1,2,0:0:0:0:
448,192,17631,1,2,0:0:0:0:
192,192,17831,1,2,0:0:0:0:
448,192,18031,1,2,0:0:0:0:
320,192,18231,1,2,0:0:0:0:
192,192,18431,1,2,0:0:0:0:
320,192,18631,1,2,0:0:0:0:
192,192,18831,1,2,0:0:0:0:
64,192,19031,1,2,0:0:0:0:
192,192,19231,1,2,0:0:0:0:
448,192,19231,1,2,0:0:0:0:
64,192,19431,1,2,0:0:0:0:
192,192,19631,1,2,0:0:0:0:
64,192,19831,1,2,0:0:0:0:
320,192,20031,1,2,0:0:0:0:
192,192,20231,1,2,0:0:0:0:
448,192,20431,1,2,0:0:0:0:
320,192,20631,1,2,0:0:0:0:
64,192,20831,1,2,0:0:0:0:
192,192,20831,1,2,0:0:0:0:
448,192,21031,1,2,0:0:0:0:
320,192,21231,1,2,0:0:0:0:
192,192,21431,1,2,0:0:0:0:
64,192,21631,1,2,0:0:0:0:
448,192,21631,1,2,0:0:0:0:
320,192,21831,1,2,0:0:0:0:
192,192,22031,1,2,0:0:0:0:
64,192,22231,1,2,0:0:0:0:
192,192,22431,1,2,0:0:0:0:
448,192,22431,1,2,0:0:0:0:
320,192,22631,1,2,0:0:0:0:
64,192,22831,1,2,0:0:0:0:
192,192,23031,1,2,0:0:0:0:
320,192,23231,1,2,0:0:0:0:
64,192,23431,1,2,0:0:0:0:
448,192,23631,1,2,0:0:0:0:
192,192,23831,1,2,0:0:0:0:
64,192,24031,1,2,0:0:0:0:
448,192,24031,1,2,0:0:0:0:
192,192,24231,1,2,0:0:0:0:
448,192,24431,1,2,0:0:0:0:
320,192,24631,1,2,0:0:0:0:
192,192,24831,1,2,0:0:0:0:
320,192,25031,1,2,0:0:0:0:
192,192,25231,1,2,0:0:0:0:
64,192,25431,1,2,0:0:0:0:
64,192,25631,1,2,0:0:0:0:
448,192,25631,1,2,0:0:0:0:
192,192,25831,1,2,0:0:0:0:
320,192,26031,1,2,0:0:0:0:
64,192,26231,1,2,0:0:0:0:
448,192,26431,1,2,0:0:0:0:
192,192,26631,1,2,0:0:0:0:
448,192,26831,1,2,0:0:0:0:
320,192,27031,1,2,0:0:0:0:
448,192,27231,1,2,0:0:0:0:
64,192,27231,1,2,0:0:0:0:
320,192,27431,1,2,0:0:0:0:
192,192,27631,1,2,0:0:0:0:
448,192,27831,1,2,0:0:0:0:
64,192,28031,1,2,0:0:0:0:
320,192,28031,1,2,0:0:0:0:
192,192,28231,1,2,0:0:0:0:
448,192,28431,1,2,0:0:0:0:
64,192,28831,1,2,0:0:0:0:
448,192,28831,1,2,0:0:0:0:
192,192,29031,1,2,0:0:0:0:
320,192,29231,1,2,0:0:0:0:
64,192,29431,1,2,0:0:0:0:
448,192,29631,1,2,0:0:0:0:
192,192,29831,1,2,0:0:0:0:
448,192,30031,1,2,0:0:0:0:
320,192,30231,1,2,0:0:0:0:
64,192,30431,1,2,0:0:0:0:
448,192,30431,1,2,0:0:0:0:
192,192,30631,1,2,0:0:0:0:
448,192,30831,1,2,0:0:0:0:
320,192,31031,1,2,0:0:0:0:
192,192,31231,1,2,0:0:0:0:
320,192,31431,1,2,0:0:0:0:
192,192,31631,1,2,0:0:0:0:
64,192,31831,1,2,0:0:0:0:
448,192,32031,1,2,0:0:0:0:
192,192,32031,1,2,0:0:0:0:
64,192,32231,1,2,0:0:0:0:
192,192,32431,1,2,0:0:0:0:
64,192,32631,1,2,0:0:0:0:
320,192,32831,1,2,0:0:0:0:
192,192,33031,1,2,0:0:0:0:
448,192,33231,1,2,0:0:0:0:
320,192,33431,1,2,0:0:0:0:
64,192,33631,1,2,0:0:0:0:
192,192,33631,1,2,0:0:0:0:
448,192,33831,1,2,0:0:0:0:
320,192,34031,1,2,0:0:0:0:
192,192,34231,1,2,0:0:0:0:
64,192,34431,1,2,0:0:0:0:
448,192,34431,1,2,0:0:0:0:
320,192,34631,1,2,0:0:0:0:
192,192,34831,1,2,0:0:0:0:
64,192,35031,1,2,0:0:0:0:
448,192,35231,1,2,0:0:0:0:
192,192,35231,1,2,0:0:0:0:
320,192,35431,1,2,0:0:0:0:
64,192,35631,1,2,0:0:0:0:
192,192,35831,1,2,0:0:0:0:
320,192,36031,1,2,0:0:0:0:
64,192,36231,1,2,0:0:0:0:
448,192,36431,1,2,0:0:0:0:
192,192,36631,1,2,0:0:0:0:
448,192,36831,1,2,0:0:0:0:
64,192,36831,1,2,0:0:0:0:
192,192,37031,1,2,0:0:0:0:
448,192,37231,1,2,0:0:0:0:
320,192,37431,1,2,0:0:0:0:
192,192,37631,1,2,0:0:0:0:
320,192,37831,1,2,0:0:0:0:
192,192,38031,1,2,0:0:0:0:
64,192,38231,1,2,0:0:0:0:
448,192,38431,1,2,0:0:0:0:
192,192,38431,1,2,0:0:0:0:
64,192,38631,1,2,0:0:0:0:
320,192,38831,1,2,0:0:0:0:
64,192,39031,1,2,0:0:0:0:
448,192,39231,1,2,0:0:0:0:
192,192,39431,1,2,0:0:0:0:
448,192,39631,1,2,0:0:0:0:
320,192,39831,1,2,0:0:0:0:
64,192,40031,1,2,0:0:0:0:
448,192,40031,1,2,0:0:0:0:
192,192,40231,1,2,0:0:0:0:
320,192,40431,5,2,0:0:0:0:
448,192,40631,1,2,0:0:0:0:
64,192,40831,1,2,0:0:0:0:
192,192,41031,1,2,0:0:0:0:
448,192,41231,1,2,0:0:0:0:
64,192,41631,1,4,0:0:0:0:
320,192,41631,1,2,3:0:0:0:
448,192,41631,1,8,0:0:0:0:
64,192,42031,1,2,3:0:0:0:
448,192,42031,1,8,0:0:0:0:
192,192,42231,1,8,0:0:0:0:
320,192,42331,1,8,0:0:0:0:
64,192,42431,1,2,3:0:0:0:
448,192,42431,1,8,0:0:0:0:
192,192,42631,1,8,0:0:0:0:
64,192,42831,1,2,3:0:0:0:
448,192,42831,1,8,0:0:0:0:
64,192,43231,1,2,3:0:0:0:
448,192,43231,1,8,0:0:0:0:
320,192,43431,1,8,0:0:0:0:
64,192,43631,1,2,3:0:0:0:
192,192,43631,1,8,0:0:0:0:
320,192,43831,1,8,0:0:0:0:
192,192,43931,1,8,0:0:0:0:
64,192,44031,1,2,3:0:0:0:
448,192,44031,1,8,0:0:0:0:
320,192,44231,1,8,0:0:0:0:
64,192,44431,1,2,3:0:0:0:
192,192,44431,1,8,0:0:0:0:
320,192,44631,1,8,0:0:0:0:
64,192,44831,1,2,3:0:0:0:
448,192,44831,1,8,0:0:0:0:
192,192,45031,1,8,0:0:0:0:
64,192,45231,1,2,3:0:0:0:
448,192,45231,1,8,0:0:0:0:
192,192,45431,1,8,0:0:0:0:
320,192,45531,1,8,0:0:0:0:
64,192,45631,1,2,3:0:0:0:
448,192,45631,1,8,0:0:0:0:
192,192,45831,1,8,0:0:0:0:
320,192,46031,1,2,3:0:0:0:
448,192,46031,1,8,0:0:0:0:
192,192,46231,1,8,0:0:0:0:
64,192,46431,1,2,3:0:0:0:
448,192,46431,1,8,0:0:0:0:
448,192,46631,1,8,0:0:0:0:
320,192,46731,1,8,0:0:0:0:
192,192,46831,1,8,0:0:0:0:
64,192,46831,1,2,3:0:0:0:
320,192,47031,1,8,0:0:0:0:
448,192,47131,1,8,0:0:0:0:
64,192,47231,1,2,3:0:0:0:
192,192,47331,1,8,0:0:0:0:
320,192,47431,1,8,0:0:0:0:
192,192,47531,1,8,0:0:0:0:
448,192,47631,1,8,0:0:0:0:
64,192,47631,1,2,3:0:0:0:
320,192,47731,1,8,0:0:0:0:
192,192,47831,1,8,0:0:0:0:
320,192,47931,1,8,0:0:0:0:
64,192,48031,1,2,3:0:0:0:
448,192,48031,1,8,0:0:0:0:
192,192,48031,1,4,0:0:0:0:
320,192,48231,1,8,0:0:0:0:
192,192,48331,1,8,0:0:0:0:
64,192,48431,1,2,3:0:0:0:
448,192,48431,1,8,0:0:0:0:
192,192,48631,1,8,0:0:0:0:
320,192,48731,1,8,0:0:0:0:
448,192,48831,1,8,0:0:0:0:
64,192,48831,1,2,3:0:0:0:
320,192,49031,1,8,0:0:0:0:
64,192,49231,1,2,3:0:0:0:
448,192,49231,1,8,0:0:0:0:
320,192,49631,1,2,3:0:0:0:
448,192,49631,1,8,0:0:0:0:
192,192,49831,1,8,0:0:0:0:
64,192,50031,1,2,3:0:0:0:
448,192,50031,1,8,0:0:0:0:
192,192,50231,1,8,0:0:0:0:
320,192,50331,1,8,0:0:0:0:
64,192,50431,1,2,3:0:0:0:
448,192,50431,1,8,0:0:0:0:
320,192,50631,1,8,0:0:0:0:
192,192,50831,1,8,0:0:0:0:
64,192,50831,1,2,3:0:0:0:
320,192,51031,1,8,0:0:0:0:
64,192,51231,1,2,3:0:0:0:
448,192,51231,1,8,0:0:0:0:
192,192,51431,1,8,0:0:0:0:
64,192,51631,1,2,3:0:0:0:
448,192,51631,1,8,0:0:0:0:
448,192,51831,1,8,0:0:0:0:
320,192,51931,1,8,0:0:0:0:
64,192,52031,1,2,3:0:0:0:
192,192,52031,1,8,0:0:0:0:
192,192,52231,1,8,0:0:0:0:
64,192,52431,1,2,3:0:0:0:
448,192,52431,1,8,0:0:0:0:
320,192,52631,1,8,0:0:0:0:
64,192,52831,1,2,3:0:0:0:
192,192,52931,1,8,0:0:0:0:
320,192,53031,1,8,0:0:0:0:
448,192,53131,1,8,0:0:0:0:
64,192,53231,1,2,3:0:0:0:
192,192,53331,1,8,0:0:0:0:
320,192,53431,1,8,0:0:0:0:
192,192,53531,1,8,0:0:0:0:
448,192,53631,1,2,3:0:0:0:
320,192,53731,1,8,0:0:0:0:
192,192,53831,1,2,3:0:0:0:
320,192,53931,1,8,0:0:0:0:
64,192,54031,1,2,3:0:0:0:
448,192,54031,1,8,0:0:0:0:
192,192,54131,1,8,0:0:0:0:
320,192,54231,1,2,3:0:0:0:
192,192,54331,1,2,3:0:0:0:
64,192,54431,1,2,3:0:0:0:
448,192,54431,1,8,0:0:0:0:
320,192,54431,1,4,0:0:0:0:
64,192,54831,1,2,3:0:0:0:
320,192,54831,1,0,3:0:0:0:
448,192,54831,1,8,0:0:0:0:
192,192,55031,1,8,0:0:0:0:
320,192,55131,1,8,0:0:0:0:
64,192,55231,1,2,3:0:0:0:
448,192,55231,1,8,0:0:0:0:
192,192,55431,1,8,0:0:0:0:
64,192,55631,1,2,3:0:0:0:
320,192,55631,1,0,3:0:0:0:
448,192,55631,1,8,0:0:0:0:
64,192,56031,1,2,3:0:0:0:
448,192,56031,1,8,0:0:0:0:
320,192,56231,1,8,0:0:0:0:
64,192,56431,1,2,3:0:0:0:
192,192,56431,1,0,3:0:0:0:
448,192,56431,1,8,0:0:0:0:
320,192,56631,1,8,0:0:0:0:
192,192,56731,1,8,0:0:0:0:
64,192,56831,1,2,3:0:0:0:
448,192,56831,1,8,0:0:0:0:
192,192,57031,1,8,0:0:0:0:
64,192,57231,1,2,3:0:0:0:
320,192,57231,1,0,3:0:0:0:
448,192,57231,1,8,0:0:0:0:
192,192,57431,1,8,0:0:0:0:
448,192,57631,1,8,0:0:0:0:
64,192,57631,1,2,3:0:0:0:
320,192,57831,1,8,0:0:0:0:
64,192,58031,1,2,3:0:0:0:
192,192,58031,1,0,3:0:0:0:
448,192,58031,1,8,0:0:0:0:
64,192,58231,1,8,0:0:0:0:
192,192,58331,1,8,0:0:0:0:
448,192,58431,1,8,0:0:0:0:
320,192,58431,1,2,3:0:0:0:
448,192,58631,1,8,0:0:0:0:
320,192,58831,1,8,0:0:0:0:
192,192,58831,1,0,3:0:0:0:
64,192,58831,1,2,3:0:0:0:
192,192,59031,1,8,0:0:0:0:
448,192,59231,1,8,0:0:0:0:
64,192,59231,1,2,3:0:0:0:
192,192,59431,1,8,0:0:0:0:
320,192,59531,1,8,0:0:0:0:
448,192,59631,1,0,3:0:0:0:
64,192,59631,1,2,3:0:0:0:
192,192,59831,1,8,0:0:0:0:
320,192,59931,1,8,0:0:0:0:
448,192,60031,1,2,3:0:0:0:
64,192,60131,1,8,0:0:0:0:
192,192,60231,1,8,0:0:0:0:
320,192,60331,1,8,0:0:0:0:
448,192,60431,1,8,0:0:0:0:
64,192,60431,1,2,3:0:0:0:
192,192,60531,1,8,0:0:0:0:
320,192,60631,1,2,3:0:0:0:
192,192,60731,1,8,0:0:0:0:
64,192,60831,1,2,3:0:0:0:
320,192,60831,1,4,0:0:0:0:
448,192,60831,1,8,0:0:0:0:
448,192,61031,1,8,0:0:0:0:
320,192,61131,1,8,0:0:0:0:
192,192,61231,1,0,3:0:0:0:
64,192,61231,1,2,3:0:0:0:
320,192,61431,1,8,0:0:0:0:
192,192,61531,1,8,0:0:0:0:
64,192,61631,1,2,3:0:0:0:
448,192,61631,1,8,0:0:0:0:
192,192,61831,1,8,0:0:0:0:
64,192,62031,1,2,3:0:0:0:
320,192,62031,1,0,3:0:0:0:
448,192,62031,1,8,0:0:0:0:
64,192,62431,1,2,3:0:0:0:
448,192,62431,1,8,0:0:0:0:
320,192,62631,1,8,0:0:0:0:
64,192,62831,1,2,3:0:0:0:
448,192,62831,1,8,0:0:0:0:
192,192,62831,1,0,3:0:0:0:
192,192,63031,1,8,0:0:0:0:
320,192,63131,1,8,0:0:0:0:
64,192,63231,1,2,3:0:0:0:
448,192,63231,1,8,0:0:0:0:
192,192,63431,1,8,0:0:0:0:
64,192,63631,1,2,3:0:0:0:
448,192,63631,1,8,0:0:0:0:
320,192,63631,1,0,3:0:0:0:
320,192,63831,1,8,0:0:0:0:
64,192,64031,1,2,3:0:0:0:
448,192,64031,1,8,0:0:0:0:
192,192,64231,1,8,0:0:0:0:
64,192,64431,1,2,3:0:0:0:
192,192,64431,1,0,3:0:0:0:
448,192,64431,1,8,0:0:0:0:
320,192,64631,1,8,0:0:0:0:
192,192,64731,1,8,0:0:0:0:
64,192,64831,1,2,3:0:0:0:
448,192,64831,1,8,0:0:0:0:
320,192,65031,1,8,0:0:0:0:
64,192,65231,1,2,3:0:0:0:
192,192,65231,1,0,3:0:0:0:
448,192,65231,1,8,0:0:0:0:
320,192,65431,1,8,0:0:0:0:
64,192,65631,1,2,3:0:0:0:
192,192,65731,1,8,0:0:0:0:
448,192,65831,1,2,3:0:0:0:
320,192,65931,1,8,0:0:0:0:
64,192,66031,1,2,3:0:0:0:
192,192,66131,1,8,0:0:0:0:
320,192,66231,1,2,3:0:0:0:
448,192,66331,1,8,0:0:0:0:
64,192,66431,1,2,3:0:0:0:
192,192,66531,1,8,0:0:0:0:
320,192,66631,1,2,3:0:0:0:
192,192,66731,1,8,0:0:0:0:
64,192,66831,1,2,3:0:0:0:
448,192,66831,1,8,0:0:0:0:
320,192,67031,1,8,0:0:0:0:
64,192,67231,1,4,0:0:0:0:
448,192,67231,1,2,0:0:0:0:
64,192,67631,1,2,0:0:0:0:
192,192,68031,1,2,0:0:0:0:
448,192,68231,1,2,0:0:0:0:
192,192,68431,1,2,0:0:0:0:
320,192,68631,1,2,0:0:0:0:
192,192,68831,1,2,0:0:0:0:
64,192,68831,1,2,0:0:0:0:
448,192,68931,1,2,0:0:0:0:
320,192,69031,1,2,0:0:0:0:
192,192,69131,1,2,0:0:0:0:
320,192,69231,1,2,0:0:0:0:
64,192,69431,1,2,0:0:0:0:
448,192,69631,1,2,0:0:0:0:
192,192,69831,1,2,0:0:0:0:
448,192,70031,1,2,0:0:0:0:
320,192,70231,1,2,0:0:0:0:
448,192,70431,1,2,0:0:0:0:
192,192,70431,1,2,0:0:0:0:
320,192,70731,1,2,0:0:0:0:
64,192,70731,1,2,0:0:0:0:
320,192,71031,1,2,0:0:0:0:
64,192,71031,1,2,0:0:0:0:
192,192,71431,1,2,0:0:0:0:
320,192,71631,1,2,0:0:0:0:
448,192,71831,1,2,0:0:0:0:
64,192,72031,1,2,0:0:0:0:
192,192,72031,1,2,0:0:0:0:
320,192,72231,1,2,0:0:0:0:
448,192,72431,1,2,0:0:0:0:
320,192,72631,1,2,0:0:0:0:
448,192,73031,1,2,0:0:0:0:
320,192,73131,1,2,0:0:0:0:
64,192,73231,1,2,0:0:0:0:
192,192,73331,1,2,0:0:0:0:
448,192,73431,1,2,0:0:0:0:
320,192,73531,1,2,0:0:0:0:
64,192,73631,1,2,0:0:0:0:
192,192,73631,1,2,0:0:0:0:
448,192,74031,1,2,0:0:0:0:
320,192,74031,1,2,0:0:0:0:
320,192,74431,1,2,0:0:0:0:
192,192,74431,1,2,0:0:0:0:
448,192,74831,1,2,0:0:0:0:
320,192,74831,1,2,0:0:0:0:
320,192,75231,1,2,0:0:0:0:
64,192,75231,1,2,0:0:0:0:
192,192,75631,1,2,0:0:0:0:
320,192,75631,1,2,0:0:0:0:
64,192,76031,1,2,0:0:0:0:
192,192,76031,1,2,0:0:0:0:
192,192,76431,1,2,0:0:0:0:
448,192,76431,1,2,0:0:0:0:
448,192,76831,1,2,0:0:0:0:
64,192,76831,1,2,0:0:0:0:
320,192,77431,1,2,0:0:0:0:
192,192,77531,1,2,0:0:0:0:
448,192,77631,1,2,0:0:0:0:
64,192,77831,1,2,0:0:0:0:
320,192,78031,1,2,0:0:0:0:
64,192,78131,1,2,0:0:0:0:
448,192,78231,1,2,0:0:0:0:
320,192,78431,1,2,0:0:0:0:
192,192,78431,1,2,0:0:0:0:
448,192,79231,1,2,0:0:0:0:
192,192,79231,1,2,0:0:0:0:
320,192,80031,1,2,0:0:0:0:
448,192,80031,1,2,0:0:0:0:
320,192,80431,1,2,0:0:0:0:
192,192,80431,1,2,0:0:0:0:
64,192,80831,1,2,0:0:0:0:
448,192,81031,1,2,0:0:0:0:
64,192,81231,1,2,0:0:0:0:
320,192,81431,1,2,0:0:0:0:
64,192,81631,1,2,0:0:0:0:
448,192,81631,1,2,0:0:0:0:
320,192,81731,1,2,0:0:0:0:
448,192,81831,1,2,0:0:0:0:
320,192,81931,1,2,0:0:0:0:
192,192,82031,1,2,0:0:0:0:
64,192,82231,1,2,0:0:0:0:
320,192,82431,1,2,0:0:0:0:
192,192,82631,1,2,0:0:0:0:
448,192,82831,1,2,0:0:0:0:
320,192,83031,1,2,0:0:0:0:
320,192,83231,1,2,0:0:0:0:
448,192,83231,1,2,0:0:0:0:
192,192,83531,1,2,0:0:0:0:
320,192,83531,1,2,0:0:0:0:
192,192,83831,1,2,0:0:0:0:
64,192,83831,1,2,0:0:0:0:
64,192,84231,1,2,0:0:0:0:
192,192,84231,1,2,0:0:0:0:
320,192,84431,1,2,0:0:0:0:
448,192,84631,1,2,0:0:0:0:
192,192,84831,1,2,0:0:0:0:
320,192,84831,1,2,0:0:0:0:
64,192,85031,1,2,0:0:0:0:
448,192,85231,1,2,0:0:0:0:
320,192,85431,1,2,0:0:0:0:
448,192,85831,1,2,0:0:0:0:
320,192,85931,1,2,0:0:0:0:
192,192,86031,1,2,0:0:0:0:
64,192,86131,1,2,0:0:0:0:
448,192,86231,1,2,0:0:0:0:
320,192,86331,1,2,0:0:0:0:
64,192,86431,1,2,0:0:0:0:
192,192,86431,1,2,0:0:0:0:
448,192,86831,1,2,0:0:0:0:
320,192,86831,1,2,0:0:0:0:
192,192,87231,1,2,0:0:0:0:
320,192,87231,1,2,0:0:0:0:
448,192,87631,1,2,0:0:0:0:
320,192,87631,1,2,0:0:0:0:
192,192,88031,1,2,0:0:0:0:
448,192,88031,1,2,0:0:0:0:
64,192,88431,1,2,0:0:0:0:
320,192,88431,1,2,0:0:0:0:
192,192,88831,1,2,0:0:0:0:
64,192,88831,1,2,0:0:0:0:
320,192,89231,1,2,0:0:0:0:
192,192,89231,1,2,0:0:0:0:
64,192,89631,1,2,0:0:0:0:
192,192,89631,1,2,0:0:0:0:
320,192,90231,1,2,0:0:0:0:
192,192,90331,1,2,0:0:0:0:
320,192,90431,1,2,0:0:0:0:
64,192,90631,1,2,0:0:0:0:
448,192,90831,1,2,0:0:0:0:
320,192,90931,1,2,0:0:0:0:
448,192,91031,1,2,0:0:0:0:
64,192,91231,1,2,0:0:0:0:
192,192,91231,1,2,0:0:0:0:
320,192,91331,1,2,0:0:0:0:
448,192,91431,1,2,0:0:0:0:
320,192,91531,1,2,0:0:0:0:
64,192,91631,1,2,0:0:0:0:
192,192,91731,1,2,0:0:0:0:
448,192,91831,1,2,0:0:0:0:
320,192,91931,1,2,0:0:0:0:
448,192,92031,1,2,0:0:0:0:
320,192,92131,1,2,0:0:0:0:
192,192,92231,1,2,0:0:0:0:
64,192,92331,1,2,0:0:0:0:
320,192,92431,1,2,0:0:0:0:
192,192,92531,1,2,0:0:0:0:
448,192,92631,1,2,0:0:0:0:
320,192,92831,1,2,0:0:0:0:
448,192,92831,1,2,0:0:0:0:
320,192,93097,1,2,0:0:0:0:
192,192,93097,1,2,0:0:0:0:
320,192,93364,1,2,0:0:0:0:
448,192,93364,1,2,0:0:0:0:
64,192,93631,1,2,0:0:0:0:
192,192,93631,1,2,0:0:0:0:
192,192,93897,1,2,0:0:0:0:
320,192,93897,1,2,0:0:0:0:
320,192,94164,1,2,0:0:0:0:
448,192,94164,1,2,0:0:0:0:
64,192,94431,1,2,0:0:0:0:
320,192,94431,1,2,0:0:0:0:
192,192,94631,1,2,0:0:0:0:
448,192,94631,1,2,0:0:0:0:
64,192,94831,1,2,0:0:0:0:
320,192,94831,1,2,0:0:0:0:
448,192,95031,1,2,0:0:0:0:
192,192,95031,1,2,0:0:0:0:
320,192,95231,1,2,0:0:0:0:
448,192,95231,1,2,0:0:0:0:
192,192,95431,1,2,0:0:0:0:
64,192,95431,1,2,0:0:0:0:
320,192,95631,1,2,0:0:0:0:
448,192,95631,1,2,0:0:0:0:
320,192,95831,1,2,0:0:0:0:
192,192,95831,1,2,0:0:0:0:
320,192,96031,1,2,0:0:0:0:
64,192,96031,1,2,0:0:0:0:
192,192,96297,1,2,0:0:0:0:
448,192,96297,1,2,0:0:0:0:
64,192,96564,1,2,0:0:0:0:
320,192,96564,1,2,0:0:0:0:
192,192,96831,1,2,0:0:0:0:
448,192,96831,1,2,0:0:0:0:
64,192,97097,1,2,0:0:0:0:
320,192,97097,1,2,0:0:0:0:
320,192,97364,1,2,0:0:0:0:
448,192,97364,1,2,0:0:0:0:
64,192,97631,1,2,0:0:0:0:
192,192,97631,1,2,0:0:0:0:
320,192,97831,1,2,0:0:0:0:
448,192,97831,1,2,0:0:0:0:
192,192,98031,1,2,0:0:0:0:
320,192,98031,1,2,0:0:0:0:
192,192,98231,1,2,0:0:0:0:
64,192,98231,1,2,0:0:0:0:
320,192,98431,1,2,0:0:0:0:
448,192,98431,1,2,0:0:0:0:
192,192,98631,1,2,0:0:0:0:
64,192,98631,1,2,0:0:0:0:
320,192,98831,1,2,0:0:0:0:
448,192,98831,1,2,0:0:0:0:
320,192,99031,1,2,0:0:0:0:
192,192,99031,1,2,0:0:0:0:
192,192,99231,1,2,0:0:0:0:
64,192,99231,1,2,0:0:0:0:
192,192,99431,1,2,0:0:0:0:
64,192,99531,1,2,0:0:0:0:
192,192,99631,1,2,0:0:0:0:
320,192,99731,1,2,0:0:0:0:
448,192,99831,1,2,0:0:0:0:
64,192,99931,1,2,0:0:0:0:
320,192,100031,1,2,0:0:0:0:
192,192,100131,1,2,0:0:0:0:
64,192,100231,1,2,0:0:0:0:
192,192,100331,1,2,0:0:0:0:
320,192,100431,1,2,0:0:0:0:
448,192,100531,1,2,0:0:0:0:
320,192,100631,1,2,0:0:0:0:
192,192,100731,1,2,0:0:0:0:
64,192,100831,1,2,0:0:0:0:
448,192,100831,1,2,0:0:0:0:
192,192,100931,1,2,0:0:0:0:
320,192,101031,1,2,0:0:0:0:
64,192,101131,1,2,0:0:0:0:
448,192,101231,1,2,0:0:0:0:
320,192,101364,1,2,0:0:0:0:
192,192,101497,1,2,0:0:0:0:
448,192,101631,1,2,0:0:0:0:
320,192,101731,1,2,0:0:0:0:
192,192,101831,1,2,0:0:0:0:
64,192,101931,1,2,0:0:0:0:
448,192,102031,1,2,0:0:0:0:
320,192,102131,1,2,0:0:0:0:
192,192,102231,1,2,0:0:0:0:
320,192,102331,1,2,0:0:0:0:
448,192,102431,1,2,0:0:0:0:
64,192,102431,1,2,0:0:0:0:
192,192,102631,1,2,0:0:0:0:
64,192,102731,1,2,0:0:0:0:
448,192,102831,1,2,0:0:0:0:
64,192,102931,1,2,0:0:0:0:
192,192,103031,1,2,0:0:0:0:
320,192,103131,1,2,0:0:0:0:
448,192,103231,1,2,0:0:0:0:
192,192,103331,1,2,0:0:0:0:
448,192,103431,1,2,0:0:0:0:
320,192,103531,1,2,0:0:0:0:
64,192,103631,1,2,0:0:0:0:
320,192,103731,1,2,0:0:0:0:
192,192,103831,1,2,0:0:0:0:
320,192,103931,1,2,0:0:0:0:
448,192,104031,1,2,0:0:0:0:
64,192,104031,1,2,0:0:0:0:
320,192,104131,1,2,0:0:0:0:
64,192,104231,1,2,0:0:0:0:
448,192,104331,1,2,0:0:0:0:
320,192,104431,1,2,0:0:0:0:
192,192,104531,1,2,0:0:0:0:
320,192,104631,1,2,0:0:0:0:
448,192,104731,1,2,0:0:0:0:
320,192,104831,1,2,0:0:0:0:
192,192,104964,1,2,0:0:0:0:
64,192,105097,1,2,0:0:0:0:
192,192,105231,1,2,0:0:0:0:
320,192,105364,1,2,0:0:0:0:
448,192,105497,1,2,0:0:0:0:
64,192,105631,1,2,0:0:0:0:
192,192,105631,1,4,0:0:0:0:
64,192,106031,1,2,0:0:0:0:
448,192,106031,1,8,0:0:0:0:
192,192,106231,1,8,0:0:0:0:
320,192,106331,1,8,0:0:0:0:
64,192,106431,1,0,0:0:0:0:
448,192,106431,1,8,0:0:0:0:
192,192,106631,1,8,0:0:0:0:
64,192,106831,1,0,0:0:0:0:
448,192,106831,1,8,0:0:0:0:
448,192,107231,1,8,0:0:0:0:
192,192,107231,1,0,0:0:0:0:
320,192,107431,1,8,0:0:0:0:
448,192,107631,1,8,0:0:0:0:
64,192,107631,1,0,0:0:0:0:
448,192,107831,1,8,0:0:0:0:
320,192,107931,1,8,0:0:0:0:
192,192,108031,1,8,0:0:0:0:
64,192,108031,1,0,0:0:0:0:
448,192,108231,1,8,0:0:0:0:
192,192,108431,1,8,0:0:0:0:
64,192,108431,1,0,0:0:0:0:
320,192,108631,1,8,0:0:0:0:
64,192,108831,1,0,0:0:0:0:
448,192,108831,1,8,0:0:0:0:
192,192,109031,1,8,0:0:0:0:
320,192,109231,1,8,0:0:0:0:
64,192,109231,1,0,0:0:0:0:
192,192,109431,1,8,0:0:0:0:
320,192,109531,1,8,0:0:0:0:
64,192,109631,1,0,0:0:0:0:
448,192,109631,1,8,0:0:0:0:
320,192,109831,1,8,0:0:0:0:
64,192,110031,1,0,0:0:0:0:
448,192,110031,1,8,0:0:0:0:
192,192,110231,1,8,0:0:0:0:
320,192,110431,1,0,0:0:0:0:
448,192,110431,1,8,0:0:0:0:
192,192,110631,1,8,0:0:0:0:
64,192,110731,1,8,0:0:0:0:
448,192,110831,1,8,0:0:0:0:
192,192,111031,1,8,0:0:0:0:
64,192,111131,1,8,0:0:0:0:
320,192,111231,1,8,0:0:0:0:
192,192,111331,1,8,0:0:0:0:
448,192,111431,1,8,0:0:0:0:
320,192,111531,1,8,0:0:0:0:
64,192,111631,1,8,0:0:0:0:
320,192,111731,1,8,0:0:0:0:
64,192,111831,1,8,0:0:0:0:
192,192,111931,1,8,0:0:0:0:
320,192,112031,1,8,0:0:0:0:
448,192,112031,1,4,0:0:0:0:
320,192,112231,1,8,0:0:0:0:
448,192,112331,1,8,0:0:0:0:
192,192,112431,1,8,0:0:0:0:
64,192,112431,1,0,0:0:0:0:
448,192,112631,1,8,0:0:0:0:
320,192,112731,1,8,0:0:0:0:
64,192,112831,1,0,0:0:0:0:
448,192,112831,1,8,0:0:0:0:
192,192,113031,1,8,0:0:0:0:
64,192,113231,1,0,0:0:0:0:
448,192,113231,1,8,0:0:0:0:
64,192,113631,1,0,0:0:0:0:
448,192,113631,1,8,0:0:0:0:
320,192,113831,1,8,0:0:0:0:
64,192,114031,1,0,0:0:0:0:
192,192,114031,1,8,0:0:0:0:
448,192,114231,1,8,0:0:0:0:
320,192,114331,1,8,0:0:0:0:
192,192,114431,1,8,0:0:0:0:
64,192,114431,1,0,0:0:0:0:
320,192,114631,1,8,0:0:0:0:
64,192,114831,1,0,0:0:0:0:
192,192,114831,1,8,0:0:0:0:
448,192,115031,1,8,0:0:0:0:
64,192,115231,1,0,0:0:0:0:
192,192,115231,1,8,0:0:0:0:
320,192,115431,1,8,0:0:0:0:
192,192,115631,1,0,0:0:0:0:
448,192,115631,1,8,0:0:0:0:
64,192,115831,1,8,0:0:0:0:
192,192,115931,1,8,0:0:0:0:
320,192,116031,1,0,0:0:0:0:
448,192,116031,1,8,0:0:0:0:
64,192,116231,1,8,0:0:0:0:
320,192,116431,1,0,0:0:0:0:
448,192,116431,1,8,0:0:0:0:
192,192,116631,1,8,0:0:0:0:
448,192,116831,1,8,0:0:0:0:
192,192,116931,1,8,0:0:0:0:
320,192,117031,1,8,0:0:0:0:
64,192,117131,1,8,0:0:0:0:
448,192,117231,1,8,0:0:0:0:
192,192,117331,1,8,0:0:0:0:
448,192,117431,1,8,0:0:0:0:
320,192,117531,1,8,0:0:0:0:
448,192,117631,1,8,0:0:0:0:
192,192,117731,1,8,0:0:0:0:
320,192,117831,1,8,0:0:0:0:
64,192,117931,1,8,0:0:0:0:
448,192,118031,1,8,0:0:0:0:
192,192,118131,1,8,0:0:0:0:
448,192,118231,1,8,0:0:0:0:
320,192,118331,1,8,0:0:0:0:
448,192,118431,1,4,0:0:0:0:
64,192,118431,1,8,0:0:0:0:
320,192,118631,1,8,0:0:0:0:
64,192,118831,1,0,0:0:0:0:
448,192,118831,1,8,0:0:0:0:
192,192,119031,1,8,0:0:0:0:
320,192,119131,1,8,0:0:0:0:
64,192,119231,1,0,0:0:0:0:
448,192,119231,1,8,0:0:0:0:
192,192,119431,1,8,0:0:0:0:
64,192,119631,1,0,0:0:0:0:
448,192,119631,1,8,0:0:0:0:
192,192,119831,1,8,0:0:0:0:
320,192,120031,1,0,0:0:0:0:
448,192,120031,1,8,0:0:0:0:
192,192,120231,1,8,0:0:0:0:
448,192,120431,1,8,0:0:0:0:
64,192,120431,1,0,0:0:0:0:
192,192,120631,1,8,0:0:0:0:
320,192,120731,1,8,0:0:0:0:
64,192,120831,1,0,0:0:0:0:
448,192,120831,1,8,0:0:0:0:
320,192,121031,1,8,0:0:0:0:
192,192,121231,1,8,0:0:0:0:
64,192,121231,1,0,0:0:0:0:
320,192,121431,1,8,0:0:0:0:
64,192,121631,1,0,0:0:0:0:
192,192,121631,1,8,0:0:0:0:
320,192,121831,1,8,0:0:0:0:
192,192,122031,1,0,0:0:0:0:
448,192,122031,1,8,0:0:0:0:
320,192,122231,1,8,0:0:0:0:
192,192,122331,1,8,0:0:0:0:
448,192,122431,1,8,0:0:0:0:
64,192,122431,1,0,0:0:0:0:
192,192,122631,1,8,0:0:0:0:
320,192,122831,1,0,0:0:0:0:
448,192,122831,1,8,0:0:0:0:
192,192,123031,1,8,0:0:0:0:
64,192,123231,1,0,0:0:0:0:
448,192,123231,1,8,0:0:0:0:
64,192,123431,1,8,0:0:0:0:
192,192,123531,1,8,0:0:0:0:
320,192,123631,1,0,0:0:0:0:
448,192,123631,1,8,0:0:0:0:
192,192,123831,1,8,0:0:0:0:
64,192,123931,1,8,0:0:0:0:
320,192,124031,1,8,0:0:0:0:
192,192,124131,1,8,0:0:0:0:
448,192,124231,1,8,0:0:0:0:
320,192,124331,1,8,0:0:0:0:
192,192,124431,1,8,0:0:0:0:
64,192,124531,1,8,0:0:0:0:
320,192,124631,1,8,0:0:0:0:
192,192,124731,1,8,0:0:0:0:
64,192,124831,1,0,0:0:0:0:
448,192,124831,1,8,0:0:0:0:
192,192,124931,1,8,0:0:0:0:
320,192,125031,1,8,0:0:0:0:
448,192,125131,1,8,0:0:0:0:
64,192,125231,1,8,0:0:0:0:
320,192,125331,1,8,0:0:0:0:
192,192,125431,1,8,0:0:0:0:
448,192,125531,1,8,0:0:0:0:
64,192,125631,1,8,0:0:0:0:
192,192,125731,1,8,0:0:0:0:
320,192,125831,1,8,0:0:0:0:
448,192,125931,1,8,0:0:0:0:
64,192,126031,1,8,0:0:0:0:
320,192,126131,1,8,0:0:0:0:
192,192,126231,1,8,0:0:0:0:
448,192,126331,1,8,0:0:0:0:
192,192,126431,1,8,0:0:0:0:
64,192,126431,1,0,0:0:0:0:
320,192,126531,1,8,0:0:0:0:
448,192,126631,1,8,0:0:0:0:
320,192,126731,1,8,0:0:0:0:
192,192,126831,1,8,0:0:0:0:
320,192,126931,1,8,0:0:0:0:
192,192,127031,1,8,0:0:0:0:
64,192,127131,1,8,0:0:0:0:
448,192,127231,1,8,0:0:0:0:
320,192,127331,1,8,0:0:0:0:
192,192,127431,1,8,0:0:0:0:
64,192,127531,1,8,0:0:0:0:
320,192,127631,1,8,0:0:0:0:
448,192,127731,1,8,0:0:0:0:
320,192,127831,1,8,0:0:0:0:
192,192,127931,1,8,0:0:0:0:
448,192,128031,1,8,0:0:0:0:
64,192,128031,1,0,0:0:0:0:
320,192,128131,1,8,0:0:0:0:
192,192,128231,1,8,0:0:0:0:
64,192,128331,1,8,0:0:0:0:
448,192,128431,1,8,0:0:0:0:
192,192,128531,1,8,0:0:0:0:
320,192,128631,1,8,0:0:0:0:
64,192,128731,1,8,0:0:0:0:
448,192,128831,1,8,0:0:0:0:
192,192,128931,1,8,0:0:0:0:
320,192,129031,1,8,0:0:0:0:
64,192,129131,1,8,0:0:0:0:
448,192,129231,1,8,0:0:0:0:
320,192,129331,1,8,0:0:0:0:
192,192,129431,1,8,0:0:0:0:
64,192,129531,1,8,0:0:0:0:
448,192,129631,1,8,0:0:0:0:
192,192,129631,1,0,0:0:0:0:
320,192,129731,1,8,0:0:0:0:
448,192,129831,1,8,0:0:0:0:
320,192,129931,1,8,0:0:0:0:
192,192,130031,1,8,0:0:0:0:
64,192,130131,1,8,0:0:0:0:
192,192,130231,1,8,0:0:0:0:
64,192,130331,1,8,0:0:0:0:
448,192,130431,1,8,0:0:0:0:
320,192,130431,1,0,0:0:0:0:
64,192,130531,1,8,0:0:0:0:
192,192,130631,1,8,0:0:0:0:
64,192,130731,1,8,0:0:0:0:
448,192,130831,1,8,0:0:0:0:
320,192,130831,1,0,0:0:0:0:
192,192,130931,1,8,0:0:0:0:
64,192,131031,1,8,0:0:0:0:
192,192,131131,1,8,0:0:0:0:
448,192,131231,1,8,0:0:0:0:
64,192,131231,1,2,3:0:0:0:
320,192,131231,1,4,0:0:0:0:
64,192,131631,1,2,3:0:0:0:
320,192,131631,1,0,3:0:0:0:
448,192,131631,1,8,0:0:0:0:
192,192,131831,1,8,0:0:0:0:
320,192,131931,1,8,0:0:0:0:
64,192,132031,1,2,3:0:0:0:
448,192,132031,1,8,0:0:0:0:
192,192,132231,1,8,0:0:0:0:
64,192,132431,1,2,3:0:0:0:
320,192,132431,1,0,3:0:0:0:
448,192,132431,1,8,0:0:0:0:
64,192,132831,1,2,3:0:0:0:
448,192,132831,1,8,0:0:0:0:
320,192,133031,1,8,0:0:0:0:
192,192,133231,1,0,3:0:0:0:
64,192,133231,1,2,3:0:0:0:
448,192,133231,1,8,0:0:0:0:
320,192,133431,1,8,0:0:0:0:
192,192,133531,1,8,0:0:0:0:
64,192,133631,1,2,3:0:0:0:
448,192,133631,1,8,0:0:0:0:
320,192,133831,1,8,0:0:0:0:
64,192,134031,1,2,3:0:0:0:
192,192,134031,1,0,3:0:0:0:
448,192,134031,1,8,0:0:0:0:
320,192,134231,1,8,0:0:0:0:
64,192,134431,1,2,3:0:0:0:
192,192,134431,1,8,0:0:0:0:
320,192,134631,1,8,0:0:0:0:
448,192,134831,1,8,0:0:0:0:
192,192,134831,1,0,3:0:0:0:
64,192,134831,1,2,3:0:0:0:
64,192,135031,1,8,0:0:0:0:
192,192,135131,1,8,0:0:0:0:
320,192,135231,1,2,3:0:0:0:
448,192,135231,1,8,0:0:0:0:
192,192,135431,1,8,0:0:0:0:
448,192,135631,1,8,0:0:0:0:
64,192,135631,1,2,3:0:0:0:
320,192,135631,1,0,3:0:0:0:
192,192,135831,1,8,0:0:0:0:
448,192,136031,1,8,0:0:0:0:
64,192,136031,1,2,3:0:0:0:
320,192,136231,1,8,0:0:0:0:
192,192,136331,1,8,0:0:0:0:
448,192,136431,1,0,3:0:0:0:
64,192,136431,1,2,3:0:0:0:
320,192,136631,1,8,0:0:0:0:
192,192,136731,1,8,0:0:0:0:
448,192,136831,1,8,0:0:0:0:
64,192,136831,1,2,3:0:0:0:
320,192,136931,1,8,0:0:0:0:
192,192,137031,1,8,0:0:0:0:
320,192,137131,1,8,0:0:0:0:
64,192,137231,1,2,3:0:0:0:
448,192,137231,1,8,0:0:0:0:
320,192,137331,1,8,0:0:0:0:
192,192,137431,1,2,3:0:0:0:
64,192,137531,1,8,0:0:0:0:
448,192,137631,1,8,0:0:0:0:
192,192,137631,1,2,3:0:0:0:
320,192,137631,1,4,0:0:0:0:
192,192,137831,1,8,0:0:0:0:
320,192,137931,1,8,0:0:0:0:
64,192,138031,1,2,3:0:0:0:
448,192,138031,1,0,3:0:0:0:
320,192,138231,1,8,0:0:0:0:
192,192,138331,1,8,0:0:0:0:
64,192,138431,1,2,3:0:0:0:
448,192,138431,1,8,0:0:0:0:
192,192,138631,1,8,0:0:0:0:
64,192,138831,1,2,3:0:0:0:
320,192,138831,1,0,3:0:0:0:
448,192,138831,1,8,0:0:0:0:
64,192,139231,1,2,3:0:0:0:
448,192,139231,1,8,0:0:0:0:
320,192,139431,1,8,0:0:0:0:
64,192,139631,1,2,3:0:0:0:
448,192,139631,1,8,0:0:0:0:
192,192,139631,1,0,3:0:0:0:
64,192,139831,1,8,0:0:0:0:
192,192,139931,1,8,0:0:0:0:
448,192,140031,1,8,0:0:0:0:
320,192,140031,1,2,3:0:0:0:
320,192,140231,1,8,0:0:0:0:
192,192,140431,1,0,3:0:0:0:
64,192,140431,1,2,3:0:0:0:
448,192,140431,1,8,0:0:0:0:
192,192,140631,1,8,0:0:0:0:
64,192,140831,1,2,3:0:0:0:
448,192,140831,1,8,0:0:0:0:
192,192,141031,1,8,0:0:0:0:
320,192,141231,1,0,3:0:0:0:
64,192,141231,1,2,3:0:0:0:
448,192,141231,1,8,0:0:0:0:
64,192,141431,1,8,0:0:0:0:
192,192,141531,1,8,0:0:0:0:
320,192,141631,1,2,3:0:0:0:
448,192,141631,1,8,0:0:0:0:
192,192,141831,1,8,0:0:0:0:
320,192,142031,1,0,3:0:0:0:
448,192,142031,1,8,0:0:0:0:
64,192,142031,1,2,3:0:0:0:
192,192,142231,1,8,0:0:0:0:
320,192,142431,1,2,3:0:0:0:
448,192,142531,1,8,0:0:0:0:
192,192,142631,1,8,0:0:0:0:
320,192,142731,1,8,0:0:0:0:
448,192,142831,1,0,3:0:0:0:
64,192,142831,1,2,3:0:0:0:
320,192,142931,1,8,0:0:0:0:
192,192,143031,1,8,0:0:0:0:
64,192,143131,1,8,0:0:0:0:
448,192,143231,1,8,0:0:0:0:
192,192,143231,1,2,3:0:0:0:
320,192,143331,1,8,0:0:0:0:
192,192,143431,1,2,3:0:0:0:
64,192,143531,1,8,0:0:0:0:
192,192,143631,1,2,3:0:0:0:
448,192,143631,1,8,0:0:0:0:
320,192,143731,1,8,0:0:0:0:
192,192,143831,1,2,3:0:0:0:
64,192,143931,1,2,3:0:0:0:
320,192,144031,1,4,0:0:0:0:
192,192,144031,1,2,3:0:0:0:
448,192,144031,1,8,0:0:0:0:
64,192,144431,1,2,3:0:0:0:
448,192,144431,1,8,0:0:0:0:
320,192,144431,1,0,3:0:0:0:
192,192,144631,1,8,0:0:0:0:
320,192,144731,1,8,0:0:0:0:
64,192,144831,1,2,3:0:0:0:
448,192,144831,1,8,0:0:0:0:
320,192,145031,1,8,0:0:0:0:
64,192,145231,1,2,3:0:0:0:
192,192,145231,1,0,3:0:0:0:
448,192,145231,1,8,0:0:0:0:
64,192,145631,1,2,3:0:0:0:
448,192,145631,1,8,0:0:0:0:
192,192,145831,1,8,0:0:0:0:
320,192,146031,1,0,3:0:0:0:
448,192,146031,1,8,0:0:0:0:
64,192,146031,1,2,3:0:0:0:
448,192,146231,1,8,0:0:0:0:
320,192,146331,1,8,0:0:0:0:
192,192,146431,1,8,0:0:0:0:
64,192,146431,1,2,3:0:0:0:
192,192,146631,1,8,0:0:0:0:
320,192,146831,1,0,3:0:0:0:
448,192,146831,1,8,0:0:0:0:
64,192,146831,1,2,3:0:0:0:
320,192,147031,1,8,0:0:0:0:
64,192,147231,1,2,3:0:0:0:
192,192,147231,1,8,0:0:0:0:
320,192,147431,1,8,0:0:0:0:
448,192,147631,1,8,0:0:0:0:
192,192,147631,1,0,3:0:0:0:
64,192,147631,1,2,3:0:0:0:
192,192,147831,1,8,0:0:0:0:
320,192,147931,1,8,0:0:0:0:
64,192,148031,1,2,3:0:0:0:
448,192,148031,1,8,0:0:0:0:
320,192,148231,1,8,0:0:0:0:
64,192,148431,1,2,3:0:0:0:
448,192,148431,1,8,0:0:0:0:
192,192,148431,1,0,3:0:0:0:
320,192,148631,1,8,0:0:0:0:
64,192,148831,1,2,3:0:0:0:
192,192,148831,1,8,0:0:0:0:
448,192,149031,1,8,0:0:0:0:
320,192,149131,1,8,0:0:0:0:
192,192,149231,1,0,3:0:0:0:
64,192,149231,1,2,3:0:0:0:
320,192,149431,1,8,0:0:0:0:
192,192,149531,1,8,0:0:0:0:
448,192,149631,1,8,0:0:0:0:
64,192,149631,1,2,3:0:0:0:
320,192,149731,1,8,0:0:0:0:
192,192,149831,1,8,0:0:0:0:
64,192,149931,1,8,0:0:0:0:
448,192,150031,1,8,0:0:0:0:
192,192,150031,1,2,3:0:0:0:
320,192,150131,1,8,0:0:0:0:
192,192,150231,1,2,3:0:0:0:
64,192,150331,1,8,0:0:0:0:
320,192,150431,1,4,0:0:0:0:
448,192,150431,1,8,0:0:0:0:
192,192,150431,1,2,3:0:0:0:
320,192,150631,1,8,0:0:0:0:
192,192,150731,1,8,0:0:0:0:
448,192,150831,1,0,3:0:0:0:
64,192,150831,1,2,3:0:0:0:
192,192,151031,1,8,0:0:0:0:
320,192,151131,1,8,0:0:0:0:
64,192,151231,1,2,3:0:0:0:
448,192,151231,1,8,0:0:0:0:
192,192,151431,1,8,0:0:0:0:
64,192,151631,1,2,3:0:0:0:
320,192,151631,1,0,3:0:0:0:
448,192,151631,1,8,0:0:0:0:
64,192,152031,1,2,3:0:0:0:
448,192,152031,1,8,0:0:0:0:
320,192,152231,1,8,0:0:0:0:
64,192,152431,1,2,3:0:0:0:
448,192,152431,1,8,0:0:0:0:
192,192,152431,1,0,3:0:0:0:
192,192,152631,1,8,0:0:0:0:
320,192,152731,1,8,0:0:0:0:
64,192,152831,1,2,3:0:0:0:
448,192,152831,1,8,0:0:0:0:
448,192,153031,1,8,0:0:0:0:
320,192,153231,1,8,0:0:0:0:
192,192,153231,1,0,3:0:0:0:
64,192,153231,1,2,3:0:0:0:
320,192,153431,1,8,0:0:0:0:
64,192,153631,1,2,3:0:0:0:
192,192,153631,1,8,0:0:0:0:
64,192,153831,1,8,0:0:0:0:
448,192,154031,1,8,0:0:0:0:
320,192,154031,1,0,3:0:0:0:
192,192,154031,1,2,3:0:0:0:
192,192,154231,1,8,0:0:0:0:
320,192,154331,1,8,0:0:0:0:
64,192,154431,1,2,3:0:0:0:
448,192,154431,1,8,0:0:0:0:
192,192,154631,1,8,0:0:0:0:
64,192,154831,1,2,3:0:0:0:
320,192,154831,1,0,3:0:0:0:
448,192,154831,1,8,0:0:0:0:
192,192,155031,1,8,0:0:0:0:
64,192,155231,1,2,3:0:0:0:
192,192,155331,1,2,3:0:0:0:
448,192,155431,1,2,3:0:0:0:
320,192,155531,1,2,3:0:0:0:
64,192,155631,1,2,3:0:0:0:
192,192,155631,1,8,0:0:0:0:
320,192,155731,1,8,0:0:0:0:
448,192,155831,1,2,3:0:0:0:
320,192,155931,1,2,3:0:0:0:
192,192,156031,1,2,3:0:0:0:
64,192,156031,1,8,0:0:0:0:
448,192,156131,1,2,3:0:0:0:
320,192,156231,1,2,3:0:0:0:
192,192,156331,1,8,0:0:0:0:
64,192,156431,1,8,0:0:0:0:
448,192,156431,1,8,0:0:0:0:
320,192,156631,1,8,0:0:0:0:
64,192,156831,1,4,0:0:0:0:
448,192,156831,1,8,0:0:0:0:
