osu file format v9

[General]
AudioFilename: 45nen no Yukizakura.mp3
AudioLeadIn: 1000
PreviewTime: 102735
Countdown: 0
SampleSet: Normal
StackLeniency: 0.7
Mode: 0
LetterboxInBreaks: 0

[Editor]
DistanceSpacing: 1.2
BeatDivisor: 4
GridSize: 4

[Metadata]
Title:45nen no Yukizakura
Artist:Kozato
Creator:LoliSora
Version:Standard
Source:BMS
Tags:kanon mjw5150 twice yukinohara

[Difficulty]
HPDrainRate:3
CircleSize:3
OverallDifficulty:3
ApproachRate:4
SliderMultiplier:1
SliderTickRate:1

[Events]
//Background and Video events
0,0,"BG.jpg"
//Break Periods
2,68853,76004
//Storyboard Layer 0 (Background)
//Storyboard Layer 1 (Fail)
//Storyboard Layer 2 (Pass)
//Storyboard Layer 3 (Foreground)
//Storyboard Sound Samples
//Background Colour Transformations
3,100,255,255,255

[TimingPoints]
30,352.941176470588,3,2,1,70,1,0
21029,-100,3,2,1,50,0,0
21382,-100,3,2,1,60,0,0
21735,-100,3,2,1,70,0,0
51912,-100,3,2,1,70,0,1
67794,-100,3,2,1,65,0,0
102735,-100,3,2,1,65,0,1
118618,-100,3,2,1,65,0,0
135559,-100,3,1,1,65,0,0

[Colours]
Combo1 : 255,255,185
Combo2 : 255,128,255
Combo3 : 255,255,255
Combo4 : 255,96,175
SliderBorder : 250,207,250

[HitObjects]
78,102,1088,2,0,B|130:90|180:102,1,100,0|0
256,192,1794,1,8
338,279,2147,2,0,B|385:290|437:278,2,100,0|0|8
256,192,3206,6,0,B|208:180|156:192,1,100
55,256,3912,1,8
158,317,4265,2,0,B|258:342|363:317,1,200,0|8
349,198,5324,6,0,B|401:186|451:198,2,100,0|0|8
232,173,6382,2,0,B|180:185|132:173,1,100
30,109,7088,1,8
131,45,7441,6,0,B|183:33|233:45,1,100
334,103,8147,1,8
379,214,8500,2,0,B|426:226|478:214,2,100,0|0|8
334,103,9559,6,0,B|293:192|174:218,1,200,0|8
58,228,10618,2,0,B|104:254|130:295,1,100
245,331,11324,1,8
346,267,11677,6,0,B|395:246|443:249,2,100,0|0|8
245,331,12735,2,0,B|140:323|58:243,1,200,0|8
160,176,13794,6,0,B|218:173|268:137,1,100,0|0
349,72,14500,1,8
412,174,14853,2,0,B|425:234|402:284,1,100
312,347,15559,1,8
201,301,15912,6,0,B|150:287|91:303,2,100,0|0|8
312,347,16971,2,0,B|273:244|294:132,1,200,0|8
395,209,18029,6,0,B|308:250|198:248,1,200,0|8
127,152,19088,2,0,B|120:95|76:59,2,100,8|8|0
85,265,20147,6,0,B|137:169|237:130,1,200,0|8
311,221,21206,2,0,B|361:250|421:248,1,100
388,129,21912,1,8
311,221,22265,6,0,B|245:307|125:312,1,200,0|8
92,200,23324,2,0,B|60:156|60:108,2,100,8|8|0
188,128,24382,6,0,B|292:140|332:252,1,200,0|8
408,344,25441,2,0,B|434:306|442:250,1,100,0|8
456,192,25971,1,0
436,136,26147,1,0
340,64,26500,6,0,B|280:60|240:96,1,100
312,192,27206,1,8
192,176,27559,2,0,B|188:236|224:276,1,100,8|0
312,192,28265,1,8
304,312,28618,2,0,B|364:316|404:280,2,100,0|0|8
312,192,29677,1,0
84,116,30382,5,8
92,175,30559,1,0
148,196,30735,2,0,B|240:144|260:32,1,200,0|8
379,37,31794,2,0,B|378:142|465:215,1,200,0|8
400,316,32853,2,0,B|308:262|201:301,1,200,0|8
148,196,33912,2,0,B|48:196,2,100,0|8|0
220,100,34971,6,0,B|264:72|316:68,2,100,0|0|8
292,196,36030,1,0
52,196,36735,5,0
99,232,36912,1,0
119,288,37088,2,0,B|160:323|231:317,1,100
308,245,37794,1,8
427,260,38147,1,0
124,68,39206,6,0,B|104:124|104:188,1,100
180,260,39912,1,8
296,228,40265,2,0,B|344:132|436:88,1,200,0|8
448,208,41324,6,0,B|352:176|288:88,1,200,0|8
172,68,42382,2,0,B|72:68,2,100,0|8|8
172,188,43441,6,0,B|170:237|208:281|208:281|151:269|94:310,2,200,0|8|0
224,80,45206,1,8
344,80,45559,1,0
396,188,45912,2,0,B|396:248|380:288,1,100,8|0
280,220,46618,2,0,B|216:304|112:324,1,200,8|0
114,203,47677,6,0,B|160:184|192:132,2,100,0|8|0
96,84,48735,2,0,B|50:103|18:155,2,100,0|8|0
212,52,49794,5,0
320,104,50147,1,8
392,200,50500,1,0
320,296,50853,1,8
320,296,51030,1,0
320,296,51206,1,8
192,92,51912,6,0,B|144:120|128:172,1,100,4|8
204,260,52618,1,0
320,292,52971,2,0,B|368:264|384:212,1,100,0|8
308,124,53677,1,0
216,48,54030,6,0,B|108:40|36:128,1,200,4|8
100,228,55088,1,0
204,288,55441,1,8
204,168,55794,1,0
276,72,56147,6,0,B|368:104|420:208,1,200,4|8
428,264,57030,1,0
368,272,57206,2,0,B|276:240|224:136,1,200,0|8
128,68,58265,5,0
56,164,58618,1,8
153,234,58971,1,0
225,138,59324,2,0,B|268:112|296:64,2,100,0|8|0
112,96,60382,6,0,B|72:192|112:292,1,200,4|8
220,344,61441,2,0,B|323:330|389:246,1,200,0|8
380,126,62500,2,0,B|316:43|210:28,1,200,4|8
112,96,63559,5,0
208,168,63912,1,8
109,236,64265,1,0
168,340,64618,6,0,B|268:344|368:320,1,200,4|8
412,280,65500,1,0
451,234,65677,2,0,B|406:146|431:34,1,200,0|8
312,64,66735,5,0
254,169,67088,1,8
153,233,67441,1,8
35,259,67794,1,0
220,64,77324,6,0,B|124:108,1,100
32,176,78030,1,8
125,251,78382,2,0,B|125:355,1,100
244,338,79088,1,0
362,321,79441,6,0,B|362:221,1,100
476,182,80147,1,8
382,105,80500,2,0,B|292:64,2,100
288,180,81559,6,0,B|272:228|264:284,2,100,0|0|8
172,213,82618,2,0,B|156:261|148:317,2,100
54,186,83677,6,0,B|38:234|30:290,2,100,0|0|8
112,80,84735,2,0,B|212:56|312:96,1,200,0|8
424,60,85794,6,0,B|404:160|336:240,1,200,0|8
319,118,86853,1,0
257,221,87206,1,0
193,119,87559,1,8
174,238,87912,6,0,B|108:160|88:60,1,200,0|8
204,36,88971,1,0
256,144,89324,1,8
308,36,89677,1,0
360,144,90030,6,0,B|396:252|316:328,1,200,0|8
259,307,90912,1,0
203,328,91088,2,0,B|123:252|159:144,1,200,0|8
219,41,92147,5,0
296,132,92500,1,8
412,105,92853,1,0
482,203,93206,2,0,B|386:194|386:194|355:227|279:227,1,200,0|8
220,324,94265,6,0,B|184:268|96:268|52:216,1,200,0|8
124,120,95324,2,0,B|160:176|248:176|292:228,1,200,0|8
360,128,96382,2,0,B|324:72|236:72|192:20,1,200,0|8
96,92,97441,5,0
64,208,97794,1,8
136,304,98147,1,0
252,272,98500,6,0,B|348:256|428:160,1,200,0|8
404,112,99382,1,0
344,111,99559,2,0,B|300:103|240:71,1,100,8|0
136,40,100265,1,8
168,155,100618,2,0,B|189:211|163:269,2,100,0|8|0
48,156,101677,1,0
256,320,102735,6,0,B|304:304|348:252,1,100,4|8
392,156,103441,1,0
340,48,103794,1,0
244,120,104147,2,0,B|144:120,1,100,8|0
48,192,104853,5,4
96,300,105206,1,8
192,228,105559,2,0,B|292:228,1,100
412,224,106265,1,8
380,108,106618,1,0
264,76,106971,5,4
144,76,107324,2,0,B|64:140|40:252,1,200,8|0
140,312,108382,2,0,B|184:340|236:344,1,100,8|0
288,236,109088,5,0
180,184,109441,1,8
276,112,109794,1,0
384,164,110147,2,0,B|384:228|360:272,1,100,0|8
332,312,110677,1,0
273,324,110853,1,0
172,258,111206,6,0,B|88:258|36:206,2,150,4|8|0
196,140,112618,1,8
316,140,112971,1,8
340,258,113324,2,0,B|424:258|476:206,2,150,4|8|0
257,345,114735,2,0,B|257:241,1,100,8|0
164,168,115441,6,0,B|208:72,1,100,4|8
260,52,115971,1,0
314,77,116147,2,0,B|356:168,1,100,0|8
310,279,116853,2,0,B|210:279,1,100,0|8
96,240,117559,5,0
204,188,117912,1,8
107,116,118265,2,0,B|68:85,2,50,0|8|0
328,84,119677,5,0
420,160,120030,1,0
312,212,120382,1,8
200,172,120735,1,0
92,224,121088,1,0
184,300,121441,1,8
300,336,121794,6,0,B|348:320|384:276,1,100
416,164,122500,1,8
304,120,122853,2,0,B|256:136|220:180,1,100
188,292,123559,1,8
128,188,123912,6,0,B|80:204|44:248,2,100,0|0|8
224,116,124971,2,0,B|272:100|308:56,2,100,0|0|8
104,108,126030,6,0,B|104:208|164:296,1,200,0|8
284,295,127088,2,0,B|344:207|344:107,1,200,0|8
224,99,128147,6,0,B|224:303,2,200,0|8|0
344,99,129912,1,8
344,219,130265,6,0,B|140:219,2,200,0|8|0
464,219,132030,1,8
404,116,132382,5,0
108,116,133441,1,8
256,336,134500,1,0
256,192,135559,12,0,137677
