osu file format v9

[General]
AudioFilename: 45nen no Yukizakura.mp3
AudioLeadIn: 1000
PreviewTime: 102735
Countdown: 0
SampleSet: Normal
StackLeniency: 0.7
Mode: 0
LetterboxInBreaks: 0

[Editor]
Bookmarks: 91421
DistanceSpacing: 1.1
BeatDivisor: 4
GridSize: 8

[Metadata]
Title:45nen no Yukizakura
Artist:Kozato
Creator:LoliSora
Version:Hyper
Source:BMS
Tags:kanon mjw5150 twice yukinohara

[Difficulty]
HPDrainRate:6
CircleSize:4
OverallDifficulty:6
ApproachRate:8
SliderMultiplier:1.6
SliderTickRate:1

[Events]
//Background and Video events
0,0,"BG.jpg"
//Break Periods
2,69053,76574
//Storyboard Layer 0 (Background)
//Storyboard Layer 1 (Fail)
//Storyboard Layer 2 (Pass)
//Storyboard Layer 3 (Foreground)
//Storyboard Sound Samples
//Background Colour Transformations
3,100,255,255,255

[TimingPoints]
30,352.941176470588,3,2,1,50,1,0
51382,-133.333333333333,3,2,1,50,0,0
51912,-100,3,2,1,50,0,1
67794,-100,3,2,1,50,0,0
67882,-200,3,2,1,50,0,0
77324,-200,3,2,2,50,0,0
84735,-100,3,2,1,50,0,0
101677,-200,3,2,1,50,0,0
102735,-100,3,2,1,50,0,1
118618,-100,3,2,1,50,0,0
128147,-133.333333333333,3,2,1,50,0,0
134500,-200,3,2,1,50,0,0
135559,-200,3,1,1,50,0,0

[Colours]
Combo1 : 255,255,185
Combo2 : 255,128,255
Combo3 : 255,255,255
Combo4 : 255,96,175
SliderBorder : 250,207,250

[HitObjects]
80,64,1088,2,0,B|56:160|136:200,1,160,4|0
208,144,1618,1,0
276,84,1794,2,0,B|316:101|363:101,1,80,8|0
424,160,2147,6,0,B|448:256|368:296,1,160,2|0
272,256,2677,2,0,B|288:344,2,80,0|0|0
192,184,3206,2,0,B|120:192|112:272,1,120,2|0
128,296,3559,2,0,B|96:256|40:272,1,80
40,144,3912,6,0,B|144:112,1,80
256,128,4265,2,0,B|296:216|232:280,1,160,2|0
152,264,4794,1,0
235,276,4971,2,0,B|312:296,1,80,8|0
392,240,5324,6,0,B|352:152|416:88,1,160,2|0
412,91,6029,1,8
320,64,6206,1,0
224,80,6382,2,0,B|136:112,1,80,2|0
88,200,6735,2,0,B|80:248|128:296,1,80
184,208,7088,6,0,B|240:144|360:160,1,160,8|2
368,232,7618,1,0
320,304,7794,2,0,B|392:344,2,80,0|0|0
216,296,8324,5,0
216,296,8500,2,0,B|128:248,1,80,2|0
56,200,8853,2,0,B|40:144|96:104,1,80,2|0
146,170,9206,2,0,B|186:98,1,80,2|0
185,100,9471,1,0
185,100,9559,6,0,B|256:64|344:80,1,160,4|2
413,134,10088,1,0
379,218,10265,2,0,B|336:206|287:222,1,80,0|2
208,224,10618,6,0,B|200:312|120:360,1,160,2|0
72,272,11147,2,0,B|48:360,2,80
24,192,11677,5,2
80,120,11853,1,8
160,160,12029,1,0
216,88,12206,1,0
296,136,12382,6,0,B|348:129|381:77,1,80
384,16,12735,2,0,B|432:96|376:192,1,160,2|0
387,169,13441,6,0,B|352:232|392:312,1,120,2|0
408,328,13794,2,0,B|304:312,1,80,2|0
208,280,14147,2,0,B|192:328|240:368,1,80
104,288,14500,2,0,B|120:240|72:200,1,80
144,152,14853,6,0,B|232:176|296:104,1,160,2|0
288,32,15382,1,0
288,32,15559,2,0,B|376:16,1,80
376,112,15912,5,2
328,184,16088,1,8
216,88,16265,1,0
240,168,16441,1,0
288,32,16618,2,0,B|328:47|328:47|352:80,1,80,8|0
391,229,16971,6,0,B|351:214|351:214|327:181,1,80,2|8
349,78,17324,1,2
409,144,17500,1,0
330,185,17677,1,2
262,121,17853,5,0
262,121,17941,1,0
262,121,18029,2,0,B|232:194|232:194|137:217,1,160,2|0
160,120,18559,1,0
153,213,18735,2,0,B|152:256|216:288,1,80
296,280,19088,6,0,B|376:288,1,80,8|0
448,208,19441,2,0,B|472:168|456:112,1,80
344,128,19794,2,0,B|256:120,1,80
147,65,20147,6,0,B|98:142|147:238,1,160,2|0
335,282,20677,2,0,B|384:205|335:109,1,160
138,219,21206,6,0,B|151:262|191:283,1,80,8|0
152,107,21559,2,0,B|187:125|200:168,1,80,0|0
32,192,21912,5,8
64,104,22088,1,2
135,34,22265,2,0,B|216:78|218:177,1,160,4|0
182,247,22794,1,0
270,219,22971,2,0,B|348:198|442:222,1,160,0|2
512,257,23500,6,0,B|484:158,1,80,0|0
446,96,23853,2,0,B|423:19,2,80
421,187,24382,5,4
328,296,24559,1,2
404,265,24735,1,0
263,249,24912,1,0
339,218,25088,1,2
242,326,25265,1,2
179,276,25441,6,0,B|162:241|162:241|167:199,1,80,2|0
166,200,25706,1,0
166,200,25794,1,8
181,125,25971,1,0
181,125,26059,1,0
180,124,26147,2,0,B|184:83|184:83|167:48,1,80,8|0
65,107,26500,6,0,B|32:202|93:284,1,160,2|8
167,304,27029,2,0,B|259:295|329:216,1,160
370,158,27559,2,0,B|392:203|383:261,1,80,2|0
283,158,27912,2,0,B|261:113|270:55,1,80
379,45,28265,6,0,B|470:64,1,80,8|0
267,80,28618,2,0,B|173:60,1,80,2|0
108,99,28971,1,0
102,184,29147,1,0
135,265,29324,2,0,B|197:250|224:207,1,80,8|0
303,185,29677,6,0,B|234:146,1,80,2|0
325,273,30029,2,0,B|404:323,1,80
414,210,30382,1,8
403,114,30559,1,8
292,57,30735,6,0,B|199:42|130:102,1,160,2|0
80,216,31265,2,0,B|173:231|242:171,1,160,0|0
327,127,31794,6,0,B|321:215,1,80,2|0
385,306,32147,2,0,B|427:282|429:227,1,80,8|0
444,149,32500,2,0,B|450:61,1,80,2|0
309,151,32853,5,8
352,226,33029,1,0
233,192,33206,1,2
267,74,33382,1,2
385,107,33559,1,0
352,226,33735,1,2
219,301,33912,6,0,B|166:308|114:269,1,80,10|0
132,126,34265,2,0,B|164:168|156:232,1,80,8|0
23,293,34618,2,0,B|43:243|103:218,1,80,10|0
103,245,34882,1,0
131,255,34971,6,0,B|193:224|189:129,1,120,2|0
147,150,35324,2,0,B|113:70,1,80
203,52,35677,2,0,B|265:50|284:103,1,80
257,165,36030,2,0,B|296:192|344:192,2,80,10|0|0
419,48,36735,5,0
445,129,36912,1,2
435,213,37088,2,0,B|410:274|336:286,1,120,8|0
344,327,37441,2,0,B|239:282,1,80
184,299,37794,2,0,B|144:274|144:207,1,80
248,213,38147,6,0,B|320:158|306:54,1,160,8|0
351,165,38677,2,0,B|375:242,2,80,2|2|0
245,93,39206,6,0,B|168:88|111:126,1,120,4|0
105,153,39559,2,0,B|25:127,1,80
184,184,39912,1,2
184,184,40265,6,0,B|226:210|227:277,1,80,2|0
186,343,40618,2,0,B|144:317|143:250,1,80,0|0
106,153,40971,1,0
184,184,41147,1,2
174,103,41324,6,0,B|253:84,1,80,2|0
362,108,41677,2,0,B|380:157|342:214,1,80
268,203,42030,2,0,B|246:240|263:280,1,80,2|0
444,251,42382,6,0,B|443:207|407:181,1,80,2|0
444,251,42735,6,0,B|413:220|369:227,1,80,8|0
444,251,43088,6,0,B|400:251|374:287,1,80,2|0
209,339,43441,5,2
282,378,43618,1,0
215,349,43794,5,0
149,301,43971,1,0
39,281,44147,5,2
108,329,44324,1,0
141,211,44500,5,2
72,259,44677,1,0
35,144,44853,5,0
104,192,45030,1,0
138,75,45206,5,2
69,123,45382,1,0
184,112,45559,5,2
256,64,45735,1,0
328,104,45912,1,0
392,56,46088,1,2
464,96,46265,2,0,B|440:192,1,80,2|0
363,274,46618,5,2
274,293,46794,1,0
222,217,46971,1,0
293,148,47147,1,0
383,186,47324,2,0,B|411:290,1,80,2|0
337,354,47677,6,0,B|283:345|257:295,1,80,2|0
269,345,48030,2,0,B|215:336|189:286,1,80,8|0
88,266,48382,2,0,B|192:274,1,80,2|0
264,232,48735,6,0,B|318:223|344:173,1,80,2|0
368,216,49088,2,0,B|412:184|414:127,1,80,8|0
488,96,49441,2,0,B|392:112,1,80,2|0
292,56,49794,5,2
292,56,49971,1,0
208,152,50147,1,2
208,152,50324,1,0
88,112,50500,6,0,B|55:85|56:40,1,80,8|0
141,147,50853,2,0,B|131:244,2,80,2|0|0
148,52,51382,6,0,B|180:54|210:72|210:72|302:59,1,149.999995529652,8|0
342,72,51912,6,0,B|370:108|359:160,1,80,4|0
312,217,52265,2,0,B|303:256|331:292,1,80,0|0
424,232,52618,2,0,B|456:144,1,80,8|0
362,147,52971,6,0,B|314:155|287:213,1,80,2|0
232,246,53324,1,0
158,203,53500,1,0
176,121,53677,1,8
260,112,53853,1,0
298,191,54030,6,0,B|337:225|327:275,1,80,2|0
223,332,54382,2,0,B|173:323|155:275,1,80,0|0
158,203,54735,1,8
158,203,54912,2,0,B|46:181,1,80
415,46,55441,6,0,B|455:130|410:214,1,160,2|0
317,212,55971,1,0
317,212,56059,1,0
317,212,56147,2,0,B|415:237,1,80,2|0
413,318,56500,2,0,B|504:344,1,80
317,355,56853,5,0
286,326,56941,1,0
244,320,57030,1,8
136,295,57206,2,0,B|105:253|114:197,1,80,2|0
162,148,57559,2,0,B|190:66,1,80
312,40,57912,6,0,B|344:73|336:128,1,80
271,172,58265,2,0,B|255:261|317:324,2,160,2|8|0
338,114,59147,1,0
428,120,59324,6,0,B|465:154|469:211,1,80,2|0
417,274,59677,1,0
348,221,59853,1,0
272,172,60030,2,0,B|181:198,1,80,8|0
103,264,60382,6,0,B|135:306|207:294,1,80,4|0
261,285,60735,2,0,B|351:261,1,80
471,207,61088,1,8
417,274,61265,1,0
348,221,61441,6,0,B|312:195|258:211,1,80
162,200,61794,2,0,B|240:176,1,80
309,121,62147,1,8
226,95,62324,1,0
366,33,62500,6,0,B|389:70|385:118,1,80
358,185,62853,2,0,B|352:232|376:272,1,80
442,305,63206,2,0,B|426:394,2,80,8|0|0
457,139,63912,5,0
358,186,64265,1,0
358,186,64618,5,0
287,145,64794,1,0
224,208,64971,2,0,B|176:193|150:168,1,80
132,126,65235,1,0
132,140,65324,1,0
132,154,65412,1,0
129,168,65500,1,0
123,181,65588,1,0
118,194,65677,6,0,B|84:252|104:300,1,80,8|0
166,324,66030,2,0,B|214:327|278:303,1,80
332,282,66382,2,0,B|358:242|342:173,1,80,0|0
304,112,66735,5,8
226,157,66912,1,0
160,96,67088,1,0
226,157,67265,1,0
304,112,67441,1,0
368,178,67618,1,0
452,143,67794,1,0
256,192,67971,12,0,68853
105,103,77324,6,0,B|143:84|193:95,1,80,2|0
328,189,78206,1,0
327,189,78382,2,0,B|261:243,1,80,2|0
171,304,79088,1,0
171,304,79441,6,0,B|129:291|124:236,1,80,2|0
240,137,80324,1,0
240,137,80500,2,0,B|291:129,2,40,2|0|0
59,133,81206,1,0
59,133,81559,6,0,B|145:110,1,80,2|0
234,68,82265,1,0
341,77,82618,2,0,B|354:119|345:173,2,80,2|0|0
341,77,83677,6,0,B|387:82|422:114,1,80,2|0
431,178,84206,1,0
374,226,84382,2,0,B|385:275,1,40
401,339,84735,5,8
315,309,84912,1,0
226,330,85088,1,0
137,307,85265,2,0,B|146:249|182:192|182:192|177:153,1,160,8|8
109,107,85794,6,0,B|197:97,1,80,4|0
308,76,86147,2,0,B|361:84|383:141,1,80,0|8
299,214,86500,2,0,B|252:130,1,80,0|8
309,75,86853,6,0,B|350:58|350:58|410:67,1,80,2|0
464,106,87206,1,0
395,153,87382,1,8
472,189,87559,1,0
395,234,87735,1,8
447,305,87912,6,0,B|406:322|406:322|346:313,1,80,2|0
232,267,88265,2,0,B|318:257,1,80,0|8
226,347,88618,2,0,B|174:346|143:290,1,80,0|8
101,204,88971,2,0,B|101:264|97:286|97:286|28:353,2,160
101,204,90030,6,0,B|205:192,1,80,2|0
284,142,90382,2,0,B|300:186|285:237,1,80,0|8
244,259,90647,2,0,B|232:306,4,40,0|0|0|8|0
288,221,91088,6,0,B|372:239,1,80,2|0
449,207,91441,2,0,B|458:153|425:109,1,80,0|0
327,113,91794,2,0,B|414:99,1,80,8|0
230,49,92147,2,0,B|179:121|222:216,2,160,0|8|0
230,49,93206,6,0,B|122:63,1,80
81,185,93559,2,0,B|56:160|68:109,1,80,0|0
170,190,93912,2,0,B|195:215|183:266,1,80,8|0
96,312,94265,5,2
183,265,94441,1,0
272,296,94618,1,8
368,280,94794,1,0
440,224,94971,2,0,B|464:264|464:264|456:328,1,80,0|8
368,280,95324,5,2
365,191,95500,1,0
276,181,95677,1,0
261,98,95853,1,8
190,44,96030,2,0,B|170:83|170:83|184:144,1,80,0|0
189,200,96382,6,0,B|185:249|117:283,2,80,2|0|0
111,157,96912,1,0
29,177,97088,2,0,B|24:228|64:280,1,80,8|0
121,335,97441,2,0,B|182:359|235:358|235:358|302:333,2,160,0|8|0
149,189,98500,5,0
215,152,98677,1,0
294,157,98853,2,0,B|329:186|333:253,1,80,0|8
252,223,99206,5,0
251,223,99294,1,0
251,223,99382,2,0,B|216:194|212:127,1,80,8|0
253,49,99735,2,0,B|351:30|413:105,1,160
344,171,100265,6,0,B|429:150,1,80,8|0
478,210,100618,1,8
466,289,100794,1,0
402,235,100971,1,0
465,289,101147,5,0
478,210,101324,1,0
422,152,101500,1,0
344,171,101677,2,0,B|288:195|274:239|274:239|241:231,1,120
116,229,102735,6,0,B|71:161,1,80,2|0
161,99,103088,2,0,B|212:88|251:128,1,80
265,199,103441,2,0,B|289:226|340:215,1,80,8|0
471,135,103794,5,8
420,195,103971,1,0
354,135,104147,2,0,B|330:108|279:119,1,80,0|8
162,162,104500,2,0,B|254:154,1,80,0|8
274,232,104853,5,0
307,305,105030,1,0
229,340,105206,2,0,B|172:330|168:263,1,80,8|0
175,198,105559,2,0,B|151:245|88:237,1,80
55,113,105912,2,0,B|135:66|210:118,2,160,8|0|0
27,166,106794,1,0
21,223,106971,6,0,B|44:308,1,80,4|0
118,337,107324,2,0,B|167:310|168:241,1,80,8|0
129,232,107588,2,0,B|132:189,1,40
182,199,107765,2,0,B|200:157,1,40
239,188,107941,2,0,B|265:159,1,40
347,113,108206,6,0,B|402:189|351:286,1,160,8|0
207,289,108735,2,0,B|290:247,1,80,8|0
325,327,109088,2,0,B|363:351|424:336,1,80
396,252,109441,2,0,B|447:236|481:183,1,80,8|0
377,154,109794,1,0
377,154,110147,6,0,B|296:109,1,80
192,118,110500,2,0,B|153:147|166:225,1,80,8|0
69,321,110853,2,0,B|108:292|95:214,1,80,0|8
86,176,111206,6,0,B|8:160,1,80,4|0
179,266,111559,2,0,B|264:287,1,80
429,255,111912,1,8
366,188,112088,1,0
267,169,112265,6,0,B|236:128|241:66,1,80
128,181,112618,2,0,B|104:273,2,80,0|8|0
152,93,113147,1,0
339,114,113324,6,0,B|370:155|365:217,1,80,0|8
332,285,113677,2,0,B|330:330|358:359,1,80,0|0
493,268,114030,2,0,B|411:297,1,80,8|0
196,299,114382,6,0,B|179:344,2,40,2|0|0
115,191,114735,2,0,B|69:189,2,40,2|0|0
200,90,115088,2,0,B|183:51,2,40,2|0|0
320,91,115441,6,0,B|364:96|364:96|398:142,1,80
362,292,115794,2,0,B|344:247|304:225|306:218|313:206,1,80,8|0
334,199,116059,1,0
379,189,116147,1,0
418,197,116235,1,0
445,232,116324,1,0
457,267,116412,1,0
437,305,116500,6,0,B|482:224,1,80,4|0
465,84,116853,2,0,B|430:56|363:79,1,80,8|0
210,122,117206,2,0,B|245:150|312:127,1,80
207,37,117559,5,2
118,101,117735,1,0
135,202,117912,1,2
287,133,118088,5,2
344,219,118265,1,2
278,301,118441,1,2
256,192,118618,12,0,119677
256,192,120030,5,0
128,121,120559,5,0
128,121,120735,2,0,B|104:216|167:278,1,160,0|8
376,200,121441,1,0
376,200,121794,6,0,B|392:296|288:344,1,160,2|0
256,224,122324,1,0
256,224,122500,2,0,B|288:128,1,80,8|0
232,80,122853,5,2
152,48,123030,1,0
72,96,123206,2,0,B|32:200|144:232,1,160,8|0
216,128,123912,6,0,B|136:112,1,80,2|0
216,168,124265,2,0,B|320:184|344:88,1,160,8|0
410,42,124794,1,0
467,109,124971,6,0,B|475:205,1,80,0|2
397,256,125324,2,0,B|390:176,1,80,0|2
336,312,125677,2,0,B|240:328,1,80,8|0
120,304,126030,2,0,B|80:216|176:152,1,160,2|0
216,256,126559,1,0
216,256,126735,2,0,B|120:224,1,80,8|0
208,104,127088,6,0,B|216:56|168:24,2,80,2|0|0
128,184,127618,2,0,B|80:192|32:160,1,80,0|8
120,104,127971,1,0
208,104,128147,6,0,B|272:88|344:120,1,119.999996423721,2|0
368,128,128677,2,0,B|344:48,2,59.9999982118607
384,184,129206,2,0,B|378:249|378:249|336:287,1,119.999996423721,2|0
251,256,129735,1,0
168,300,129912,1,0
168,300,130265,6,0,B|98:280|110:192,1,119.999996423721,2|0
94,157,130794,2,0,B|19:200,2,59.9999982118607
145,130,131324,2,0,B|158:57|86:22,1,119.999996423721,2|0
53,86,131853,1,0
53,86,132030,1,0
135,64,132382,6,0,B|260:33,2,119.999996423721,2|0|0
26,172,133441,2,0,B|11:244|78:288,1,119.999996423721,2|0
151,237,133971,1,0
236,193,134147,2,0,B|251:115,1,59.9999982118607
343,73,134500,6,0,B|380:108|366:157,1,80,2|0
314,202,135030,1,0
290,279,135206,1,0
327,348,135382,1,0
256,192,135559,12,0,137677
