osu file format v9

[General]
AudioFilename: 45nen no Yukizakura.mp3
AudioLeadIn: 1000
PreviewTime: 102735
Countdown: 0
SampleSet: Soft
StackLeniency: 0.7
Mode: 0
LetterboxInBreaks: 0

[Editor]
Bookmarks: 91421
DistanceSpacing: 1
BeatDivisor: 2
GridSize: 4

[Metadata]
Title:45nen no Yukizakura
Artist:Kozato
Creator:LoliSora
Version:Beginner
Source:BMS
Tags:kanon mjw5150 twice yukinohara

[Difficulty]
HPDrainRate:1
CircleSize:3
OverallDifficulty:1
ApproachRate:3
SliderMultiplier:0.8
SliderTickRate:1

[Events]
//Background and Video events
0,0,"BG.jpg"
//Break Periods
2,68853,75884
//Storyboard Layer 0 (Background)
//Storyboard Layer 1 (Fail)
//Storyboard Layer 2 (Pass)
//Storyboard Layer 3 (Foreground)
//Storyboard Sound Samples
//Background Colour Transformations
3,100,255,255,255

[TimingPoints]
30,352.941176470588,3,2,1,70,1,0
42206,-100,3,2,1,55,0,0
42559,-100,3,2,1,60,0,0
42912,-100,3,2,1,65,0,0
43265,-100,3,2,1,70,0,0
51912,-100,3,2,1,70,0,1
67794,-100,3,2,1,40,0,0
77147,-100,3,2,1,70,0,0
85794,-100,3,2,1,75,0,0
102735,-100,3,2,1,65,0,1
118618,-100,3,2,1,65,0,0
135559,-100,3,1,1,65,0,0

[Colours]
Combo1 : 255,255,185
Combo2 : 255,128,255
Combo3 : 255,255,255
Combo4 : 255,96,175
SliderBorder : 250,207,250

[HitObjects]
256,192,1088,1,4
256,192,2147,1,8
256,192,3206,1,4
256,192,4265,1,8
452,332,5324,6,0,B|424:296|336:296|304:332,1,160,4|8
224,328,6382,2,0,B|160:272|184:180,1,160,4|8
248,136,7441,2,0,B|328:136,2,80,4|8|8
168,136,8500,2,0,B|116:136|112:240|56:240,1,160,4|8
56,320,9559,5,4
256,192,10618,1,8
464,320,11677,1,4
464,320,12735,2,0,B|432:352|352:352|312:320,1,160,8|8
256,264,13794,1,4
256,104,14500,5,8
256,184,14853,2,0,B|232:224|152:240|112:208,1,160,4|8
55,152,15912,2,0,B|47:112|55:64,2,80,6|8|8
64,232,16971,2,0,B|88:320|184:320,1,160,4|8
256,347,18029,5,4
414,166,19088,1,8
176,136,20147,2,0,B|184:176|176:216,2,80,4|8|8
184,56,21206,2,0,B|264:32|344:56,1,160,4|8
376,128,22265,6,0,B|344:200|384:288,1,160,4|8
336,352,23324,1,4
192,281,24029,1,8
177,202,24382,2,0,B|93:165,2,80,4|8|8
246,162,25441,2,0,B|219:57,2,80,4|8|8
320,192,26500,6,0,B|352:264|320:352,1,160,4|8
252,307,27559,2,0,B|199:299|176:326|156:348|91:350,1,160,4|8
80,272,28618,1,4
97,112,29324,1,8
97,112,29677,2,0,B|184:108|248:60,1,160,4|8
319,93,30735,1,4
355,164,31088,6,0,B|441:170,2,80,8|8|4
292,214,32147,1,8
289,293,32500,1,8
216,326,32853,6,0,B|139:346,1,80,4|8
64,316,33559,1,8
56,236,33912,2,0,B|-9:172,2,80,4|8|8
134,217,34971,6,0,B|222:201|254:121,1,160,4|8
334,121,36029,2,0,B|366:201|454:217,1,160,2|8
416,288,37088,2,0,B|384:328|304:328|304:328|272:352,1,160,4|8
192,344,38147,1,2
96,128,39206,5,2
144,192,39559,2,0,B|184:184|224:192,1,80,0|8
295,226,40265,2,0,B|293:272|260:306,2,80,0|0|8
368,192,41324,2,0,B|376:152|368:112,2,80
344,268,42382,5,0
271,233,42735,1,8
192,248,43088,1,8
147,314,43441,1,4
384,344,44500,5,8
256,136,45559,1,4
136,344,46618,1,8
136,345,47677,6,0,B|156:297|248:297|268:345,1,160,4|8
348,345,48735,2,0,B|444:345|460:253,1,160,4|8
400,200,49794,2,0,B|384:108|288:108,1,160,4|8
240,172,50853,2,0,B|144:172|128:264,1,160,4|8
176,328,51912,5,4
324,268,52618,1,8
324,268,52971,2,0,B|396:223|396:134,1,160,4|8
336,80,54029,2,0,B|312:120|216:120|192:80,1,160,4|8
112,80,55088,1,4
112,240,55794,5,8
112,320,56147,2,0,B|188:360|268:324,1,160,4|8
324,268,57206,2,0,B|404:268,2,80,4|8|8
256,224,58265,2,0,B|216:152|256:64,1,160,4|8
333,72,59324,2,0,B|370:154|330:226,1,160,4|8
254,250,60382,5,4
140,137,61088,1,8
140,137,61441,1,4
85,287,62147,1,8
85,287,62500,5,4
230,353,63206,1,8
230,353,63559,1,4
388,328,64265,1,8
388,328,64618,6,0,B|460:288|460:192,1,160,4|8
460,116,65677,2,0,B|420:116|380:116,1,80,4|8
300,116,66382,1,8
300,116,66735,1,4
204,244,67441,1,8
204,244,67794,1,0
216,112,77324,6,0,B|192:192|216:272,1,160,4|8
296,269,78382,2,0,B|320:192|296:112,1,160,2|8
216,112,79441,2,0,B|140:148|60:112,1,160,4|8
8,52,80500,1,2
112,268,81559,6,0,B|168:332|256:316,1,160,4|8
256,236,82618,2,0,B|341:237|388:161,1,160,2|8
396,80,83677,2,0,B|316:96|236:84,1,160,4|8
188,148,84735,2,0,B|144:136|120:100,2,80,4|8|8
256,192,85794,5,4
180,332,86500,1,8
180,332,86853,2,0,B|256:376|332:332,1,160,4|8
346,253,87912,2,0,B|346:173|422:117,1,160,4|8
484,168,88971,2,0,B|512:252|448:316,1,160,4|8
380,352,90030,6,0,B|220:352,1,160,4|8
168,290,91088,1,2
224,56,92147,1,4
460,96,93206,1,2
416,331,94265,5,4
257,307,94971,1,8
184,272,95324,2,0,B|152:192|184:112,1,160,4|8
209,40,96382,1,4
335,136,97088,1,8
392,192,97441,1,4
256,288,98147,5,8
256,288,98500,2,0,B|320:344|408:312,1,160,4|8
464,256,99559,2,0,B|496:176|448:96,1,160,4|8
392,48,100618,1,4
256,248,101677,1,0
256,248,102735,6,0,B|176:248,2,80,4|8|8
336,248,103794,2,0,B|368:168|336:88,1,160,4|8
257,90,104853,2,0,B|177:122|97:90,1,160,4|8
20,92,105912,2,0,B|-10:168|21:248,1,160,4|8
56,320,106971,5,4
192,232,107677,1,8
192,232,108030,2,0,B|192:142,2,80,4|8|8
193,312,109088,2,0,B|273:344|353:312,1,160,4|8
388,243,110147,2,0,B|428:235|468:243,2,80,4|8|8
349,313,111206,6,0,B|298:284|310:226|310:226|249:194,1,160,4|8
251,119,112265,1,4
128,224,112971,1,8
128,224,113324,2,0,B|136:320|224:344,1,160,4|8
298,341,114382,2,0,B|380:318|388:222,1,160,4|8
392,144,115441,5,4
232,144,116147,1,8
152,144,116500,2,0,B|72:144,2,80,4|8|8
232,144,117559,2,0,B|304:184|304:280,1,160,4|8
304,360,118618,1,0
160,168,119677,6,0,B|256:152|256:56,1,160,4|8
336,40,120735,2,0,B|376:32|416:40,1,80,4|8
496,64,121441,1,8
496,144,121794,2,0,B|496:240|416:272,1,160,4|8
360,328,122853,2,0,B|280:304|200:336,1,160,4|8
120,336,123912,5,4
256,136,124971,1,8
392,336,126030,1,4
256,136,127088,1,8
256,136,128147,6,0,B|280:176|320:192,2,80,4|8|8
192,80,129206,2,0,B|144:144|176:232,1,160,4|8
240,280,130265,2,0,B|184:344|96:344,1,160,2|8
64,272,131324,2,0,B|120:208|208:208,1,160,2|8
288,208,132382,5,0
446,187,133088,1,8
372,218,133441,2,0,B|336:140|372:60,1,160,2|8
295,37,134500,2,0,B|269:119|178:163,1,160,2|0
256,192,135559,12,0,137677
