osu file format v9

[General]
AudioFilename: 45nen no Yukizakura.mp3
AudioLeadIn: 1000
PreviewTime: 102735
Countdown: 0
SampleSet: Soft
StackLeniency: 0.7
Mode: 0
LetterboxInBreaks: 0

[Editor]
Bookmarks: 91421
DistanceSpacing: 1.5
BeatDivisor: 4
GridSize: 32

[Metadata]
Title:45nen no Yukizakura
Artist:Kozato
Creator:LoliSora
Version:Another
Source:BMS
Tags:kanon mjw5150 twice yukinohara

[Difficulty]
HPDrainRate:7
CircleSize:4
OverallDifficulty:7
ApproachRate:9
SliderMultiplier:1.5
SliderTickRate:1

[Events]
//Background and Video events
0,0,"BG.jpg"
//Break Periods
2,68853,76724
//Storyboard Layer 0 (Background)
//Storyboard Layer 1 (Fail)
//Storyboard Layer 2 (Pass)
//Storyboard Layer 3 (Foreground)
//Storyboard Sound Samples
//Background Colour Transformations
3,100,255,255,255

[TimingPoints]
30,352.941176470588,3,2,1,70,1,0
51912,-100,3,2,1,70,0,1
67794,-100,3,2,1,65,0,0
101588,-200,3,2,1,5,0,0
102118,-100,3,2,1,65,0,0
102735,-100,3,2,1,65,0,1
118618,-100,3,2,1,65,0,0
119103,-100,3,2,1,25,0,0
119235,-100,3,2,1,35,0,0
119412,-100,3,2,1,45,0,0
119588,-100,3,2,1,55,0,0
119632,-100,3,2,1,65,0,0
135559,-100,3,1,1,65,0,0

[Colours]
Combo1 : 255,255,185
Combo2 : 255,128,255
Combo3 : 255,255,255
Combo4 : 255,96,175
SliderBorder : 250,207,250

[HitObjects]
283,297,1088,6,0,B|203:345|135:265,1,150,10|2
119,189,1618,1,0
211,165,1794,2,0,B|239:201|219:241,1,75,8|0
139,101,2147,2,0,B|111:65|131:25,1,75,2|8
235,77,2500,2,0,B|303:25|395:81,1,150,8|2
459,105,3029,1,8
447,193,3206,6,0,B|435:267,1,75,2|8
380,342,3559,1,0
336,197,3735,1,8
283,301,3912,2,0,B|237:311|192:278,1,75,10|0
142,198,4265,2,0,B|205:155|295:159,2,150,10|0|2
46,242,5147,5,8
46,242,5235,1,0
46,242,5324,2,0,B|63:163,1,75,4|0
145,104,5677,2,0,B|181:117|249:107,1,75,8|0
397,168,6029,2,0,B|361:155|293:165,1,75,0|8
204,284,6382,2,0,B|240:260|254:208,1,75,10|8
263,51,6735,2,0,B|227:75|213:127,1,75,0|0
322,161,7088,2,0,B|361:155|397:168,1,75,8|0
219,109,7441,6,0,B|145:96|57:109,1,150,10|0
79,216,7971,1,8
228,280,8147,2,0,B|250:232|242:181,1,75,8|0
338,88,8500,2,0,B|316:136|324:187,1,75,0|8
418,98,8853,2,0,B|464:19,1,75,8|0
412,127,9206,2,0,B|342:147|257:129,1,150,8|4
199,245,9735,5,2
203,261,9824,1,0
207,277,9912,1,8
304,329,10088,1,2
304,329,10265,2,0,B|380:312,1,75,8|0
412,128,10618,2,0,B|341:120|268:161,1,150,10|0
173,231,11147,1,2
173,231,11324,2,0,B|140:154,1,75,8|0
33,59,11677,5,12
67,182,11853,1,0
215,95,12029,1,0
140,264,12206,1,8
23,156,12382,1,8
52,282,12559,1,0
143,115,12735,2,0,B|121:191|140:264,1,150,10|0
217,336,13265,1,0
249,160,13441,6,0,B|279:119|335:104,1,75,10|0
359,205,13794,2,0,B|351:249|383:285,1,75,0|8
463,229,14147,1,8
431,133,14324,1,0
359,205,14500,1,2
40,247,14853,6,0,B|80:228|128:227,1,75,10|2
237,223,15206,1,0
199,83,15382,1,0
259,224,15559,1,8
315,132,15735,1,0
333,303,15912,6,0,B|386:300|426:270,1,75,8|8
455,191,16265,1,0
315,132,16441,1,8
222,298,16618,1,8
84,143,16794,1,0
71,293,16971,2,0,B|117:291|155:257,1,75,8|8
255,78,17324,1,0
249,182,17500,1,0
170,111,17677,1,10
170,111,18029,6,0,B|171:196,1,75,12|2
182,290,18382,2,0,B|229:267|280:269,1,75,0|8
358,256,18735,1,8
416,99,18912,2,0,B|408:138|423:173,1,75,2|0
467,268,19265,1,2
286,124,19441,2,0,B|204:143,1,75,8|0
139,65,19794,1,0
87,276,19971,1,8
161,196,20147,6,8,B|215:138,1,75,0|8
296,216,20500,2,0,B|316:253|356:280,1,75,8|2
435,325,20853,1,8
381,147,21029,1,0
102,117,21206,2,0,B|140:134|204:125,1,75,2|0
271,85,21559,2,0,B|303:65|347:69,1,75,0|8
115,253,21912,2,0,B|83:273|39:269,1,75,10|0
212,264,22265,6,0,B|279:241|329:283,1,112.5,2|0
341,299,22618,2,0,B|428:282,1,75,8|8
469,58,22971,1,0
397,150,23147,1,8
290,100,23324,2,0,B|258:120|214:116,1,75,8|2
69,70,23677,1,2
114,156,23853,5,8
114,156,23941,1,0
114,156,24029,2,0,B|167:120|233:114,1,112.5,8|0
240,145,24382,2,0,B|224:185|240:221,1,75,0|8
386,251,24735,2,0,B|402:211|386:175,1,75,8|0
245,62,25088,2,0,B|292:48|336:51,1,75,0|8
239,145,25441,6,0,B|167:193|87:133,1,150,10|0
55,65,25971,1,0
55,65,26059,1,0
55,65,26147,1,8
155,110,26324,1,8
96,234,26500,6,0,B|76:162,1,75,0|8
0,211,26853,1,8
26,315,27029,1,10
76,331,27118,1,0
121,332,27206,2,0,B|162:335|219:313,1,75,8|2
233,171,27559,2,0,B|257:211|233:255,1,75,10|2
121,332,27912,1,2
238,242,28088,1,0
359,330,28265,2,0,B|402:338|440:308,1,75,8|2
418,210,28618,5,0
318,243,28794,2,0,B|305:213|322:169,1,75,8|0
359,329,29147,1,8
271,273,29324,2,0,B|199:225|123:285,1,150,0|8
80,378,29853,1,8
124,338,29941,1,0
131,278,30029,2,0,B|126:242|103:204,1,75
48,79,30382,1,8
206,117,30559,1,0
151,185,30735,6,0,B|99:121|155:41,1,150,10|0
280,104,31265,1,8
280,104,31353,1,8
280,104,31441,2,0,B|207:117,1,75,8|0
235,201,31794,2,0,B|255:241|239:273,1,75,8|0
127,293,32147,1,0
151,185,32324,1,8
239,274,32500,2,0,B|226:323|178:343,1,75,8|0
151,185,32853,6,0,B|164:136|212:116,1,75,0|8
293,91,33206,2,0,B|334:99|373:87,1,75,8|8
312,267,33559,2,0,B|272:287|232:271,1,75,0|8
354,181,33912,2,0,B|389:148,2,37.5,0|0|0
425,257,34265,2,0,B|470:260,2,37.5,0|0|0
377,350,34618,2,0,B|400:370,4,18.75
63,293,34971,5,4
63,293,35147,2,0,B|103:305|139:281,1,75,8|0
244,172,35500,1,8
244,172,35588,1,0
244,172,35677,2,0,B|204:160|168:184,1,75,0|8
218,280,36030,6,0,B|239:358,1,75,0|8
244,172,36382,2,0,B|278:97,1,75,8|0
218,280,36735,1,8
371,339,36912,1,8
371,339,37000,1,0
371,339,37088,2,0,B|371:255,1,75,0|8
373,129,37441,5,8
218,280,37618,1,0
121,257,37794,2,0,B|93:206|93:134,1,112.5
116,118,38147,2,0,B|185:73,1,75,8|8
312,55,38500,1,0
244,172,38677,1,8
244,172,38765,1,0
244,172,38853,1,8
44,225,39206,5,0
136,332,39382,1,8
125,196,39559,1,0
49,311,39735,1,8
174,260,39912,1,8
174,260,40088,5,0
307,281,40265,1,8
211,181,40441,1,0
233,316,40618,1,8
292,199,40794,1,8
125,196,40971,1,0
233,316,41147,1,8
364,196,41324,6,0,B|325:181|292:200,1,75,0|8
130,141,41677,2,0,B|169:156|203:138,1,75,8|0
233,38,42030,1,0
233,38,42206,1,8
124,40,42382,2,0,B|81:19,2,37.5
37,192,42735,2,0,B|69:232,2,37.5
169,305,43088,2,0,B|145:329,4,18.75
266,242,43441,5,0
233,138,43618,1,8
396,58,43794,2,0,B|364:70|323:60,1,75,8|0
399,244,44147,1,0
435,347,44324,1,0
419,133,44500,2,0,B|430:58,1,75,8|0
322,60,44853,2,0,B|253:100|169:96,1,150
79,59,45382,5,8
79,59,45471,1,0
79,59,45559,2,0,B|87:152,1,75,0|8
311,153,45912,2,0,B|395:166,1,75,0|8
259,235,46265,2,0,B|343:248,1,75,8|0
311,153,46618,6,0,B|395:166,1,75,0|8
259,235,46971,2,0,B|343:248,1,75,8|0
209,317,47324,2,0,B|293:330,1,75,0|8
136,86,47677,6,0,B|52:99,1,75,0|8
188,168,48030,2,0,B|104:181,1,75,8|0
136,86,48382,6,0,B|52:99,1,75,0|8
188,168,48735,2,0,B|104:181,1,75,8|0
319,249,49088,6,0,B|399:249,1,75,0|8
475,249,49441,1,8
475,249,49618,1,0
213,250,49794,2,0,B|133:250,1,75,0|8
57,250,50147,1,8
213,250,50324,1,0
58,250,50500,2,0,B|14:182|66:106,1,150,0|8
149,35,51030,1,8
240,100,51206,1,0
347,67,51382,2,0,B|364:39,12,18.75,0|0|0|0|0|0|0|0|0|0|0|0|4
355,181,52088,5,0
355,181,52177,1,0
355,181,52265,2,0,B|396:194|443:177,1,75,8|0
231,109,52618,2,0,B|190:96|143:113,1,75,0|8
173,329,52971,6,0,B|240:291|253:208,1,150,0|8
136,65,53500,1,8
136,65,53588,1,0
136,65,53677,2,0,B|116:104|138:166,1,75,0|8
262,269,54030,6,0,B|282:230|260:168,1,75,8|0
136,65,54382,1,0
136,217,54559,1,8
64,105,54735,1,8
64,185,54912,1,0
134,139,55088,6,0,B|208:122|283:138,1,150,4|8
266,280,55618,2,0,B|241:264|222:221,1,75,0|8
388,243,55971,2,0,B|414:260|433:303,1,75,8|0
258,44,56324,1,0
360,122,56500,2,0,B|283:122,1,75,8|0
380,106,56853,2,0,B|440:174|388:246,1,150,0|8
302,302,57382,1,0
198,284,57559,2,0,B|160:276|136:240,1,75,8|0
223,251,57912,2,0,B|259:177,1,75,0|8
317,48,58265,5,0
364,141,58441,1,8
364,141,58530,1,0
364,141,58618,2,0,B|320:147|262:132,1,75,0|8
86,51,58971,1,8
112,243,59147,2,0,B|100:145,1,75,0|8
171,81,59500,1,0
171,81,59588,1,0
171,81,59677,2,0,B|207:57|255:73,1,75,8|0
403,105,60030,2,0,B|367:129|319:113,1,75,0|8
171,81,60382,5,10
212,244,60559,1,8
249,117,60735,1,0
112,244,60912,1,0
288,288,61088,5,8
163,169,61265,1,0
331,116,61441,1,10
212,244,61618,1,8
171,81,61794,5,0
299,200,61971,1,0
112,244,62147,1,8
249,117,62324,1,0
299,200,62500,5,10
171,81,62677,1,0
212,244,62853,1,0
331,116,63030,1,8
112,244,63206,5,8
288,288,63382,1,0
249,117,63559,1,10
288,288,63912,1,0
112,244,64265,1,0
212,244,64441,5,8
212,244,64530,1,0
212,244,64618,2,0,B|256:228|284:184,1,75,10|8
308,74,64971,2,0,B|264:90|236:134,1,75,8|0
45,169,65324,1,0
195,71,65500,1,0
195,71,65588,1,0
195,71,65677,2,0,B|132:111,1,75,8|0
212,243,66030,2,0,B|240:174,1,75,0|8
359,247,66382,5,8
309,313,66559,1,8
390,324,66735,1,0
332,174,66912,1,8
443,260,67088,1,0
309,313,67265,1,8
415,179,67441,1,8
390,324,67618,1,0
278,236,67794,1,0
64,64,77324,5,4
64,64,77677,1,8
160,96,78206,1,0
160,96,78382,1,8
256,64,78735,1,2
352,96,79088,1,8
448,288,79441,5,4
448,288,79794,1,8
352,256,80324,1,0
352,256,80500,1,8
256,288,80853,1,2
160,256,81206,1,8
64,192,81559,6,0,B|97:113|174:87,1,150,4|8
384,192,82441,1,8
384,192,82618,2,0,B|351:271|274:297,1,150,4|8
256,64,83324,1,8
104,144,83677,6,0,B|80:236,1,75,4|8
195,236,84030,2,0,B|211:328,1,75,8|0
314,271,84382,2,0,B|386:317,1,75,0|8
243,137,84735,2,0,B|219:101|239:61,1,75,8|0
430,106,85088,2,0,B|450:146|434:182,1,75,0|8
315,189,85441,6,0,B|251:245|175:193,1,150,12|8
95,149,85971,1,8
95,149,86059,1,0
95,149,86147,2,0,B|76:248,1,75,0|8
243,138,86500,2,0,B|257:64,1,75,8|0
193,16,86853,6,0,B|261:72|345:16,1,150,0|8
407,53,87382,1,8
407,53,87471,1,0
407,53,87559,2,0,B|413:137,1,75,0|8
419,202,87912,5,8
179,73,88088,1,0
187,275,88265,2,0,B|231:299|275:283,1,75,0|8
419,203,88618,2,0,B|375:179|331:195,1,75,8|0
407,53,88971,5,0
419,204,89324,1,8
179,73,89677,1,0
259,208,90030,1,0
179,161,90206,5,8
179,161,90294,1,0
179,161,90382,2,0,B|135:156|106:121,1,75,0|8
179,73,90735,1,8
259,209,90912,1,8
259,209,91000,1,0
259,209,91088,2,0,B|303:214|332:249,1,75,8|0
374,35,91441,5,8
437,101,91618,2,0,B|482:96|518:112,1,75,8|0
346,119,91971,2,0,B|304:126|263:108,1,75,0|8
179,73,92324,1,8
132,177,92500,2,0,B|108:261|176:333,1,150,0|8
270,283,93030,5,0
270,283,93118,1,0
270,283,93206,2,0,B|316:263|357:267,1,75,8|0
451,295,93559,2,0,B|462:255|451:219,1,75,0|8
384,64,93912,1,8
160,96,94088,1,8
288,128,94265,1,0
96,192,94441,5,0
96,192,94530,1,0
96,192,94618,2,0,B|50:263,1,75,8|0
199,282,94971,2,0,B|239:219,1,75,0|8
288,128,95324,5,8
384,64,95500,1,8
384,64,95588,1,0
384,64,95677,2,0,B|428:96|437:152,1,75,0|8
384,288,96030,2,0,B|377:245|399:205,1,75,8|0
288,128,96382,5,8
160,96,96559,1,0
160,96,96647,1,0
160,96,96735,2,0,B|123:120|69:123,1,75,8|0
32,224,97088,1,0
96,320,97265,1,8
195,268,97441,6,0,B|232:249|291:254,1,75,0|0
288,128,97794,2,0,B|246:121|221:79,1,75,8|0
341,61,98147,2,0,B|405:129|337:201,1,150,8|8
304,279,98677,1,8
304,279,98765,1,0
304,279,98853,1,0
215,149,99030,1,8
195,261,99206,6,0,B|87:277,1,75,0|10
323,169,99559,2,0,B|397:158,1,75,8|2
215,149,99912,2,0,B|190:76,1,75,0|2
304,279,100265,2,0,B|328:349,1,75,8|0
120,271,100618,6,0,B|195:261,1,75,8|2
397,158,100971,2,0,B|323:169,1,75,8|2
190,78,101324,2,0,B|215:149,1,75,0|2
328,349,101677,6,0,B|304:279,1,75
256,192,102206,2,0,B|224:192,10,18.75
256,192,102735,5,8
384,160,102912,2,0,B|432:159|463:124,2,75
288,64,103441,2,0,B|322:32|380:31,1,75,0|8
256,192,103794,2,0,B|223:157|228:107,1,75,8|0
288,64,104147,2,0,B|220:100|128:96,1,150,0|8
56,50,104677,5,0
56,50,104765,1,0
56,50,104853,2,0,B|22:140,1,75,10|0
32,224,105206,1,0
198,175,105382,1,8
29,120,105559,1,0
128,256,105735,1,8
133,90,105912,5,0
265,325,106265,1,8
409,96,106618,1,2
413,223,106794,5,0
401,223,106882,1,0
389,221,106971,2,0,B|349:222|314:198,1,75,8|0
301,29,107324,2,0,B|267:56|266:113,1,75,0|8
45,82,107677,1,8
55,234,107853,5,0
55,234,107941,1,0
55,234,108030,2,0,B|100:250|153:230,1,75,8|0
224,160,108382,2,0,B|272:258,1,75,0|8
55,234,108735,2,0,B|22:166,1,75,8|0
157,81,109088,5,8
320,71,109265,1,0
365,188,109441,2,0,B|285:210|224:160,1,150,8|0
160,232,109971,2,0,B|130:255|134:299,1,75,0|8
259,356,110324,5,0
224,160,110500,1,10
134,299,110677,1,8
388,312,110853,1,0
311,166,111030,1,8
259,356,111206,1,10
390,222,111382,5,0
393,210,111471,1,0
396,199,111559,2,0,B|412:155|380:103,1,75,8|0
177,129,111912,2,0,B|161:173|193:225,1,75,0|8
264,258,112265,2,0,B|204:194|120:246,1,150,10|8
191,320,112794,5,0
191,320,112882,1,0
191,320,112971,2,0,B|224:351|265:346,1,75,8|0
358,280,113324,1,10
238,169,113500,1,0
264,258,113677,2,0,B|344:215|316:115,1,150
241,98,114206,5,0
241,98,114294,1,0
242,98,114382,2,0,B|218:134|242:178,1,75,10|0
259,329,114735,2,0,B|283:293|259:249,1,75,8|0
177,64,115088,2,0,B|142:144|179:212,1,150,0|8
113,262,115618,5,0
113,262,115706,1,0
113,262,115794,2,0,B|77:278|33:274,1,75
241,99,116147,2,0,B|277:83|321:87,1,75,8|0
404,49,116500,1,10
416,165,116677,5,0
405,180,116765,1,0
393,194,116853,2,0,B|358:226|302:244,1,75,8|8
241,99,117206,1,0
112,305,117382,5,0
122,299,117471,1,0
130,291,117559,2,0,B|166:270|175:217,1,75,10|8
123,168,117912,2,0,B|155:152|187:148|215:160|239:184|243:220,1,150,8|0
319,273,118441,1,8
319,273,118618,1,0
399,47,119147,6,0,B|423:23,12,18.75
399,47,119853,5,0
373,140,120030,2,0,B|365:184|385:212,1,75,8|0
331,345,120382,2,0,B|339:301|319:273,1,75,0|8
238,218,120735,1,8
149,257,120912,2,0,B|109:269|69:245,1,75,0|8
238,218,121265,1,0
164,159,121441,2,0,B|146:74|231:16,1,150,0|8
366,127,121971,5,0
366,139,122059,1,0
362,149,122147,2,0,B|348:200|291:218,1,75,8|0
118,215,122500,2,0,B|131:168|189:146,1,75,0|8
340,35,122853,2,0,B|389:33|424:5,1,75,8|0
363,149,123206,2,0,B|314:151|279:179,1,75,0|8
211,226,123559,1,0
432,263,123735,6,0,B|462:233|467:174,1,75,0|8
366,320,124088,1,0
366,320,124177,1,0
366,320,124265,2,0,B|280:338,1,75,0|8
195,321,124618,1,0
73,152,124794,1,0
37,242,124971,6,0,B|106:250|172:202,1,112.5,8|0
176,214,125324,2,0,B|157:292,1,75,0|8
293,242,125677,2,0,B|310:169,1,75,8|0
148,70,126030,2,0,B|97:97|64:172,1,112.5
83,184,126382,2,0,B|11:128,1,75,0|8
225,288,126735,5,8
243,129,126912,1,0
243,129,127000,1,0
243,129,127088,1,0
371,232,127265,1,0
225,288,127441,1,8
243,129,127618,1,0
280,213,127794,1,0
64,64,128147,5,4
64,64,128500,1,8
96,160,129030,1,0
96,160,129206,1,8
64,256,129559,1,0
96,352,129912,1,8
448,64,130265,5,4
448,64,130618,1,8
416,160,131147,1,0
416,160,131324,1,8
448,256,131677,1,0
416,352,132030,5,8
416,352,132206,1,0
416,352,132382,2,0,B|348:306|263:332,1,150,4|8
90,273,133265,5,0
90,273,133441,2,0,B|145:217|227:225,1,150,8|0
384,64,134147,5,8
384,64,134324,1,0
384,64,134500,2,0,B|336:123|242:123,1,150,4|0
159,89,135030,1,0
159,89,135206,2,0,B|115:176,1,75,8|0
256,192,135559,12,0,137677
