osu file format v9

[General]
AudioFilename: aaaad.mp3
AudioLeadIn: 1004
PreviewTime: 51889
Countdown: 0
SampleSet: Soft
StackLeniency: 0.7
Mode: 0
LetterboxInBreaks: 1

[Editor]
DistanceSpacing: 1.2
BeatDivisor: 4
GridSize: 4

[Metadata]
Title:45nen no Yukizakura
Artist:Kozato
Creator:Apricot
Version:Insane
Source:BMS
Tags:2009

[Difficulty]
HPDrainRate:6
CircleSize:4
OverallDifficulty:8
ApproachRate:8
SliderMultiplier:1.6
SliderTickRate:2

[Events]
//Background and Video events
0,0,"bg.jpg"
//Break Periods
2,18217,21855
2,69039,76561
//Storyboard Layer 0 (Background)
//Storyboard Layer 1 (Fail)
//Storyboard Layer 2 (Pass)
//Storyboard Layer 3 (Foreground)
//Storyboard Sound Samples
//Background Colour Transformations
3,100,163,162,255

[TimingPoints]
1076,352.941176470588,3,2,1,60,1,0
29223,-200,3,2,1,60,0,0
29664,-100,3,2,1,20,0,0
30193,-100,3,2,1,40,0,0
30546,-100,3,2,1,60,0,0
35928,-200,3,2,1,60,0,0
42281,-100,3,2,1,60,0,0
51899,-100,3,2,1,70,0,1
67693,-200,3,2,1,60,0,1
68840,-100,3,2,1,60,0,0
102105,-100,3,2,1,90,0,0
102723,-80,3,2,1,80,0,1
118605,-200,3,2,1,60,0,1
118958,-200,3,2,1,10,0,1
119134,-100,3,2,1,20,0,0
119311,-100,3,2,1,40,0,0
119487,-100,3,2,1,60,0,0
119664,-80,3,2,1,80,0,1
128134,-133.333333333333,3,2,1,80,0,1
135546,-100,3,2,1,60,0,0
135634,-100,3,2,1,10,0,0

[Colours]
Combo1 : 255,255,136
Combo2 : 255,62,255
Combo3 : 134,134,255
Combo4 : 140,255,140

[HitObjects]
360,152,1075,2,0,B|352:200|304:216,1,80,0|2
256,136,1428,2,0,B|216:152|208:208,2,80,0|2|0
256,136,1958,1,2
256,40,2134,5,2
408,288,2487,1,4
104,288,2840,1,2
160,216,3193,6,0,B|192:168|240:168,1,80,0|2
352,168,3546,2,0,B|320:216|272:216,2,80,2|2|0
352,168,4075,1,2
256,136,4252,1,2
256,136,4428,1,2
256,232,4605,2,0,B|288:280|240:288|216:328|264:384,2,160,0|2|4
176,88,5664,6,0,B|224:88|256:64|256:64|280:88|328:88,1,160,2|2
256,152,6193,1,0
184,192,6370,2,0,B|128:192|112:240,1,80,2|0
328,192,6723,2,0,B|384:192|400:144,1,80,2|0
256,240,7075,2,0,B|288:248|288:272|288:272|288:296|312:296,1,80,0|2
384,296,7428,5,2
392,296,7517,1,0
400,296,7605,1,2
408,296,7693,1,0
416,296,7781,2,0,B|496:296,1,80,2|4
456,224,8134,2,0,B|456:176|424:144,1,80,2|0
368,96,8487,5,4
180,132,8664,1,2
328,176,8840,1,2
216,216,9017,1,0
272,296,9193,1,2
272,296,9546,5,4
336,224,9723,2,0,B|328:176|272:152,1,80,0|2
216,108,10075,1,0
216,108,10252,2,0,B|192:72|140:80,2,80,2|0|2
296,56,10781,1,0
384,104,10958,1,2
376,200,11134,1,0
296,256,11311,2,0,B|224:320|144:296,1,160,2|0
148,297,11840,5,2
128,200,12017,1,2
148,297,12193,1,0
304,184,12370,5,2
304,184,12546,1,2
456,72,12723,1,0
456,72,12899,1,2
448,168,13075,5,2
64,168,13428,1,4
256,136,13781,6,0,B|216:152|200:200,1,80,0|2
280,256,14134,2,0,B|320:240|336:192,2,80,0|2|0
184,264,14664,1,2
104,208,14840,5,2
80,168,14928,1,2
88,120,15017,1,2
272,168,15193,5,2
296,208,15281,1,2
288,256,15370,1,2
184,168,15546,5,2
160,128,15634,1,2
168,80,15723,2,0,B|184:48|240:48,1,80,2|2
248,48,15987,1,0
256,48,16075,1,2
264,48,16164,1,0
272,48,16252,2,0,B|304:56|320:88|320:88|336:104|360:112,1,80,2|4
392,176,16605,2,0,B|384:228|348:248,1,80,2|4
268,292,16958,5,2
156,340,17134,1,2
76,252,17311,1,8
132,148,17487,1,0
244,180,17664,1,10
172,244,18017,5,4
256,48,22605,5,4
464,192,22958,1,0
256,336,23311,1,2
48,192,23664,1,0
256,48,24017,1,2
464,192,24370,5,0
376,240,24546,1,0
280,248,24723,1,2
216,176,24899,1,2
312,160,25075,1,8
280,248,25252,1,2
216,176,25428,6,0,B|176:144|200:88,1,80,0|2
208,64,25693,1,0
248,56,25781,1,2
288,72,25870,1,0
304,112,25958,1,2
288,152,26046,1,0
256,168,26134,2,0,B|256:192|240:208|240:208|256:216|256:264,1,80,8|2
256,320,26487,1,4
400,192,26840,5,2
112,192,27193,1,0
328,192,27546,1,2
184,192,27899,1,0
256,192,28252,1,2
256,16,28605,5,4
256,56,28958,1,0
256,88,29311,2,0,B|256:168,1,80,0|0
256,208,29840,6,0,B|256:232,11,20
256,248,30370,2,0,B|256:328,2,80,2|8|0
256,112,31075,5,4
336,192,31428,1,0
256,272,31781,1,2
176,192,32134,1,0
256,112,32487,1,2
448,88,32840,5,0
392,168,33017,1,0
336,240,33193,2,0,B|308:280|264:280,2,80,2|2|0
328,144,33723,1,8
256,80,33899,6,0,B|256:40,2,40
176,136,34252,2,0,B|120:136,2,40
256,192,34605,2,0,B|256:240,2,40
256,192,34958,5,4
312,136,35311,1,0
200,248,35664,1,8
368,80,36017,6,0,B|312:40|264:104|208:72,1,160,4|0
176,80,36899,1,0
136,96,37076,2,0,B|100:120|100:168,2,80,8|0|0
184,160,38134,6,0,B|200:168|200:168|192:176|192:176|208:176|208:176|200:184|200:184|216:184|216:184|208:192|208:192|224:192|224:192|216:200|216:200|232:200|232:200|224:208|224:208|240:208|240:208|240:224,1,160,12|0
296,264,39193,2,0,B|336:296|384:288,2,80,8|0|8
216,248,40252,6,0,B|176:280,2,40,0|8|8
184,176,40781,1,2
208,144,40958,1,2
248,136,41134,1,8
320,176,41311,2,0,B|360:208,2,40,8|2|2
256,224,41840,1,2
272,256,42017,1,8
312,272,42193,1,8
384,304,42370,6,0,B|384:344,2,40
448,252,42723,2,0,B|504:252,2,40
384,200,43076,2,0,B|384:160,2,40
320,248,43428,6,0,B|280:228|244:248,1,80,4|0
280,336,43781,1,2
184,328,43958,1,0
108,272,44134,2,0,B|76:248|76:192,1,80,2|0
168,32,44487,2,0,B|200:56|200:112,1,80,0|2
199,102,44840,1,2
199,102,45193,6,0,B|152:176,1,80,2|0
104,88,45546,2,0,B|64:112|48:152,1,80,2|0
248,192,45899,2,0,B|240:240|216:264,2,80,0|2|0
272,96,46428,5,2
360,56,46605,1,0
424,128,46781,1,2
408,224,46958,2,0,B|388:268|348:280,1,80,0|2
260,304,47311,1,0
224,304,47399,1,0
192,296,47487,1,0
160,280,47576,1,0
136,256,47664,6,0,B|96:232|96:184,1,80,2|2
152,120,48017,1,0
152,120,48193,1,2
336,80,48370,2,0,B|376:104|384:144,1,80,2|0
344,232,48723,1,2
344,232,48899,1,8
256,272,49076,2,0,B|208:284|188:336,2,80,2|8|2
256,272,49605,1,2
344,232,49781,5,2
344,232,49958,1,2
168,232,50134,1,8
168,232,50311,1,2
256,192,50487,2,0,B|256:112,2,80,2|8|4
256,272,51370,6,0,B|256:304,9,20
256,272,51899,6,0,B|256:176,2,80,4|2|0
176,192,52428,1,2
256,112,52605,1,0
336,192,52781,1,2
256,272,52958,6,0,B|208:280|192:320,1,80,2|0
256,112,53311,2,0,B|304:104|320:64,1,80,2|0
256,192,53664,1,0
256,192,53840,1,2
168,144,54017,6,0,B|128:160|120:208,1,80,4|2
36,244,54370,2,0,B|60:292|116:292,1,80,0|2
128,296,54634,1,0
160,296,54723,2,0,B|240:296,1,80,2|0
336,296,55076,5,2
448,136,55428,1,4
256,104,55781,1,2
80,192,56134,6,0,B|104:232|144:248,1,80,4|2
224,280,56487,1,0
328,200,56664,1,0
296,192,56752,1,8
272,176,56840,1,0
248,152,56928,1,2
224,168,57017,1,2
200,184,57105,1,0
168,200,57193,6,0,B|136:228|88:228,1,80,2|2
96,104,57546,2,0,B|128:72|176:72,1,80,0|10
260,48,57899,2,0,B|308:48|340:24|340:24|364:48|412:48,1,160,2|4
408,208,58605,5,2
104,208,58958,1,0
208,280,59311,5,0
256,120,59487,1,2
304,280,59664,1,8
176,192,59840,1,2
336,192,60017,1,8
208,280,60193,1,2
336,192,60370,6,4,B|352:148|396:144,1,80,4|0
436,232,60723,1,2
376,308,60899,1,2
280,320,61076,2,0,B|260:280|288:240,1,80,8|0
380,248,61428,5,2
344,160,61605,1,0
312,144,61693,1,0
288,128,61781,2,0,B|252:100|240:56,1,80,2|0
208,184,62134,2,0,B|240:208|256:256,1,80,2|0
320,320,62487,6,0,B|368:312|384:264,1,80,4|2
384,240,62752,1,0
368,208,62840,1,2
296,144,63017,1,0
208,184,63193,1,2
224,280,63370,1,2
296,144,63546,5,4
96,24,63899,1,2
128,264,64252,1,8
128,264,64340,1,0
128,264,64428,1,8
128,264,64517,1,0
128,264,64605,6,0,B|156:300|200:304,1,80,4|0
288,328,64958,1,0
376,288,65134,1,10
400,264,65223,1,0
424,248,65311,1,2
400,224,65399,1,0
376,200,65487,1,2
400,176,65576,1,0
424,152,65664,6,0,B|424:104|376:80,1,80,4|4
216,104,66017,2,0,B|216:152|264:176,1,80,2|2
352,184,66370,2,0,B|352:136|304:112,1,80,4|2
224,288,66723,5,8
272,128,66899,1,2
320,288,67076,1,0
192,200,67252,1,2
352,200,67428,1,8
224,288,67605,1,2
272,128,67781,6,0,B|296:152|296:184|296:184|296:216|272:240|272:240|248:264|248:296|248:296|248:320|280:344,1,240,4|12
400,96,77311,6,0,B|352:80|328:112,1,80,4|0
304,128,77576,1,0
280,144,77664,2,0,B|240:168|200:144,1,80,4|0
176,136,77928,1,0
144,128,78017,2,0,B|96:120|72:160,1,80,4|0
144,224,78370,5,4
376,264,78723,1,0
440,32,79076,1,0
440,32,79428,6,0,B|400:48|376:80,1,80,4|2
304,136,79781,1,2
208,160,79958,1,2
128,208,80134,2,0,B|88:236|44:224,2,80,0|2|2
216,248,80664,1,0
304,288,80840,1,2
400,296,81017,1,2
360,208,81193,1,0
304,288,81370,1,2
216,312,81546,6,0,B|128:352|48:344,1,160,4|2
120,264,82076,1,0
32,224,82252,2,0,B|104:176|192:184,1,160,2|0
256,240,82781,1,0
332,296,82958,2,0,B|372:320|380:360,2,80,2|0|2
256,240,83487,1,0
176,192,83664,5,2
152,152,83752,1,0
104,136,83840,1,8
88,232,84017,5,2
48,256,84105,1,0
40,304,84193,1,0
136,312,84370,5,2
184,312,84458,1,0
216,280,84546,1,8
256,192,84723,5,8
392,272,84899,1,4
256,192,85076,1,8
392,112,85252,2,0,B|392:80,9,20
392,112,85781,6,0,B|312:112,2,80,4|2|0
432,200,86311,5,2
288,328,86487,1,0
96,296,86664,1,2
48,216,86840,2,0,B|128:216,2,80,4|2|0
112,144,87370,1,2
184,80,87546,2,0,B|224:64|288:72,2,80,0|2|0
112,144,88076,5,2
88,236,88252,1,0
168,288,88428,1,2
240,224,88605,1,2
208,136,88781,1,0
168,288,88958,5,2
408,296,89311,1,4
360,64,89664,1,2
360,64,90017,6,0,B|344:112|300:120,1,80,4|2
224,168,90370,1,0
144,224,90546,1,8
128,248,90634,1,0
96,264,90723,1,8
64,272,90811,1,0
96,288,90899,1,2
120,304,90987,1,0
144,320,91076,6,0,B|168:320|184:344|184:344|224:344,1,80,4|2
256,256,91428,1,8
304,344,91605,1,2
344,256,91781,2,0,B|320:220|276:216,1,80,8|0
256,312,92134,5,2
112,120,92487,1,4
400,120,92840,1,2
256,272,93193,5,0
156,208,93370,1,8
196,96,93546,1,8
316,96,93723,1,0
356,208,93899,1,8
256,272,94076,1,0
96,144,94252,6,0,B|120:96|176:96,1,80,4|2
240,144,94605,1,2
240,144,94781,1,2
192,224,94958,2,0,B|208:264|256:280,1,80,0|2
320,336,95311,2,0,B|360:312|360:256,1,80,0|2
408,192,95664,21,4
360,32,95840,1,2
312,192,96017,1,8
440,104,96193,1,2
280,104,96370,1,4
408,192,96546,5,8
248,240,96723,1,2
408,288,96899,1,8
320,160,97076,1,4
320,320,97252,1,0
408,192,97428,5,2
184,112,97781,1,4
96,336,98134,1,2
96,336,98223,1,0
96,336,98311,1,2
96,336,98399,1,0
96,336,98487,6,0,B|132:308|136:268,1,80,4|0
208,332,98840,1,0
296,296,99017,1,8
320,280,99105,1,0
328,248,99193,1,8
320,216,99281,1,0
288,200,99370,1,2
256,208,99458,1,0
232,232,99546,6,0,B|200:256|144:240,1,80,2|2
64,216,99899,2,0,B|64:168|96:144,1,80,8|2
168,80,100252,2,0,B|208:64|256:72,1,80,0|8
344,72,100605,5,10
432,112,100781,1,0
464,208,100958,1,2
344,72,101134,5,10
336,144,101311,1,2
272,176,101487,1,8
216,136,101664,1,8
256,352,102193,6,0,B|256:384,9,20
256,352,102723,6,0,B|256:248,1,99.9999985098839,4|2
336,192,103076,1,0
280,112,103252,1,2
184,136,103428,1,2
168,232,103605,1,0
264,264,103781,2,0,B|320:248|320:176,1,99.9999985098839,4|0
368,104,104134,5,0
368,104,104311,1,2
448,160,104487,2,0,B|440:216|376:232,1,99.9999985098839,2|2
296,280,104840,1,0
200,312,105017,1,2
160,320,105105,1,0
120,304,105193,2,0,B|64:264|84:208,1,99.9999985098839,4|2
96,120,105546,2,0,B|112:64|160:48,1,99.9999985098839,2|4
256,24,105899,5,2
328,312,106252,1,4
32,336,106605,1,2
32,336,106958,6,0,B|96:336|144:296,1,99.9999985098839,0|2
200,240,107311,1,0
248,152,107487,1,2
240,112,107576,1,0
216,80,107664,1,2
176,72,107752,1,0
144,96,107840,1,2
152,136,107928,1,0
184,160,108017,6,0,B|232:160|272:112,1,99.9999985098839,4|0
424,80,108370,2,0,B|376:80|336:128,1,99.9999985098839,2|2
152,272,108723,2,0,B|200:272|240:224,1,99.9999985098839,2|0
256,48,109076,5,2
256,120,109428,1,4
256,192,109781,1,2
256,192,110134,5,0
320,192,110311,1,2
192,192,110487,1,2
384,192,110664,1,2
128,192,110840,1,0
256,192,111017,5,2
256,192,111193,1,4
312,272,111370,1,0
344,304,111458,1,0
384,320,111546,2,0,B|440:324|472:364,2,99.9999985098839,0|2|2
456,248,112076,1,0
400,160,112252,6,0,B|368:112|312:104,1,99.9999985098839,2|0
280,104,112517,1,0
240,104,112605,2,0,B|176:112|160:176,1,99.9999985098839,2|2
272,280,112958,2,0,B|336:272|352:208,1,99.9999985098839,2|0
144,256,113311,6,0,B|160:312|232:312,1,99.9999985098839,0|2
368,128,113664,2,0,B|352:72|280:72,1,99.9999985098839,2|2
256,192,114017,1,0
256,192,114193,1,2
256,32,114370,5,2
256,192,114723,1,4
256,192,115076,1,8
256,192,115164,1,0
256,192,115252,1,8
256,192,115340,1,0
256,192,115428,6,0,B|256:304,1,99.9999985098839,4|0
152,232,115781,2,0,B|112:208|104:144,1,99.9999985098839,0|2
102,107,116046,1,0
118,70,116134,1,2
150,45,116223,1,0
189,38,116311,1,2
227,49,116399,1,0
256,64,116487,5,2
344,152,116664,1,2
312,264,116840,1,0
192,264,117017,1,0
160,152,117193,1,2
256,64,117370,1,0
344,152,117546,6,0,B|376:204|424:204,2,99.9999985098839,2|2|0
160,152,118076,2,0,B|128:204|80:204,2,99.9999985098839,0|2|2
256,112,118605,6,0,B|272:144|232:176|264:200,1,80
256,224,119134,6,0,B|256:248,9,20,0|0|0|0|0|0|0|0|0|0
360,208,119664,6,0,B|352:152|296:128,1,99.9999985098839,4|2
152,176,120017,2,0,B|160:232|216:256,1,99.9999985098839,0|2
256,344,120370,5,0
420,64,120723,1,4
92,64,121076,1,2
256,344,121428,1,2
256,40,121781,6,0,B|256:144,1,99.9999985098839,4|0
352,104,122134,2,0,B|360:160|412:180,1,99.9999985098839,2|2
160,104,122487,2,0,B|152:160|100:180,1,99.9999985098839,0|2
60,88,122840,5,2
20,180,123017,1,2
76,260,123193,1,0
176,276,123370,1,2
240,200,123546,1,0
256,168,123634,1,0
280,144,123723,1,0
312,136,123811,1,0
344,136,123899,2,0,B|376:136|392:160,3,49.999999254942,4|0|0|0
408,184,124252,5,2
416,216,124340,1,0
416,248,124428,1,0
400,280,124517,1,0
376,304,124605,1,2
352,328,124693,1,0
320,344,124781,1,0
288,352,124870,1,0
256,344,124958,2,0,B|224:344|208:328,3,49.999999254942,4|0|0|0
184,312,125311,5,2
160,288,125399,1,0
144,256,125487,1,0
136,224,125576,1,0
136,192,125664,1,2
144,160,125752,1,0
160,128,125840,1,0
184,104,125928,1,0
216,96,126017,2,0,B|240:88|272:88,3,49.999999254942,4|0|0|0
296,104,126370,6,0,B|336:128|368:184,1,99.9999985098839,2|2
392,112,126723,2,0,B|336:128|304:168,1,99.9999985098839,0|2
248,208,127076,5,4
184,248,127252,1,2
120,288,127428,1,8
144,184,127605,5,2
208,144,127781,1,8
272,104,127958,1,8
344,120,128134,6,0,B|400:152|400:224,1,119.999996423721,4|2
399,219,128840,1,4
168,264,129193,2,0,B|112:232|112:160,1,119.999996423721,4|2
112,164,129899,1,4
216,104,130252,6,0,B|280:80,1,59.9999982118607,2|0
296,136,130605,1,4
296,136,130781,1,0
360,136,130958,2,0,B|384:200,1,59.9999982118607,2|0
432,224,131311,2,0,B|408:288|336:296,2,119.999996423721,4|2|0
256,40,132370,6,0,B|224:16|192:72|128:40,1,119.999996423721,4|0
140,45,133076,1,2
256,344,133428,6,0,B|288:368|320:312|384:344,1,119.999996423721,4|0
371,338,134134,1,2
424,232,134487,5,2
424,232,134576,1,4
424,232,134664,1,2
424,232,134752,1,4
424,232,134840,2,0,B|368:192,1,59.9999982118607,2|4
375,197,135193,2,0,B|304:192,1,59.9999982118607,2|4
315,192,135546,1,12
256,192,135723,12,4,136605
