osu file format v9

[General]
AudioFilename: aaaad.mp3
AudioLeadIn: 1004
PreviewTime: 51889
Countdown: 0
SampleSet: Soft
StackLeniency: 0.7
Mode: 0
LetterboxInBreaks: 1

[Editor]
Bookmarks: 108360
DistanceSpacing: 1
BeatDivisor: 4
GridSize: 4

[Metadata]
Title:45nen no Yukizakura
Artist:Kozato
Creator:Apricot
Version:Hard
Source:BMS
Tags:2009

[Difficulty]
HPDrainRate:5
CircleSize:4
OverallDifficulty:6
ApproachRate:7
SliderMultiplier:1.4
SliderTickRate:2

[Events]
//Background and Video events
0,0,"bg.jpg"
//Break Periods
2,18217,21705
2,69040,76411
//Storyboard Layer 0 (Background)
//Storyboard Layer 1 (Fail)
//Storyboard Layer 2 (Pass)
//Storyboard Layer 3 (Foreground)
//Storyboard Sound Samples
//Background Colour Transformations
3,100,163,162,255

[TimingPoints]
1076,352.941176470588,3,2,1,60,1,0
28517,-200,3,2,1,60,0,0
29664,-100,3,2,1,20,0,0
30193,-100,3,2,1,40,0,0
30546,-100,3,2,1,60,0,0
34870,-133.333333333333,3,2,1,60,0,0
37958,-100,3,2,1,60,0,0
39105,-133.333333333333,3,2,1,60,0,0
42281,-100,3,2,1,60,0,0
51899,-100,3,2,1,70,0,1
68840,-100,3,2,1,60,0,0
102105,-100,3,2,1,70,0,0
102723,-100,3,2,1,80,0,1
119134,-100,3,2,1,20,0,0
119223,-100,3,2,1,40,0,0
119311,-100,3,2,1,60,0,0
119664,-100,3,2,1,80,0,1
127958,-133.333333333333,3,2,1,60,0,1
135546,-100,3,2,1,60,0,0

[Colours]
Combo1 : 255,255,136
Combo2 : 255,62,255
Combo3 : 134,134,255
Combo4 : 140,255,140

[HitObjects]
56,160,1075,1,0
80,224,1252,1,2
128,272,1428,2,0,B|152:304|192:304,2,70,2|0|2
256,208,2134,2,0,B|256:64,2,140,0|2|0
328,328,3193,6,0,B|328:288|288:272,1,70,0|2
324,212,3546,2,0,B|292:192|256:208,1,70,2|2
240,140,3899,2,0,B|200:144|188:184,1,70,0|2
168,248,4252,1,2
168,248,4428,1,2
232,280,4605,2,0,B|216:312|180:328|136:324|112:292,1,140,0|4
168,160,5311,6,0,B|168:104|184:88|184:88|168:72|168:24,2,140,0|2|0
168,304,6370,2,0,B|168:384,2,70,2|0|2
192,240,6899,1,0
240,184,7075,2,0,B|256:144|304:128,1,70,0|2
336,192,7428,6,0,B|384:192,2,35,2|0|2
336,192,7781,2,0,B|320:272|240:304,1,140,0|0
184,280,8311,1,2
128,232,8487,2,0,B|200:176,1,70,2|0
56,168,8840,2,0,B|152:144,1,70,2|2
16,88,9193,2,0,B|160:88,1,140,0|4
224,88,9723,5,0
296,88,9899,2,0,B|384:88,2,70,2|0|2
256,152,10428,1,0
216,208,10605,2,0,B|184:280|104:284,2,140,0|2|0
352,192,11664,5,0
352,192,11840,1,0
256,96,12017,1,2
256,96,12193,1,2
160,192,12370,1,0
160,192,12546,1,2
256,288,12723,1,2
256,288,12899,1,2
256,192,13075,6,0,B|280:144|224:104|256:56,2,140,0|2|4
192,320,14134,2,0,B|240:336|256:352|256:352|272:336|320:320,2,140,2|2|2
160,256,15017,6,0,B|96:304,1,70,0|2
72,232,15370,2,0,B|-8:232,2,70,2|0|2
128,184,15899,2,0,B|128:144,2,35,2|0|2
128,184,16252,2,0,B|164:216|224:216|260:184,1,140,0|2
260,116,16781,1,2
260,44,16958,2,0,B|224:16|160:16|128:44,2,140,2|0|2
196,116,18017,5,4
256,48,22605,5,4
256,192,22958,1,0
256,336,23311,1,2
256,192,23664,1,0
256,192,24017,1,2
256,192,24370,6,0,B|272:160|312:152,2,70,0|2|0
208,240,24899,1,0
152,280,25075,2,0,B|128:312|88:312,2,70,2|0|2
144,208,25605,1,2
84,172,25781,2,0,B|44:148,2,35,2|0|2
144,208,26134,2,0,B|152:172|192:156,1,70,0|2
256,192,26487,5,4
256,360,26840,1,2
256,192,27193,1,0
144,72,27546,1,2
256,192,27899,1,0
368,72,28252,1,2
256,192,28605,6,0,B|256:264,2,70,0|0|2
256,192,29664,2,0,B|256:144,8,35,0|0|0|0|0|0|0|0|0
256,336,30723,5,0
256,192,31075,1,4
400,192,31428,1,0
256,192,31781,1,2
112,192,32134,1,0
256,192,32487,1,2
352,96,32840,6,0,B|340:140|304:156,1,70,0|2
260,104,33193,2,0,B|240:72|196:68,2,70,2|0|2
312,152,33723,1,0
368,192,33899,2,0,B|400:224,2,35,2|0|2
312,232,34252,2,0,B|312:272,2,35,2|0|2
256,192,34605,2,0,B|224:224,2,35,2|0|2
312,152,34958,6,0,B|320:96|384:80,2,104.999996870756,0|2|2
400,208,36017,2,0,B|372:256|316:280|252:260|224:216,1,210,4|0
200,176,36899,1,2
176,136,37076,2,0,B|160:80|96:64,2,104.999996870756,2|0|0
176,280,38134,6,0,B|176:328,8,35,0|0|0|0|0|0|0|0|0
176,176,39193,6,0,B|176:64,2,104.999996870756,2|0|2
224,264,40252,2,0,B|224:320,2,52.4999984353781,0|2|0
292,296,40781,1,2
360,268,40958,1,2
412,216,41134,1,2
412,144,41311,2,0,B|412:88,2,52.4999984353781,0|2|2
348,176,41840,1,0
312,112,42017,1,2
240,92,42193,1,2
168,88,42370,6,0,B|112:88,2,35,2|2|2
176,160,42723,2,0,B|136:200,2,35,2|2|2
240,192,43076,2,0,B|240:232,2,35,2|2|2
312,192,43428,6,0,B|464:192,2,140,2|2|2
272,248,44311,1,2
224,296,44487,2,0,B|204:332|164:336,2,70,0|2|0
256,88,45193,6,0,B|256:168,1,70,2|0
320,192,45546,2,0,B|392:192,1,70,2|2
192,192,45899,2,0,B|120:192,2,70,0|2|0
256,224,46428,1,2
216,280,46605,2,0,B|196:312|156:316,2,70,2|0|2
152,248,47134,1,0
96,208,47311,2,0,B|64:184,2,35,2|0|2
96,208,47664,6,0,B|152:152|232:152,1,140,2|2
288,136,48193,1,0
336,184,48370,2,0,B|360:220|336:264,1,70,2|0
280,288,48723,2,0,B|252:252|280:208,2,70,2|2|2
232,344,49252,1,0
160,352,49428,2,0,B|120:336|120:296,1,70,2|0
104,232,49781,5,2
104,232,49958,1,0
112,160,50134,2,0,B|112:120|148:100,1,70,2|0
184,160,50487,2,0,B|256:192,2,70,2|2|2
256,56,51370,6,0,B|256:16,4,35
256,56,51899,6,0,B|256:144,1,70,4|2
320,104,52252,2,0,B|288:176,1,70,0|2
360,176,52605,2,0,B|304:224,1,70,2|2
256,264,52958,1,2
256,264,53134,1,2
192,296,53311,2,0,B|128:328|56:296,2,140,0|2|0
144,240,54193,5,2
104,184,54370,2,0,B|116:148|160:140,1,70,2|2
168,72,54723,2,0,B|216:80|220:128,1,70,2|0
288,104,55076,2,0,B|296:172|240:196|204:184,2,140,0|2|4
80,192,56134,6,0,B|80:124|136:100|180:120,2,140,0|2|2
152,188,57017,1,2
124,252,57193,2,0,B|124:308|160:340|224:328,2,140,0|2|2
196,260,58076,1,2
240,208,58252,2,0,B|312:208|272:128|352:128,2,140,0|2|0
80,72,59311,5,0
80,72,59487,1,2
80,72,59664,2,0,B|136:112,1,70,2|0
96,168,60017,2,0,B|176:184,1,70,2|0
128,240,60370,6,0,B|136:292|176:320|232:308,2,140,4|2|0
176,192,61252,1,2
224,136,61428,1,2
224,136,61605,2,0,B|272:80,2,70,0|2|0
264,192,62134,1,2
264,192,62311,1,2
336,192,62487,6,0,B|328:256|280:280|220:252,1,140,0|2
184,216,63017,1,2
136,168,63193,2,0,B|112:136|64:136,1,70,2|0
72,208,63546,2,0,B|40:248|40:304|72:336,2,140,0|2|4
256,344,64605,6,0,B|256:200,1,140,0|2
224,144,65134,1,0
160,120,65311,1,0
160,120,65399,1,2
160,120,65487,1,2
96,144,65664,6,0,B|72:176|96:216,1,70,2|2
160,184,66017,2,0,B|180:224|152:256,2,70,2|0|2
96,144,66546,1,0
40,96,66723,2,0,B|16:60|44:28,2,70,2|0|2
96,144,67252,1,2
168,160,67428,1,0
216,216,67605,1,2
256,192,67781,12,4,68840
392,104,77311,5,4
392,176,77487,2,0,B|392:232,2,35,2|0|0
328,200,77840,2,0,B|304:232,2,35,2|0|0
256,192,78193,2,0,B|216:200,2,35,2|0|0
256,48,78723,5,2
256,336,79076,1,0
256,192,79428,6,0,B|256:112,2,70,0|2|2
256,264,79958,1,2
200,224,80134,2,0,B|160:220|140:188,1,70,0|2
112,128,80487,1,2
112,128,80664,1,2
160,80,80840,2,0,B|224:48|296:80,1,140,0|4
352,208,81546,6,0,B|344:296|256:312,2,140,4|2|2
160,176,82605,2,0,B|168:88|256:72,2,140,4|2|2
256,280,83664,5,0
200,232,83840,1,2
312,232,84017,1,2
256,184,84193,6,0,B|256:104,2,70,2|0|2
256,280,84723,2,0,B|256:352,2,70,0|2|0
256,184,85252,2,0,B|256:144,4,35,2|2|2|2|2
256,184,85781,6,0,B|300:152|340:152|384:184,2,140,4|2|0
296,248,86664,1,2
256,304,86840,2,0,B|192:352|124:304,2,140,2|0|2
256,232,87723,1,0
212,176,87899,6,0,B|180:160|144:176,2,70,2|2|0
180,240,88428,1,2
148,304,88605,2,0,B|184:320|216:304,1,70,2|0
264,256,88958,2,0,B|320:200|400:208,2,140,0|2|4
328,56,90017,6,0,B|288:120|192:104,1,140,2|2
144,144,90546,1,0
112,208,90723,1,2
104,224,90811,1,0
96,240,90899,2,0,B|80:272,2,35,2|0|2
160,272,91252,1,2
224,304,91428,6,0,B|280:344|360:344,1,140,0|2
344,272,91958,1,0
400,224,92134,2,0,B|344:184|264:184,2,140,2|0|2
296,96,93193,6,0,B|376:96,1,70,0|2
216,152,93546,2,0,B|136:152,1,70
256,240,93899,1,0
256,240,94076,1,2
336,224,94252,6,0,B|400:256|416:344,1,140,4|0
344,336,94781,1,2
272,336,94958,2,0,B|232:324|224:288,1,70,2|0
192,224,95311,2,0,B|160:152|80:136,2,140,2|0|2
224,288,96193,1,0
272,340,96370,2,0,B|344:380|408:340,2,140,0|2|2
312,288,97252,1,0
360,240,97428,5,2
256,64,97781,1,4
152,240,98134,1,2
416,152,98487,5,0
416,152,98664,1,2
344,152,98840,2,0,B|272:152,1,70,0|2
256,152,99105,1,0
240,152,99193,1,2
168,152,99370,1,2
96,152,99546,2,0,B|56:216|96:284,2,140,2|0|2
144,96,100428,5,0
208,72,100605,2,0,B|304:88|304:176,1,140,2|0
248,208,101134,2,0,B|256:288|328:312,1,140,0|2
328,312,101664,1,4
256,112,102193,6,0,B|256:64,4,35,2|2|2|2|2
256,112,102723,6,0,B|184:72|124:112,1,140,4|0
104,192,103252,1,0
120,276,103428,2,0,B|160:300|208:268,1,70,2|0
256,232,103781,2,0,B|296:244|312:288,2,70,2|0|2
176,204,104311,1,0
96,176,104487,2,0,B|56:164|48:112,1,70,2|0
132,104,104840,6,0,B|204:56|276:112,1,140,0|2
324,160,105370,1,2
384,216,105546,2,0,B|404:252|448:256,1,70,0|2
388,324,105899,2,0,B|320:364|256:324,2,140,0|2|4
216,136,106958,5,4
144,96,107134,2,0,B|120:136|144:168,1,70,0|2
200,224,107487,1,2
216,232,107576,1,0
232,240,107664,1,2
248,248,107752,1,0
264,256,107840,6,0,B|344:296,2,70,2|2|0
336,208,108370,2,0,B|376:128,2,70,2|2|0
336,208,108899,1,2
264,160,109076,2,0,B|220:132|176:132|132:160,2,140,0|2|0
256,328,110134,5,0
184,280,110311,1,2
168,200,110487,1,2
184,280,110664,5,0
256,240,110840,1,2
280,160,111017,1,0
328,96,111193,2,0,B|328:56|376:40,1,70,4|2
400,120,111546,2,0,B|400:160|352:176,1,70,2|0
280,200,111899,2,0,B|236:212|232:256,1,70,2|0
256,328,112252,5,2
336,352,112428,1,2
416,328,112605,1,0
352,272,112781,1,2
336,352,112958,2,0,B|296:352|272:328,1,70,2|0
224,260,113311,5,0
240,176,113487,1,2
304,128,113664,1,2
384,96,113840,2,0,B|424:80|424:40,2,70,2|2|0
456,144,114370,2,0,B|504:216|456:272,2,140,0|2|4
312,64,115428,6,0,B|288:36|248:36,2,70,4|2|0
360,136,115958,1,0
368,152,116046,1,2
376,168,116134,1,0
368,184,116223,1,2
360,200,116311,1,0
312,272,116487,2,0,B|248:312|176:272,2,140,2|0|2
312,272,117370,1,0
256,200,117546,5,2
256,368,117899,1,0
256,368,118076,1,2
256,200,118428,2,0,B|256:112,1,70,0|2
256,200,119134,6,0,B|256:248,4,35,2|2|2|2|2
256,200,119664,6,0,B|248:152|200:144,1,70,4|2
104,136,120017,2,0,B|112:184|160:192,1,70,2|0
192,256,120370,2,0,B|176:296|136:296,1,70,2|2
84,360,120723,2,0,B|36:296|84:232,2,140,0|2|2
256,40,121781,6,0,B|256:192,1,140,0|2
208,248,122311,1,2
176,176,122487,2,0,B|156:144|176:104,1,70,0|2
104,216,122840,2,0,B|124:248|104:284,2,70,2|0|2
176,176,123370,1,2
176,176,123546,1,4
312,104,123899,5,0
384,136,124076,1,2
376,216,124252,1,2
304,232,124428,1,0
264,168,124605,1,2
104,216,124958,5,2
32,248,125134,1,2
40,328,125311,1,0
112,344,125487,1,2
152,280,125664,1,0
308,344,126017,6,0,B|404:344|420:256,1,140,0|2
428,192,126546,1,2
404,112,126723,2,0,B|388:72|348:72,1,70,0|2
268,72,127076,1,2
192,112,127252,1,2
172,192,127428,2,0,B|160:232|188:256,2,70,0|2|0
312,192,128134,6,0,B|424:192,1,104.999996870756,4|2
417,192,128840,1,2
200,192,129193,2,0,B|88:192,1,104.999996870756,4|2
95,192,129899,1,2
152,284,130252,6,0,B|192:316,1,52.4999984353781,0|2
240,332,130605,2,0,B|296:308,1,52.4999984353781,0|2
320,268,130958,2,0,B|344:204,1,52.4999984353781,2|2
328,164,131311,1,2
328,164,131487,1,2
328,164,131664,2,0,B|312:100|256:100,1,104.999996870756,0|2
256,308,132370,5,4
256,308,132723,2,0,B|256:204,1,104.999996870756,0|2
256,100,133428,2,0,B|208:68,1,52.4999984353781,2|0
160,60,133781,2,0,B|112:84,1,52.4999984353781,0|2
96,132,134134,2,0,B|96:204,1,52.4999984353781,2|0
128,220,134487,2,0,B|144:276|208:284,2,104.999996870756,0|2|0
128,220,135546,1,4
