osu file format v14

[General]
AudioFilename: Koyote - Spark.mp3
AudioLeadIn: 0
PreviewTime: 70563
Countdown: 0
SampleSet: None
StackLeniency: 0.7
Mode: 3
LetterboxInBreaks: 1
SpecialStyle: 0
WidescreenStoryboard: 0

[Editor]
DistanceSpacing: 1.5
BeatDivisor: 4
GridSize: 32
TimelineZoom: 1.5

[Metadata]
Title:Spark
TitleUnicode:Spark
Artist:Koyote
ArtistUnicode:Koyote
Creator:Yururu
Version:Crazy Dance
Source:
Tags:
BeatmapID:1178899
BeatmapSetID:557083

[Difficulty]
HPDrainRate:6
CircleSize:7
OverallDifficulty:6
ApproachRate:5
SliderMultiplier:1.4
SliderTickRate:1

[Events]
//Background and Video events
0,0,"14543846_1166582466740698_2188509573618339808_o.jpg",0,0
//Break Periods
//Storyboard Layer 0 (Background)
//Storyboard Layer 1 (Fail)
//Storyboard Layer 2 (Pass)
//Storyboard Layer 3 (Foreground)
//Storyboard Sound Samples

[TimingPoints]
845,422.535211267606,4,1,0,0,1,0
111179,-33.3333333333333,4,1,0,0,0,0
111337,-1000,4,1,0,0,0,0
111549,-100,4,1,0,0,0,0
111602,-33.3333333333333,4,1,0,0,0,0
111760,-1000,4,1,0,0,0,0
111971,-100,4,1,0,0,0,0
112024,-33.3333333333333,4,1,0,0,0,0
112183,-1000,4,1,0,0,0,0
112394,-100,4,1,0,0,0,0
112447,-33.3333333333333,4,1,0,0,0,0
112605,-1000,4,1,0,0,0,0
112816,-100,4,1,0,0,0,0
112869,-20,4,1,0,0,0,0
113239,-1000,4,1,0,0,0,0
113661,-100,4,1,0,0,0,0
141549,-333.333333333333,4,1,0,0,0,0
141866,-100,4,1,0,0,0,0
142394,-333.333333333333,4,1,0,0,0,0
142711,-100,4,1,0,0,0,0
143239,-333.333333333333,4,1,0,0,0,0
143556,-100,4,1,0,0,0,0
144084,-333.333333333333,4,1,0,0,0,0
144401,-100,4,1,0,0,0,0
144929,-333.333333333333,4,1,0,0,0,0
145246,-100,4,1,0,0,0,0
145774,-333.333333333333,4,1,0,0,0,0
146091,-100,4,1,0,0,0,0
146619,-333.333333333333,4,1,0,0,0,0
146936,-100,4,1,0,0,0,0
147464,-333.333333333333,4,1,0,0,0,0
147781,-100,4,1,0,0,0,0
197376,-20,4,1,0,0,0,0
197957,-1000,4,1,0,0,0,0
198168,-100,4,1,0,0,0,0

[HitObjects]
109,192,845,5,0,0:0:0:0:
182,192,950,1,0,0:0:0:0:
256,192,1056,1,0,0:0:0:0:
329,192,1161,1,0,0:0:0:0:
402,192,1267,1,0,0:0:0:0:
475,192,1267,1,0,0:0:0:0:
36,192,1267,128,0,1901:0:0:0:0:
109,192,1901,128,0,2112:0:0:0:0:
182,192,1901,1,0,0:0:0:0:
402,192,2112,128,0,2746:0:0:0:0:
256,192,2112,1,0,0:0:0:0:
329,192,2746,128,0,2957:0:0:0:0:
475,192,2746,1,0,0:0:0:0:
256,192,2957,128,0,4647:0:0:0:0:
182,192,2957,1,0,0:0:0:0:
36,192,3168,128,0,3380:0:0:0:0:
109,192,3380,128,0,3591:0:0:0:0:
182,192,3591,128,0,3802:0:0:0:0:
475,192,4014,128,0,4225:0:0:0:0:
402,192,4225,128,0,4436:0:0:0:0:
329,192,4436,128,0,4647:0:0:0:0:
182,192,4647,128,0,5281:0:0:0:0:
109,192,4647,1,0,0:0:0:0:
109,192,5281,128,0,5492:0:0:0:0:
256,192,5281,1,0,0:0:0:0:
36,192,5492,128,0,6126:0:0:0:0:
402,192,5492,1,0,0:0:0:0:
402,192,6126,128,0,6337:0:0:0:0:
182,192,6126,1,0,0:0:0:0:
475,192,6337,128,0,8028:0:0:0:0:
329,192,6337,1,0,0:0:0:0:
256,192,6549,128,0,6760:0:0:0:0:
182,192,6760,128,0,6971:0:0:0:0:
109,192,6971,128,0,7183:0:0:0:0:
182,192,7394,128,0,7605:0:0:0:0:
109,192,7605,128,0,7816:0:0:0:0:
402,192,7605,1,0,0:0:0:0:
329,192,7711,1,0,0:0:0:0:
36,192,7816,128,0,8028:0:0:0:0:
256,192,7816,1,0,0:0:0:0:
182,192,7922,1,0,0:0:0:0:
329,192,8028,128,0,8661:0:0:0:0:
109,192,8028,1,0,0:0:0:0:
256,192,8661,128,0,8873:0:0:0:0:
402,192,8661,1,0,0:0:0:0:
182,192,8873,128,0,9506:0:0:0:0:
109,192,8873,1,0,0:0:0:0:
109,192,9506,128,0,9718:0:0:0:0:
36,192,9506,1,0,0:0:0:0:
402,192,9718,128,0,10352:0:0:0:0:
475,192,9718,1,0,0:0:0:0:
256,192,10352,128,0,10563:0:0:0:0:
329,192,10352,1,0,0:0:0:0:
109,192,10563,128,0,11408:0:0:0:0:
182,192,10563,1,0,0:0:0:0:
329,192,10774,128,0,10985:0:0:0:0:
402,192,10985,128,0,11197:0:0:0:0:
475,192,11197,128,0,11408:0:0:0:0:
182,192,11408,128,0,12042:0:0:0:0:
36,192,11408,1,0,0:0:0:0:
256,192,12042,128,0,12253:0:0:0:0:
109,192,12042,1,0,0:0:0:0:
402,192,12253,128,0,12887:0:0:0:0:
329,192,12253,1,0,0:0:0:0:
182,192,12464,128,0,12675:0:0:0:0:
109,192,12675,128,0,12887:0:0:0:0:
329,192,12887,128,0,13098:0:0:0:0:
36,192,12887,128,0,13098:0:0:0:0:
475,192,12887,1,0,0:0:0:0:
256,192,13098,128,0,14366:0:0:0:0:
182,192,13098,1,0,0:0:0:0:
475,192,13309,128,0,13521:0:0:0:0:
402,192,13521,128,0,13732:0:0:0:0:
329,192,13732,128,0,13943:0:0:0:0:
182,192,14154,128,0,14366:0:0:0:0:
109,192,14366,128,0,14577:0:0:0:0:
36,192,14577,128,0,14788:0:0:0:0:
256,192,14788,1,0,0:0:0:0:
329,192,14788,1,0,0:0:0:0:
475,192,14788,1,0,0:0:0:0:
182,192,14788,128,0,15211:0:0:0:0:
402,192,15211,128,0,15316:0:0:0:0:
475,192,15211,1,0,0:0:0:0:
329,192,15211,1,0,0:0:0:0:
109,192,15422,128,0,15528:0:0:0:0:
36,192,15422,1,0,0:0:0:0:
329,192,15633,128,0,15739:0:0:0:0:
256,192,15633,1,0,0:0:0:0:
182,192,15845,128,0,15950:0:0:0:0:
109,192,15845,1,0,0:0:0:0:
402,192,16056,128,0,16161:0:0:0:0:
329,192,16056,1,0,0:0:0:0:
475,192,16056,1,0,0:0:0:0:
256,192,16267,128,0,16373:0:0:0:0:
256,192,16478,128,0,16795:0:0:0:0:
256,192,16901,128,0,17218:0:0:0:0:
109,192,16901,1,0,0:0:0:0:
402,192,16901,1,0,0:0:0:0:
256,192,17323,128,0,17746:0:0:0:0:
182,192,17746,1,0,0:0:0:0:
329,192,17746,1,0,0:0:0:0:
109,192,18168,128,0,18591:0:0:0:0:
36,192,18168,1,0,0:0:0:0:
402,192,18168,1,0,0:0:0:0:
256,192,18168,1,0,0:0:0:0:
475,192,18591,128,0,18802:0:0:0:0:
182,192,18591,1,0,0:0:0:0:
402,192,18591,1,0,0:0:0:0:
329,192,18802,128,0,19014:0:0:0:0:
182,192,19014,128,0,19436:0:0:0:0:
36,192,19436,128,0,19647:0:0:0:0:
109,192,19436,1,0,0:0:0:0:
402,192,19436,1,0,0:0:0:0:
256,192,19647,128,0,19859:0:0:0:0:
329,192,19859,128,0,19911:0:0:0:0:
329,192,19964,128,0,20017:0:0:0:0:
329,192,20070,128,0,20123:0:0:0:0:
329,192,20175,128,0,20228:0:0:0:0:
109,192,20281,1,0,0:0:0:0:
36,192,20281,1,0,0:0:0:0:
329,192,20281,128,0,20334:0:0:0:0:
329,192,20387,128,0,20440:0:0:0:0:
329,192,20492,128,0,20545:0:0:0:0:
329,192,20598,128,0,20651:0:0:0:0:
329,192,20704,128,0,20756:0:0:0:0:
329,192,20809,128,0,20862:0:0:0:0:
329,192,20915,128,0,20968:0:0:0:0:
329,192,21021,128,0,21073:0:0:0:0:
109,192,21126,1,0,0:0:0:0:
182,192,21126,1,0,0:0:0:0:
329,192,21126,128,0,21179:0:0:0:0:
329,192,21232,128,0,21285:0:0:0:0:
329,192,21337,128,0,21390:0:0:0:0:
329,192,21443,128,0,21496:0:0:0:0:
402,192,21549,1,0,0:0:0:0:
475,192,21549,1,0,0:0:0:0:
109,192,21549,1,0,0:0:0:0:
182,192,21549,128,0,21971:0:0:0:0:
36,192,21760,1,0,0:0:0:0:
256,192,21971,128,0,22183:0:0:0:0:
475,192,21971,1,0,0:0:0:0:
329,192,22183,128,0,22394:0:0:0:0:
109,192,22183,1,0,0:0:0:0:
402,192,22394,128,0,22605:0:0:0:0:
256,192,22394,1,0,0:0:0:0:
182,192,22499,1,0,0:0:0:0:
109,192,22605,1,0,0:0:0:0:
36,192,22711,1,0,0:0:0:0:
182,192,22816,128,0,23028:0:0:0:0:
329,192,22816,1,0,0:0:0:0:
256,192,23028,128,0,23239:0:0:0:0:
402,192,23028,1,0,0:0:0:0:
109,192,23239,128,0,23450:0:0:0:0:
475,192,23239,1,0,0:0:0:0:
329,192,23239,1,0,0:0:0:0:
182,192,23239,1,0,0:0:0:0:
36,192,23450,128,0,23661:0:0:0:0:
402,192,23450,1,0,0:0:0:0:
329,192,23661,128,0,23873:0:0:0:0:
256,192,23661,1,0,0:0:0:0:
402,192,23873,128,0,24084:0:0:0:0:
182,192,23873,1,0,0:0:0:0:
475,192,24084,128,0,24506:0:0:0:0:
36,192,24084,1,0,0:0:0:0:
109,192,24190,1,0,0:0:0:0:
182,192,24295,1,0,0:0:0:0:
256,192,24401,1,0,0:0:0:0:
329,192,24506,1,0,0:0:0:0:
402,192,24718,1,0,0:0:0:0:
475,192,24929,1,0,0:0:0:0:
109,192,24929,1,0,0:0:0:0:
182,192,24929,1,0,0:0:0:0:
256,192,24929,128,0,25352:0:0:0:0:
36,192,25140,1,0,0:0:0:0:
329,192,25352,128,0,25774:0:0:0:0:
475,192,25352,1,0,0:0:0:0:
402,192,25563,1,0,0:0:0:0:
182,192,25774,128,0,25985:0:0:0:0:
256,192,25774,1,0,0:0:0:0:
36,192,25774,1,0,0:0:0:0:
475,192,25774,1,0,0:0:0:0:
109,192,25985,128,0,26197:0:0:0:0:
402,192,25985,1,0,0:0:0:0:
256,192,26197,128,0,26408:0:0:0:0:
182,192,26197,1,0,0:0:0:0:
329,192,26408,128,0,26619:0:0:0:0:
109,192,26408,1,0,0:0:0:0:
402,192,26619,128,0,27887:0:0:0:0:
36,192,26619,1,0,0:0:0:0:
182,192,26619,1,0,0:0:0:0:
475,192,26619,1,0,0:0:0:0:
256,192,26830,1,0,0:0:0:0:
329,192,27042,1,0,0:0:0:0:
109,192,27042,1,0,0:0:0:0:
182,192,27253,1,0,0:0:0:0:
36,192,27464,1,0,0:0:0:0:
109,192,27464,1,0,0:0:0:0:
182,192,27570,1,0,0:0:0:0:
256,192,27570,1,0,0:0:0:0:
329,192,27675,1,0,0:0:0:0:
475,192,27675,1,0,0:0:0:0:
109,192,27781,1,0,0:0:0:0:
36,192,27781,1,0,0:0:0:0:
256,192,27887,1,0,0:0:0:0:
182,192,27887,1,0,0:0:0:0:
329,192,27992,1,0,0:0:0:0:
402,192,27992,1,0,0:0:0:0:
109,192,28098,1,0,0:0:0:0:
182,192,28098,1,0,0:0:0:0:
256,192,28204,1,0,0:0:0:0:
329,192,28204,1,0,0:0:0:0:
402,192,28309,1,0,0:0:0:0:
475,192,28309,1,0,0:0:0:0:
182,192,28309,128,0,28732:0:0:0:0:
256,192,28732,128,0,28943:0:0:0:0:
36,192,28732,1,0,0:0:0:0:
402,192,28732,1,0,0:0:0:0:
475,192,28732,1,0,0:0:0:0:
329,192,28943,128,0,29154:0:0:0:0:
109,192,29154,128,0,29366:0:0:0:0:
182,192,29154,1,0,0:0:0:0:
402,192,29154,1,0,0:0:0:0:
182,192,29366,128,0,29577:0:0:0:0:
402,192,29577,128,0,29788:0:0:0:0:
256,192,29577,1,0,0:0:0:0:
36,192,29577,1,0,0:0:0:0:
475,192,29577,1,0,0:0:0:0:
109,192,29577,1,0,0:0:0:0:
329,192,29788,128,0,29999:0:0:0:0:
256,192,29999,128,0,30211:0:0:0:0:
182,192,29999,1,0,0:0:0:0:
109,192,29999,1,0,0:0:0:0:
475,192,29999,1,0,0:0:0:0:
256,192,30422,128,0,30633:0:0:0:0:
402,192,30422,1,0,0:0:0:0:
329,192,30422,1,0,0:0:0:0:
109,192,30422,1,0,0:0:0:0:
36,192,30422,1,0,0:0:0:0:
256,192,30845,128,0,31267:0:0:0:0:
182,192,30845,1,0,0:0:0:0:
402,192,30845,1,0,0:0:0:0:
475,192,30845,1,0,0:0:0:0:
402,192,31267,1,0,0:0:0:0:
329,192,31267,1,0,0:0:0:0:
109,192,31267,1,0,0:0:0:0:
36,192,31267,1,0,0:0:0:0:
182,192,31690,1,0,0:0:0:0:
256,192,31690,1,0,0:0:0:0:
402,192,31690,1,0,0:0:0:0:
329,192,31690,128,0,32112:0:0:0:0:
109,192,32112,128,0,32323:0:0:0:0:
36,192,32112,1,0,0:0:0:0:
402,192,32112,1,0,0:0:0:0:
475,192,32112,1,0,0:0:0:0:
182,192,32323,128,0,32535:0:0:0:0:
256,192,32535,128,0,32746:0:0:0:0:
329,192,32535,1,0,0:0:0:0:
402,192,32535,1,0,0:0:0:0:
475,192,32535,1,0,0:0:0:0:
402,192,32957,128,0,33168:0:0:0:0:
182,192,32957,1,0,0:0:0:0:
109,192,32957,1,0,0:0:0:0:
36,192,32957,1,0,0:0:0:0:
329,192,33168,128,0,33380:0:0:0:0:
256,192,33380,128,0,34647:0:0:0:0:
36,192,33380,1,0,0:0:0:0:
182,192,33380,1,0,0:0:0:0:
475,192,33380,1,0,0:0:0:0:
402,192,33802,1,0,0:0:0:0:
329,192,33802,1,0,0:0:0:0:
109,192,33802,1,0,0:0:0:0:
182,192,34225,1,0,0:0:0:0:
36,192,34225,1,0,0:0:0:0:
475,192,34225,1,0,0:0:0:0:
109,192,34647,1,0,0:0:0:0:
182,192,34647,1,0,0:0:0:0:
402,192,34647,1,0,0:0:0:0:
256,192,35070,128,0,35281:0:0:0:0:
329,192,35070,1,0,0:0:0:0:
402,192,35070,1,0,0:0:0:0:
475,192,35070,1,0,0:0:0:0:
182,192,35492,128,0,35704:0:0:0:0:
109,192,35492,1,0,0:0:0:0:
36,192,35492,1,0,0:0:0:0:
329,192,35492,1,0,0:0:0:0:
256,192,35704,128,0,35915:0:0:0:0:
329,192,35915,128,0,36337:0:0:0:0:
402,192,35915,1,0,0:0:0:0:
475,192,35915,1,0,0:0:0:0:
109,192,35915,1,0,0:0:0:0:
256,192,36337,128,0,36549:0:0:0:0:
36,192,36337,1,0,0:0:0:0:
109,192,36337,1,0,0:0:0:0:
475,192,36337,1,0,0:0:0:0:
182,192,36549,128,0,36760:0:0:0:0:
329,192,36760,128,0,36971:0:0:0:0:
402,192,36760,1,0,0:0:0:0:
256,192,36760,1,0,0:0:0:0:
36,192,36760,1,0,0:0:0:0:
109,192,36971,128,0,37183:0:0:0:0:
402,192,37183,128,0,37394:0:0:0:0:
182,192,37183,1,0,0:0:0:0:
256,192,37183,1,0,0:0:0:0:
475,192,37183,1,0,0:0:0:0:
36,192,37394,128,0,37605:0:0:0:0:
475,192,37605,128,0,38028:0:0:0:0:
109,192,37605,1,0,0:0:0:0:
329,192,37605,1,0,0:0:0:0:
182,192,37605,1,0,0:0:0:0:
36,192,38028,1,0,0:0:0:0:
109,192,38028,1,0,0:0:0:0:
182,192,38028,1,0,0:0:0:0:
402,192,38098,1,0,0:0:0:0:
329,192,38168,1,0,0:0:0:0:
256,192,38239,1,0,0:0:0:0:
182,192,38309,1,0,0:0:0:0:
109,192,38380,1,0,0:0:0:0:
36,192,38450,1,0,0:0:0:0:
402,192,38450,1,0,0:0:0:0:
475,192,38450,1,0,0:0:0:0:
329,192,38450,128,0,38873:0:0:0:0:
182,192,38873,128,0,39295:0:0:0:0:
109,192,38873,1,0,0:0:0:0:
36,192,38873,1,0,0:0:0:0:
475,192,38873,1,0,0:0:0:0:
256,192,39295,128,0,39506:0:0:0:0:
402,192,39295,1,0,0:0:0:0:
475,192,39295,1,0,0:0:0:0:
36,192,39295,1,0,0:0:0:0:
329,192,39506,128,0,39718:0:0:0:0:
109,192,39718,128,0,39929:0:0:0:0:
36,192,39718,1,0,0:0:0:0:
182,192,39718,1,0,0:0:0:0:
256,192,39718,1,0,0:0:0:0:
402,192,39929,128,0,40140:0:0:0:0:
182,192,40140,128,0,41408:0:0:0:0:
329,192,40140,1,0,0:0:0:0:
256,192,40140,1,0,0:0:0:0:
475,192,40140,1,0,0:0:0:0:
109,192,40563,1,0,0:0:0:0:
36,192,40563,1,0,0:0:0:0:
475,192,40985,128,0,41408:0:0:0:0:
329,192,41408,1,0,0:0:0:0:
36,192,41408,1,0,0:0:0:0:
109,192,41619,1,0,0:0:0:0:
182,192,41830,1,0,0:0:0:0:
256,192,41830,1,0,0:0:0:0:
475,192,41830,1,0,0:0:0:0:
402,192,42042,1,0,0:0:0:0:
329,192,42253,1,0,0:0:0:0:
256,192,42253,1,0,0:0:0:0:
109,192,42253,1,0,0:0:0:0:
36,192,42253,1,0,0:0:0:0:
182,192,42464,1,0,0:0:0:0:
256,192,42675,1,0,0:0:0:0:
402,192,42675,1,0,0:0:0:0:
475,192,42675,1,0,0:0:0:0:
329,192,42887,1,0,0:0:0:0:
256,192,43098,1,0,0:0:0:0:
182,192,43098,1,0,0:0:0:0:
109,192,43098,1,0,0:0:0:0:
36,192,43098,1,0,0:0:0:0:
475,192,43309,1,0,0:0:0:0:
402,192,43521,1,0,0:0:0:0:
329,192,43521,1,0,0:0:0:0:
36,192,43521,1,0,0:0:0:0:
109,192,43732,1,0,0:0:0:0:
182,192,43943,1,0,0:0:0:0:
256,192,43943,1,0,0:0:0:0:
475,192,43943,1,0,0:0:0:0:
402,192,43943,1,0,0:0:0:0:
329,192,44154,1,0,0:0:0:0:
36,192,44366,1,0,0:0:0:0:
109,192,44366,1,0,0:0:0:0:
475,192,44366,1,0,0:0:0:0:
182,192,44577,1,0,0:0:0:0:
329,192,44788,1,0,0:0:0:0:
256,192,44788,1,0,0:0:0:0:
402,192,44788,1,0,0:0:0:0:
475,192,44788,1,0,0:0:0:0:
109,192,44999,1,0,0:0:0:0:
36,192,45211,1,0,0:0:0:0:
256,192,45211,1,0,0:0:0:0:
329,192,45211,1,0,0:0:0:0:
182,192,45422,1,0,0:0:0:0:
109,192,45633,1,0,0:0:0:0:
36,192,45633,1,0,0:0:0:0:
329,192,45633,1,0,0:0:0:0:
402,192,45633,1,0,0:0:0:0:
256,192,45845,1,0,0:0:0:0:
182,192,46056,1,0,0:0:0:0:
109,192,46056,1,0,0:0:0:0:
36,192,46056,1,0,0:0:0:0:
329,192,46267,1,0,0:0:0:0:
402,192,46478,1,0,0:0:0:0:
475,192,46478,1,0,0:0:0:0:
182,192,46478,1,0,0:0:0:0:
109,192,46478,1,0,0:0:0:0:
256,192,46690,1,0,0:0:0:0:
329,192,46901,1,0,0:0:0:0:
402,192,46901,1,0,0:0:0:0:
475,192,46901,1,0,0:0:0:0:
36,192,47112,1,0,0:0:0:0:
109,192,47323,1,0,0:0:0:0:
182,192,47323,1,0,0:0:0:0:
256,192,47323,1,0,0:0:0:0:
329,192,47323,1,0,0:0:0:0:
402,192,47535,1,0,0:0:0:0:
475,192,47746,1,0,0:0:0:0:
182,192,47746,1,0,0:0:0:0:
256,192,47746,1,0,0:0:0:0:
109,192,47957,1,0,0:0:0:0:
36,192,48168,1,0,0:0:0:0:
256,192,48168,1,0,0:0:0:0:
329,192,48168,1,0,0:0:0:0:
402,192,48168,1,0,0:0:0:0:
182,192,48380,1,0,0:0:0:0:
109,192,48591,1,0,0:0:0:0:
36,192,48591,1,0,0:0:0:0:
402,192,48591,1,0,0:0:0:0:
329,192,48802,1,0,0:0:0:0:
256,192,49014,1,0,0:0:0:0:
182,192,49014,1,0,0:0:0:0:
109,192,49014,1,0,0:0:0:0:
36,192,49014,1,0,0:0:0:0:
475,192,49225,1,0,0:0:0:0:
402,192,49436,1,0,0:0:0:0:
329,192,49436,1,0,0:0:0:0:
109,192,49436,1,0,0:0:0:0:
182,192,49647,1,0,0:0:0:0:
256,192,49859,1,0,0:0:0:0:
329,192,49859,1,0,0:0:0:0:
402,192,49859,1,0,0:0:0:0:
36,192,49859,1,0,0:0:0:0:
109,192,50070,1,0,0:0:0:0:
182,192,50281,1,0,0:0:0:0:
475,192,50281,1,0,0:0:0:0:
402,192,50281,1,0,0:0:0:0:
329,192,50492,1,0,0:0:0:0:
256,192,50704,1,0,0:0:0:0:
182,192,50704,1,0,0:0:0:0:
36,192,50704,1,0,0:0:0:0:
475,192,50704,1,0,0:0:0:0:
109,192,50915,1,0,0:0:0:0:
182,192,51126,1,0,0:0:0:0:
256,192,51126,1,0,0:0:0:0:
329,192,51126,1,0,0:0:0:0:
402,192,51337,1,0,0:0:0:0:
475,192,51549,1,0,0:0:0:0:
256,192,51549,1,0,0:0:0:0:
182,192,51549,1,0,0:0:0:0:
109,192,51549,1,0,0:0:0:0:
36,192,51760,1,0,0:0:0:0:
182,192,51971,1,0,0:0:0:0:
256,192,51971,1,0,0:0:0:0:
402,192,51971,1,0,0:0:0:0:
329,192,52183,1,0,0:0:0:0:
402,192,52394,1,0,0:0:0:0:
475,192,52394,1,0,0:0:0:0:
109,192,52394,1,0,0:0:0:0:
36,192,52394,1,0,0:0:0:0:
182,192,52605,1,0,0:0:0:0:
256,192,52816,1,0,0:0:0:0:
329,192,52816,1,0,0:0:0:0:
402,192,52816,1,0,0:0:0:0:
475,192,53028,1,0,0:0:0:0:
402,192,53239,1,0,0:0:0:0:
256,192,53239,1,0,0:0:0:0:
109,192,53239,1,0,0:0:0:0:
36,192,53239,1,0,0:0:0:0:
182,192,53450,1,0,0:0:0:0:
256,192,53661,1,0,0:0:0:0:
402,192,53661,1,0,0:0:0:0:
475,192,53661,1,0,0:0:0:0:
329,192,53767,1,0,0:0:0:0:
256,192,53873,1,0,0:0:0:0:
182,192,53978,1,0,0:0:0:0:
402,192,54084,1,0,0:0:0:0:
475,192,54084,1,0,0:0:0:0:
109,192,54084,1,0,0:0:0:0:
36,192,54084,1,0,0:0:0:0:
329,192,54190,1,0,0:0:0:0:
256,192,54295,1,0,0:0:0:0:
182,192,54401,1,0,0:0:0:0:
109,192,54506,1,0,0:0:0:0:
36,192,54506,1,0,0:0:0:0:
475,192,54506,1,0,0:0:0:0:
402,192,54577,1,0,0:0:0:0:
329,192,54647,1,0,0:0:0:0:
256,192,54718,1,0,0:0:0:0:
182,192,54788,1,0,0:0:0:0:
109,192,54859,1,0,0:0:0:0:
36,192,54929,1,0,0:0:0:0:
329,192,54929,1,0,0:0:0:0:
402,192,54929,1,0,0:0:0:0:
475,192,54929,1,0,0:0:0:0:
256,192,55035,1,0,0:0:0:0:
182,192,55140,1,0,0:0:0:0:
109,192,55246,1,0,0:0:0:0:
36,192,55352,1,0,0:0:0:0:
329,192,55352,1,0,0:0:0:0:
402,192,55352,1,0,0:0:0:0:
256,192,55563,1,0,0:0:0:0:
109,192,55774,1,0,0:0:0:0:
36,192,55774,1,0,0:0:0:0:
182,192,55774,1,0,0:0:0:0:
402,192,55774,1,0,0:0:0:0:
329,192,55985,1,0,0:0:0:0:
402,192,56197,1,0,0:0:0:0:
475,192,56197,1,0,0:0:0:0:
109,192,56197,1,0,0:0:0:0:
182,192,56408,1,0,0:0:0:0:
256,192,56619,1,0,0:0:0:0:
329,192,56619,1,0,0:0:0:0:
402,192,56619,1,0,0:0:0:0:
36,192,56619,1,0,0:0:0:0:
109,192,56830,1,0,0:0:0:0:
182,192,57042,1,0,0:0:0:0:
402,192,57042,1,0,0:0:0:0:
329,192,57042,1,0,0:0:0:0:
256,192,57253,1,0,0:0:0:0:
329,192,57464,1,0,0:0:0:0:
402,192,57464,1,0,0:0:0:0:
475,192,57464,1,0,0:0:0:0:
109,192,57464,1,0,0:0:0:0:
182,192,57675,1,0,0:0:0:0:
109,192,57887,1,0,0:0:0:0:
36,192,57887,1,0,0:0:0:0:
402,192,57887,1,0,0:0:0:0:
329,192,58098,1,0,0:0:0:0:
256,192,58309,1,0,0:0:0:0:
182,192,58309,1,0,0:0:0:0:
109,192,58309,1,0,0:0:0:0:
36,192,58309,1,0,0:0:0:0:
402,192,58521,1,0,0:0:0:0:
475,192,58732,1,0,0:0:0:0:
256,192,58732,1,0,0:0:0:0:
182,192,58732,1,0,0:0:0:0:
109,192,58943,1,0,0:0:0:0:
36,192,59154,1,0,0:0:0:0:
256,192,59154,1,0,0:0:0:0:
329,192,59154,1,0,0:0:0:0:
402,192,59154,1,0,0:0:0:0:
182,192,59366,1,0,0:0:0:0:
109,192,59577,1,0,0:0:0:0:
36,192,59577,1,0,0:0:0:0:
475,192,59577,1,0,0:0:0:0:
402,192,59788,1,0,0:0:0:0:
329,192,59999,1,0,0:0:0:0:
256,192,59999,1,0,0:0:0:0:
182,192,59999,1,0,0:0:0:0:
109,192,59999,1,0,0:0:0:0:
36,192,60211,1,0,0:0:0:0:
109,192,60422,1,0,0:0:0:0:
475,192,60422,1,0,0:0:0:0:
402,192,60422,1,0,0:0:0:0:
329,192,60633,1,0,0:0:0:0:
256,192,60845,1,0,0:0:0:0:
182,192,60845,1,0,0:0:0:0:
36,192,60845,1,0,0:0:0:0:
475,192,60845,1,0,0:0:0:0:
109,192,61056,1,0,0:0:0:0:
182,192,61267,1,0,0:0:0:0:
329,192,61267,1,0,0:0:0:0:
402,192,61267,1,0,0:0:0:0:
475,192,61478,1,0,0:0:0:0:
256,192,61690,1,0,0:0:0:0:
109,192,61690,1,0,0:0:0:0:
36,192,61690,1,0,0:0:0:0:
329,192,61690,1,0,0:0:0:0:
182,192,61901,1,0,0:0:0:0:
329,192,62112,1,0,0:0:0:0:
402,192,62112,1,0,0:0:0:0:
475,192,62112,1,0,0:0:0:0:
256,192,62323,1,0,0:0:0:0:
182,192,62535,1,0,0:0:0:0:
109,192,62535,1,0,0:0:0:0:
402,192,62535,1,0,0:0:0:0:
475,192,62535,1,0,0:0:0:0:
36,192,62746,1,0,0:0:0:0:
109,192,62957,1,0,0:0:0:0:
256,192,62957,1,0,0:0:0:0:
329,192,62957,1,0,0:0:0:0:
182,192,63168,1,0,0:0:0:0:
256,192,63380,1,0,0:0:0:0:
402,192,63380,1,0,0:0:0:0:
475,192,63380,1,0,0:0:0:0:
329,192,63380,1,0,0:0:0:0:
109,192,63591,1,0,0:0:0:0:
36,192,63802,1,0,0:0:0:0:
182,192,63802,1,0,0:0:0:0:
256,192,63802,1,0,0:0:0:0:
329,192,64014,1,0,0:0:0:0:
402,192,64225,1,0,0:0:0:0:
475,192,64225,1,0,0:0:0:0:
182,192,64225,1,0,0:0:0:0:
109,192,64225,1,0,0:0:0:0:
256,192,64436,1,0,0:0:0:0:
329,192,64647,1,0,0:0:0:0:
402,192,64647,1,0,0:0:0:0:
36,192,64647,1,0,0:0:0:0:
109,192,64859,1,0,0:0:0:0:
182,192,65070,1,0,0:0:0:0:
256,192,65070,1,0,0:0:0:0:
402,192,65070,1,0,0:0:0:0:
475,192,65070,1,0,0:0:0:0:
329,192,65281,1,0,0:0:0:0:
256,192,65492,1,0,0:0:0:0:
36,192,65492,1,0,0:0:0:0:
182,192,65492,1,0,0:0:0:0:
109,192,65598,1,0,0:0:0:0:
182,192,65704,1,0,0:0:0:0:
256,192,65809,1,0,0:0:0:0:
329,192,65915,1,0,0:0:0:0:
402,192,65915,1,0,0:0:0:0:
475,192,65915,1,0,0:0:0:0:
36,192,66021,1,0,0:0:0:0:
109,192,66126,1,0,0:0:0:0:
182,192,66232,1,0,0:0:0:0:
256,192,66337,1,0,0:0:0:0:
329,192,66337,1,0,0:0:0:0:
402,192,66337,1,0,0:0:0:0:
475,192,66337,1,0,0:0:0:0:
36,192,66408,1,0,0:0:0:0:
109,192,66478,1,0,0:0:0:0:
182,192,66549,1,0,0:0:0:0:
256,192,66619,1,0,0:0:0:0:
329,192,66690,1,0,0:0:0:0:
402,192,66760,1,0,0:0:0:0:
475,192,66760,1,0,0:0:0:0:
36,192,66760,1,0,0:0:0:0:
109,192,66866,1,0,0:0:0:0:
182,192,66971,1,0,0:0:0:0:
256,192,67077,1,0,0:0:0:0:
329,192,67183,1,0,0:0:0:0:
402,192,67183,1,0,0:0:0:0:
475,192,67183,1,0,0:0:0:0:
36,192,67183,1,0,0:0:0:0:
109,192,67288,1,0,0:0:0:0:
182,192,67394,1,0,0:0:0:0:
256,192,67499,1,0,0:0:0:0:
329,192,67605,1,0,0:0:0:0:
402,192,67605,1,0,0:0:0:0:
475,192,67605,1,0,0:0:0:0:
36,192,67711,1,0,0:0:0:0:
109,192,67816,1,0,0:0:0:0:
182,192,67922,1,0,0:0:0:0:
256,192,68028,1,0,0:0:0:0:
329,192,68028,1,0,0:0:0:0:
402,192,68028,1,0,0:0:0:0:
475,192,68028,1,0,0:0:0:0:
36,192,68080,1,0,0:0:0:0:
109,192,68133,1,0,0:0:0:0:
182,192,68186,1,0,0:0:0:0:
256,192,68239,1,0,0:0:0:0:
475,192,68292,1,0,0:0:0:0:
402,192,68345,1,0,0:0:0:0:
329,192,68397,1,0,0:0:0:0:
256,192,68450,1,0,0:0:0:0:
109,192,68450,1,0,0:0:0:0:
36,192,68450,1,0,0:0:0:0:
182,192,68556,1,0,0:0:0:0:
256,192,68661,1,0,0:0:0:0:
329,192,68767,1,0,0:0:0:0:
402,192,68873,1,0,0:0:0:0:
475,192,68873,1,0,0:0:0:0:
109,192,68873,1,0,0:0:0:0:
36,192,68873,1,0,0:0:0:0:
182,192,68978,1,0,0:0:0:0:
256,192,69084,1,0,0:0:0:0:
329,192,69190,1,0,0:0:0:0:
402,192,69295,1,0,0:0:0:0:
475,192,69295,1,0,0:0:0:0:
109,192,69295,1,0,0:0:0:0:
36,192,69295,1,0,0:0:0:0:
329,192,69401,1,0,0:0:0:0:
256,192,69506,1,0,0:0:0:0:
182,192,69612,1,0,0:0:0:0:
109,192,69718,1,0,0:0:0:0:
36,192,69718,1,0,0:0:0:0:
402,192,69823,1,0,0:0:0:0:
475,192,69823,1,0,0:0:0:0:
182,192,69929,1,0,0:0:0:0:
109,192,69929,1,0,0:0:0:0:
329,192,70035,1,0,0:0:0:0:
402,192,70035,1,0,0:0:0:0:
109,192,70140,1,0,0:0:0:0:
36,192,70140,1,0,0:0:0:0:
182,192,70246,1,0,0:0:0:0:
256,192,70246,1,0,0:0:0:0:
329,192,70352,1,0,0:0:0:0:
402,192,70352,1,0,0:0:0:0:
109,192,70457,1,0,0:0:0:0:
182,192,70457,1,0,0:0:0:0:
475,192,70563,1,0,0:0:0:0:
402,192,70563,1,0,0:0:0:0:
256,192,70563,128,0,70985:0:0:0:0:
36,192,70563,128,0,71197:0:0:0:0:
329,192,70563,128,0,70774:0:0:0:0:
182,192,70774,128,0,70985:0:0:0:0:
402,192,70774,128,0,70880:0:0:0:0:
475,192,70880,128,0,70985:0:0:0:0:
329,192,70985,128,0,71197:0:0:0:0:
109,192,70985,128,0,71408:0:0:0:0:
182,192,71091,128,0,71197:0:0:0:0:
402,192,71197,128,0,71408:0:0:0:0:
256,192,71197,128,0,71408:0:0:0:0:
475,192,71197,128,0,71830:0:0:0:0:
182,192,71408,128,0,71619:0:0:0:0:
36,192,71408,128,0,71619:0:0:0:0:
329,192,71408,128,0,71830:0:0:0:0:
109,192,71619,128,0,71830:0:0:0:0:
256,192,71619,128,0,72042:0:0:0:0:
36,192,71830,128,0,72042:0:0:0:0:
402,192,71830,128,0,72253:0:0:0:0:
182,192,71830,128,0,71936:0:0:0:0:
182,192,72042,128,0,72253:0:0:0:0:
109,192,72042,128,0,72464:0:0:0:0:
329,192,72042,128,0,72253:0:0:0:0:
256,192,72253,128,0,72675:0:0:0:0:
475,192,72253,128,0,72675:0:0:0:0:
402,192,72464,128,0,72675:0:0:0:0:
36,192,72464,128,0,72675:0:0:0:0:
182,192,72464,128,0,73098:0:0:0:0:
329,192,72675,128,0,73098:0:0:0:0:
109,192,72675,128,0,72887:0:0:0:0:
402,192,72781,128,0,72887:0:0:0:0:
256,192,72887,128,0,73098:0:0:0:0:
36,192,72887,128,0,73309:0:0:0:0:
475,192,72887,128,0,73521:0:0:0:0:
402,192,73098,128,0,73521:0:0:0:0:
109,192,73098,128,0,73521:0:0:0:0:
256,192,73204,128,0,73309:0:0:0:0:
182,192,73309,128,0,73521:0:0:0:0:
329,192,73521,1,0,0:0:0:0:
256,192,73732,1,0,0:0:0:0:
182,192,73943,1,0,0:0:0:0:
36,192,73943,128,0,74366:0:0:0:0:
329,192,73943,128,0,74154:0:0:0:0:
475,192,73943,128,0,74366:0:0:0:0:
109,192,73943,128,0,74577:0:0:0:0:
402,192,73943,1,0,0:0:0:0:
256,192,74154,128,0,74366:0:0:0:0:
402,192,74154,128,0,74260:0:0:0:0:
329,192,74366,128,0,74577:0:0:0:0:
182,192,74366,128,0,74788:0:0:0:0:
402,192,74577,128,0,74788:0:0:0:0:
256,192,74577,128,0,74788:0:0:0:0:
475,192,74788,128,0,75211:0:0:0:0:
109,192,74788,128,0,75211:0:0:0:0:
36,192,74788,128,0,74999:0:0:0:0:
329,192,74788,128,0,74999:0:0:0:0:
256,192,74999,128,0,75211:0:0:0:0:
402,192,74999,128,0,75422:0:0:0:0:
182,192,75211,128,0,75422:0:0:0:0:
329,192,75211,128,0,75422:0:0:0:0:
36,192,75211,128,0,75633:0:0:0:0:
109,192,75422,128,0,75633:0:0:0:0:
475,192,75422,128,0,75633:0:0:0:0:
256,192,75633,128,0,76901:0:0:0:0:
182,192,75633,128,0,76056:0:0:0:0:
329,192,75633,128,0,75845:0:0:0:0:
402,192,75633,128,0,76056:0:0:0:0:
36,192,75739,128,0,75845:0:0:0:0:
475,192,75845,128,0,76056:0:0:0:0:
109,192,75845,128,0,76267:0:0:0:0:
36,192,76056,128,0,76267:0:0:0:0:
329,192,76056,128,0,76478:0:0:0:0:
402,192,76267,128,0,76690:0:0:0:0:
475,192,76267,128,0,76478:0:0:0:0:
182,192,76267,128,0,76478:0:0:0:0:
36,192,76478,128,0,76690:0:0:0:0:
109,192,76478,128,0,76901:0:0:0:0:
182,192,76584,128,0,76690:0:0:0:0:
329,192,76690,128,0,76901:0:0:0:0:
475,192,76690,128,0,76795:0:0:0:0:
182,192,76901,1,0,0:0:0:0:
475,192,77006,1,0,0:0:0:0:
402,192,77112,1,0,0:0:0:0:
329,192,77218,1,0,0:0:0:0:
256,192,77323,1,0,0:0:0:0:
475,192,77323,1,0,0:0:0:0:
182,192,77323,128,0,77746:0:0:0:0:
36,192,77323,128,0,77957:0:0:0:0:
402,192,77323,128,0,77535:0:0:0:0:
329,192,77535,128,0,77746:0:0:0:0:
109,192,77746,128,0,77957:0:0:0:0:
256,192,77746,128,0,78168:0:0:0:0:
475,192,77746,128,0,77957:0:0:0:0:
402,192,77746,128,0,77852:0:0:0:0:
329,192,77957,128,0,78168:0:0:0:0:
182,192,77957,128,0,78380:0:0:0:0:
402,192,78168,128,0,78591:0:0:0:0:
109,192,78168,128,0,78380:0:0:0:0:
36,192,78380,128,0,78802:0:0:0:0:
256,192,78380,128,0,78591:0:0:0:0:
329,192,78380,128,0,78802:0:0:0:0:
475,192,78380,128,0,78591:0:0:0:0:
182,192,78591,128,0,78802:0:0:0:0:
109,192,78591,128,0,79014:0:0:0:0:
256,192,78802,128,0,79014:0:0:0:0:
402,192,78802,128,0,79225:0:0:0:0:
36,192,79014,128,0,79225:0:0:0:0:
182,192,79014,128,0,79436:0:0:0:0:
475,192,79014,128,0,79436:0:0:0:0:
329,192,79014,128,0,79225:0:0:0:0:
109,192,79225,128,0,79436:0:0:0:0:
256,192,79225,128,0,79647:0:0:0:0:
329,192,79436,128,0,79647:0:0:0:0:
36,192,79436,128,0,79859:0:0:0:0:
402,192,79436,128,0,79542:0:0:0:0:
475,192,79647,128,0,79859:0:0:0:0:
109,192,79647,128,0,79859:0:0:0:0:
182,192,79647,128,0,80070:0:0:0:0:
256,192,79753,128,0,79859:0:0:0:0:
402,192,79859,128,0,80281:0:0:0:0:
329,192,79859,128,0,80070:0:0:0:0:
256,192,80070,128,0,80281:0:0:0:0:
36,192,80070,128,0,80281:0:0:0:0:
109,192,80281,1,0,0:0:0:0:
329,192,80281,1,0,0:0:0:0:
182,192,80492,1,0,0:0:0:0:
256,192,80704,128,0,81126:0:0:0:0:
109,192,80704,128,0,80915:0:0:0:0:
475,192,80704,128,0,81126:0:0:0:0:
36,192,80704,128,0,80915:0:0:0:0:
329,192,80809,128,0,80915:0:0:0:0:
402,192,80915,128,0,81126:0:0:0:0:
182,192,80915,128,0,81337:0:0:0:0:
329,192,81126,128,0,81549:0:0:0:0:
109,192,81126,128,0,81337:0:0:0:0:
256,192,81337,128,0,81549:0:0:0:0:
36,192,81337,128,0,81760:0:0:0:0:
475,192,81337,128,0,81549:0:0:0:0:
402,192,81337,128,0,81760:0:0:0:0:
182,192,81549,128,0,81760:0:0:0:0:
109,192,81760,128,0,81971:0:0:0:0:
329,192,81760,128,0,82183:0:0:0:0:
475,192,81760,128,0,81971:0:0:0:0:
256,192,81760,128,0,81971:0:0:0:0:
36,192,81971,128,0,82183:0:0:0:0:
182,192,81971,128,0,82394:0:0:0:0:
402,192,82183,128,0,82394:0:0:0:0:
109,192,82183,128,0,82394:0:0:0:0:
256,192,82183,128,0,82605:0:0:0:0:
329,192,82394,128,0,83661:0:0:0:0:
475,192,82394,128,0,82605:0:0:0:0:
36,192,82394,128,0,82816:0:0:0:0:
109,192,82605,128,0,82816:0:0:0:0:
182,192,82605,128,0,83028:0:0:0:0:
402,192,82605,128,0,83028:0:0:0:0:
475,192,82816,128,0,83239:0:0:0:0:
256,192,82816,128,0,83028:0:0:0:0:
109,192,83028,128,0,83450:0:0:0:0:
36,192,83028,128,0,83239:0:0:0:0:
182,192,83239,128,0,83450:0:0:0:0:
256,192,83239,128,0,83661:0:0:0:0:
402,192,83239,128,0,83450:0:0:0:0:
475,192,83450,128,0,83661:0:0:0:0:
36,192,83450,128,0,83661:0:0:0:0:
182,192,83661,1,0,0:0:0:0:
402,192,83767,1,0,0:0:0:0:
329,192,83873,1,0,0:0:0:0:
256,192,83978,1,0,0:0:0:0:
182,192,84084,128,0,84506:0:0:0:0:
109,192,84084,1,0,0:0:0:0:
36,192,84084,128,0,84295:0:0:0:0:
475,192,84084,128,0,84506:0:0:0:0:
402,192,84084,128,0,84295:0:0:0:0:
109,192,84295,128,0,84506:0:0:0:0:
329,192,84295,128,0,84718:0:0:0:0:
256,192,84506,128,0,84718:0:0:0:0:
402,192,84506,128,0,84718:0:0:0:0:
36,192,84506,128,0,84929:0:0:0:0:
109,192,84718,128,0,84929:0:0:0:0:
475,192,84718,128,0,85140:0:0:0:0:
182,192,84718,128,0,85140:0:0:0:0:
402,192,84929,128,0,85140:0:0:0:0:
256,192,84929,128,0,85140:0:0:0:0:
329,192,85140,128,0,85352:0:0:0:0:
109,192,85140,128,0,85563:0:0:0:0:
36,192,85140,128,0,85352:0:0:0:0:
256,192,85352,128,0,85563:0:0:0:0:
402,192,85352,128,0,85774:0:0:0:0:
475,192,85352,128,0,85563:0:0:0:0:
182,192,85563,128,0,85774:0:0:0:0:
329,192,85563,128,0,85985:0:0:0:0:
109,192,85774,128,0,86197:0:0:0:0:
256,192,85774,128,0,85985:0:0:0:0:
36,192,85774,128,0,85985:0:0:0:0:
475,192,85774,128,0,85985:0:0:0:0:
182,192,85985,128,0,86408:0:0:0:0:
402,192,85985,128,0,86408:0:0:0:0:
329,192,86197,128,0,86619:0:0:0:0:
256,192,86197,128,0,86408:0:0:0:0:
36,192,86197,128,0,86619:0:0:0:0:
475,192,86197,128,0,86619:0:0:0:0:
109,192,86408,128,0,86830:0:0:0:0:
256,192,86619,128,0,87042:0:0:0:0:
182,192,86619,128,0,86830:0:0:0:0:
402,192,86619,128,0,87042:0:0:0:0:
329,192,86830,128,0,87042:0:0:0:0:
36,192,86830,128,0,87042:0:0:0:0:
475,192,87042,1,0,0:0:0:0:
182,192,87253,1,0,0:0:0:0:
109,192,87464,128,0,87887:0:0:0:0:
36,192,87464,128,0,87675:0:0:0:0:
256,192,87464,1,0,0:0:0:0:
329,192,87464,128,0,87887:0:0:0:0:
475,192,87464,128,0,87675:0:0:0:0:
402,192,87675,128,0,88098:0:0:0:0:
256,192,87675,128,0,87887:0:0:0:0:
182,192,87887,128,0,88098:0:0:0:0:
36,192,87887,128,0,88309:0:0:0:0:
475,192,87887,128,0,88309:0:0:0:0:
256,192,88098,128,0,88309:0:0:0:0:
109,192,88098,128,0,88309:0:0:0:0:
329,192,88309,128,0,88732:0:0:0:0:
402,192,88309,128,0,88521:0:0:0:0:
182,192,88309,128,0,88521:0:0:0:0:
109,192,88521,128,0,88943:0:0:0:0:
36,192,88521,128,0,88732:0:0:0:0:
475,192,88521,128,0,88943:0:0:0:0:
256,192,88521,128,0,88626:0:0:0:0:
182,192,88732,128,0,88943:0:0:0:0:
402,192,88732,128,0,89154:0:0:0:0:
256,192,88943,128,0,89366:0:0:0:0:
36,192,88943,128,0,89366:0:0:0:0:
329,192,88943,128,0,89154:0:0:0:0:
109,192,89154,128,0,90422:0:0:0:0:
182,192,89154,128,0,89577:0:0:0:0:
475,192,89154,128,0,89366:0:0:0:0:
402,192,89366,128,0,89788:0:0:0:0:
329,192,89366,128,0,89577:0:0:0:0:
256,192,89577,128,0,89999:0:0:0:0:
36,192,89577,128,0,89788:0:0:0:0:
475,192,89577,128,0,89788:0:0:0:0:
182,192,89788,128,0,90211:0:0:0:0:
329,192,89788,128,0,90211:0:0:0:0:
402,192,89999,128,0,90211:0:0:0:0:
475,192,89999,128,0,90422:0:0:0:0:
36,192,89999,128,0,90422:0:0:0:0:
256,192,90422,1,0,0:0:0:0:
402,192,90422,1,0,0:0:0:0:
182,192,90528,1,0,0:0:0:0:
256,192,90633,1,0,0:0:0:0:
329,192,90739,1,0,0:0:0:0:
475,192,90845,1,0,0:0:0:0:
402,192,90845,128,0,91267:0:0:0:0:
256,192,90845,128,0,91056:0:0:0:0:
182,192,90845,128,0,91267:0:0:0:0:
109,192,90845,128,0,91056:0:0:0:0:
329,192,90950,128,0,91056:0:0:0:0:
36,192,91056,128,0,91267:0:0:0:0:
329,192,91267,128,0,91478:0:0:0:0:
109,192,91267,128,0,91690:0:0:0:0:
475,192,91267,128,0,91478:0:0:0:0:
256,192,91267,128,0,91373:0:0:0:0:
256,192,91478,128,0,91690:0:0:0:0:
402,192,91478,128,0,91901:0:0:0:0:
36,192,91478,128,0,91690:0:0:0:0:
475,192,91584,128,0,91690:0:0:0:0:
182,192,91690,128,0,92112:0:0:0:0:
329,192,91690,128,0,92112:0:0:0:0:
36,192,91901,128,0,92323:0:0:0:0:
256,192,91901,128,0,92112:0:0:0:0:
475,192,91901,128,0,92323:0:0:0:0:
109,192,92112,128,0,92323:0:0:0:0:
256,192,92218,128,0,92323:0:0:0:0:
402,192,92323,128,0,92535:0:0:0:0:
329,192,92323,128,0,92746:0:0:0:0:
182,192,92323,128,0,92535:0:0:0:0:
256,192,92535,128,0,92746:0:0:0:0:
109,192,92535,128,0,92957:0:0:0:0:
475,192,92535,128,0,92957:0:0:0:0:
182,192,92746,128,0,92957:0:0:0:0:
36,192,92746,128,0,92957:0:0:0:0:
402,192,92746,128,0,92957:0:0:0:0:
329,192,92957,128,0,93168:0:0:0:0:
256,192,92957,128,0,93380:0:0:0:0:
182,192,93063,128,0,93168:0:0:0:0:
109,192,93168,128,0,93380:0:0:0:0:
36,192,93168,128,0,93591:0:0:0:0:
402,192,93168,128,0,93591:0:0:0:0:
475,192,93168,128,0,93380:0:0:0:0:
182,192,93380,128,0,93802:0:0:0:0:
329,192,93380,128,0,93802:0:0:0:0:
109,192,93591,128,0,93802:0:0:0:0:
475,192,93591,128,0,93802:0:0:0:0:
402,192,93802,1,0,0:0:0:0:
256,192,94014,1,0,0:0:0:0:
329,192,94225,128,0,94647:0:0:0:0:
475,192,94225,128,0,94436:0:0:0:0:
182,192,94225,128,0,94436:0:0:0:0:
109,192,94225,128,0,94647:0:0:0:0:
36,192,94436,128,0,94647:0:0:0:0:
256,192,94436,128,0,94542:0:0:0:0:
402,192,94647,128,0,94859:0:0:0:0:
182,192,94647,128,0,94859:0:0:0:0:
475,192,94647,128,0,95070:0:0:0:0:
256,192,94859,128,0,95070:0:0:0:0:
329,192,94859,128,0,95281:0:0:0:0:
36,192,94859,128,0,95281:0:0:0:0:
109,192,94859,128,0,95070:0:0:0:0:
182,192,95070,128,0,95492:0:0:0:0:
402,192,95070,128,0,95492:0:0:0:0:
475,192,95281,128,0,95704:0:0:0:0:
256,192,95281,128,0,95704:0:0:0:0:
109,192,95492,128,0,95704:0:0:0:0:
36,192,95492,128,0,95915:0:0:0:0:
329,192,95704,128,0,95915:0:0:0:0:
182,192,95704,128,0,96126:0:0:0:0:
402,192,95915,128,0,97183:0:0:0:0:
256,192,95915,128,0,96126:0:0:0:0:
109,192,95915,128,0,96337:0:0:0:0:
475,192,95915,128,0,96126:0:0:0:0:
329,192,96126,128,0,96549:0:0:0:0:
36,192,96337,128,0,96760:0:0:0:0:
182,192,96337,128,0,96549:0:0:0:0:
475,192,96337,128,0,96760:0:0:0:0:
256,192,96549,128,0,96971:0:0:0:0:
109,192,96549,128,0,96760:0:0:0:0:
182,192,96760,128,0,97183:0:0:0:0:
329,192,96971,128,0,97183:0:0:0:0:
109,192,96971,128,0,97183:0:0:0:0:
36,192,97183,1,0,0:0:0:0:
256,192,97394,1,0,0:0:0:0:
329,192,97605,1,0,0:0:0:0:
402,192,97605,1,0,0:0:0:0:
109,192,97605,1,0,0:0:0:0:
182,192,97816,128,0,98028:0:0:0:0:
36,192,98028,1,0,0:0:0:0:
256,192,98028,1,0,0:0:0:0:
402,192,98028,1,0,0:0:0:0:
475,192,98028,1,0,0:0:0:0:
329,192,98239,128,0,98450:0:0:0:0:
256,192,98450,1,0,0:0:0:0:
109,192,98450,1,0,0:0:0:0:
402,192,98450,1,0,0:0:0:0:
182,192,98661,128,0,98873:0:0:0:0:
109,192,98873,1,0,0:0:0:0:
36,192,98873,1,0,0:0:0:0:
402,192,98873,1,0,0:0:0:0:
475,192,98873,1,0,0:0:0:0:
329,192,99084,128,0,99295:0:0:0:0:
256,192,99295,1,0,0:0:0:0:
182,192,99295,1,0,0:0:0:0:
36,192,99295,1,0,0:0:0:0:
475,192,99506,128,0,99718:0:0:0:0:
402,192,99718,128,0,99929:0:0:0:0:
109,192,99718,1,0,0:0:0:0:
182,192,99718,1,0,0:0:0:0:
256,192,99718,1,0,0:0:0:0:
36,192,99718,1,0,0:0:0:0:
329,192,99929,128,0,100140:0:0:0:0:
256,192,100140,128,0,100352:0:0:0:0:
109,192,100140,1,0,0:0:0:0:
402,192,100140,1,0,0:0:0:0:
475,192,100140,1,0,0:0:0:0:
182,192,100352,128,0,100563:0:0:0:0:
109,192,100563,128,0,100774:0:0:0:0:
256,192,100563,1,0,0:0:0:0:
329,192,100563,1,0,0:0:0:0:
402,192,100563,1,0,0:0:0:0:
475,192,100563,1,0,0:0:0:0:
36,192,100774,128,0,100985:0:0:0:0:
182,192,100985,1,0,0:0:0:0:
329,192,100985,1,0,0:0:0:0:
402,192,100985,1,0,0:0:0:0:
256,192,101197,128,0,101408:0:0:0:0:
109,192,101408,1,0,0:0:0:0:
36,192,101408,1,0,0:0:0:0:
402,192,101408,1,0,0:0:0:0:
329,192,101408,1,0,0:0:0:0:
182,192,101619,128,0,101830:0:0:0:0:
256,192,101830,1,0,0:0:0:0:
402,192,101830,1,0,0:0:0:0:
475,192,101830,1,0,0:0:0:0:
329,192,102042,128,0,102253:0:0:0:0:
256,192,102253,1,0,0:0:0:0:
182,192,102253,1,0,0:0:0:0:
109,192,102253,1,0,0:0:0:0:
36,192,102253,1,0,0:0:0:0:
402,192,102464,128,0,102675:0:0:0:0:
256,192,102675,1,0,0:0:0:0:
329,192,102675,1,0,0:0:0:0:
109,192,102675,1,0,0:0:0:0:
182,192,102887,128,0,103098:0:0:0:0:
36,192,103098,1,0,0:0:0:0:
256,192,103098,1,0,0:0:0:0:
475,192,103098,1,0,0:0:0:0:
329,192,103098,1,0,0:0:0:0:
402,192,103309,128,0,103521:0:0:0:0:
329,192,103521,128,0,103732:0:0:0:0:
475,192,103521,1,0,0:0:0:0:
182,192,103521,1,0,0:0:0:0:
109,192,103521,1,0,0:0:0:0:
256,192,103732,128,0,103943:0:0:0:0:
182,192,103943,128,0,104154:0:0:0:0:
36,192,103943,1,0,0:0:0:0:
329,192,103943,1,0,0:0:0:0:
402,192,103943,1,0,0:0:0:0:
475,192,103943,1,0,0:0:0:0:
109,192,104154,128,0,104366:0:0:0:0:
36,192,104366,1,0,0:0:0:0:
402,192,104366,1,0,0:0:0:0:
475,192,104366,1,0,0:0:0:0:
182,192,104471,1,0,0:0:0:0:
256,192,104577,1,0,0:0:0:0:
329,192,104683,1,0,0:0:0:0:
402,192,104788,1,0,0:0:0:0:
475,192,104788,1,0,0:0:0:0:
109,192,104788,1,0,0:0:0:0:
36,192,104788,1,0,0:0:0:0:
182,192,104894,1,0,0:0:0:0:
256,192,104999,1,0,0:0:0:0:
329,192,105105,1,0,0:0:0:0:
402,192,105211,1,0,0:0:0:0:
475,192,105211,1,0,0:0:0:0:
36,192,105211,1,0,0:0:0:0:
109,192,105316,1,0,0:0:0:0:
182,192,105422,1,0,0:0:0:0:
256,192,105528,1,0,0:0:0:0:
329,192,105633,1,0,0:0:0:0:
402,192,105633,1,0,0:0:0:0:
475,192,105633,1,0,0:0:0:0:
36,192,105633,1,0,0:0:0:0:
109,192,105739,1,0,0:0:0:0:
182,192,105845,1,0,0:0:0:0:
256,192,105950,1,0,0:0:0:0:
329,192,106056,1,0,0:0:0:0:
402,192,106056,1,0,0:0:0:0:
475,192,106056,1,0,0:0:0:0:
36,192,106161,1,0,0:0:0:0:
109,192,106267,1,0,0:0:0:0:
182,192,106373,1,0,0:0:0:0:
256,192,106478,1,0,0:0:0:0:
329,192,106478,1,0,0:0:0:0:
402,192,106478,1,0,0:0:0:0:
475,192,106478,1,0,0:0:0:0:
36,192,106584,1,0,0:0:0:0:
109,192,106690,1,0,0:0:0:0:
182,192,106795,1,0,0:0:0:0:
329,192,106901,1,0,0:0:0:0:
402,192,106901,1,0,0:0:0:0:
475,192,106901,1,0,0:0:0:0:
256,192,107006,1,0,0:0:0:0:
182,192,107112,1,0,0:0:0:0:
109,192,107218,1,0,0:0:0:0:
36,192,107323,1,0,0:0:0:0:
475,192,107323,1,0,0:0:0:0:
402,192,107323,1,0,0:0:0:0:
329,192,107323,1,0,0:0:0:0:
256,192,107429,1,0,0:0:0:0:
182,192,107535,1,0,0:0:0:0:
109,192,107640,1,0,0:0:0:0:
36,192,107746,1,0,0:0:0:0:
475,192,107746,1,0,0:0:0:0:
402,192,107746,1,0,0:0:0:0:
329,192,107852,1,0,0:0:0:0:
256,192,107957,1,0,0:0:0:0:
182,192,108063,1,0,0:0:0:0:
109,192,108168,1,0,0:0:0:0:
36,192,108168,1,0,0:0:0:0:
475,192,108168,1,0,0:0:0:0:
402,192,108168,1,0,0:0:0:0:
329,192,108274,1,0,0:0:0:0:
256,192,108380,1,0,0:0:0:0:
182,192,108485,1,0,0:0:0:0:
109,192,108591,1,0,0:0:0:0:
36,192,108591,1,0,0:0:0:0:
475,192,108591,1,0,0:0:0:0:
402,192,108697,1,0,0:0:0:0:
329,192,108802,1,0,0:0:0:0:
256,192,108908,1,0,0:0:0:0:
182,192,109014,1,0,0:0:0:0:
109,192,109014,1,0,0:0:0:0:
36,192,109014,1,0,0:0:0:0:
475,192,109014,1,0,0:0:0:0:
402,192,109119,1,0,0:0:0:0:
329,192,109225,1,0,0:0:0:0:
256,192,109330,1,0,0:0:0:0:
182,192,109436,1,0,0:0:0:0:
109,192,109436,1,0,0:0:0:0:
36,192,109436,1,0,0:0:0:0:
256,192,109542,1,0,0:0:0:0:
329,192,109647,1,0,0:0:0:0:
402,192,109753,1,0,0:0:0:0:
475,192,109859,1,0,0:0:0:0:
36,192,109859,1,0,0:0:0:0:
109,192,109859,1,0,0:0:0:0:
182,192,109859,1,0,0:0:0:0:
256,192,109964,1,0,0:0:0:0:
329,192,110070,1,0,0:0:0:0:
402,192,110175,1,0,0:0:0:0:
475,192,110281,1,0,0:0:0:0:
36,192,110281,1,0,0:0:0:0:
109,192,110281,1,0,0:0:0:0:
182,192,110387,1,0,0:0:0:0:
256,192,110492,1,0,0:0:0:0:
329,192,110598,1,0,0:0:0:0:
402,192,110704,1,0,0:0:0:0:
475,192,110704,1,0,0:0:0:0:
36,192,110704,1,0,0:0:0:0:
109,192,110704,1,0,0:0:0:0:
182,192,110809,1,0,0:0:0:0:
256,192,110915,1,0,0:0:0:0:
329,192,111021,1,0,0:0:0:0:
402,192,111126,1,0,0:0:0:0:
475,192,111126,1,0,0:0:0:0:
109,192,111126,1,0,0:0:0:0:
36,192,111126,1,0,0:0:0:0:
109,192,111549,1,0,0:0:0:0:
182,192,111549,1,0,0:0:0:0:
329,192,111549,1,0,0:0:0:0:
402,192,111549,1,0,0:0:0:0:
182,192,111971,1,0,0:0:0:0:
256,192,111971,1,0,0:0:0:0:
329,192,111971,1,0,0:0:0:0:
36,192,112394,1,0,0:0:0:0:
109,192,112394,1,0,0:0:0:0:
402,192,112394,1,0,0:0:0:0:
475,192,112394,1,0,0:0:0:0:
182,192,112816,1,0,0:0:0:0:
256,192,112816,1,0,0:0:0:0:
329,192,112816,1,0,0:0:0:0:
109,192,113661,1,0,0:0:0:0:
36,192,113661,1,0,0:0:0:0:
182,192,113661,128,0,113767:0:0:0:0:
329,192,113767,128,0,113873:0:0:0:0:
402,192,113767,1,0,0:0:0:0:
475,192,113767,1,0,0:0:0:0:
109,192,113873,128,0,113978:0:0:0:0:
182,192,113873,1,0,0:0:0:0:
36,192,113873,1,0,0:0:0:0:
402,192,113978,128,0,114084:0:0:0:0:
329,192,113978,1,0,0:0:0:0:
475,192,113978,1,0,0:0:0:0:
36,192,114084,128,0,114190:0:0:0:0:
182,192,114084,1,0,0:0:0:0:
109,192,114084,1,0,0:0:0:0:
475,192,114190,128,0,114295:0:0:0:0:
329,192,114190,1,0,0:0:0:0:
402,192,114190,1,0,0:0:0:0:
182,192,114295,128,0,114401:0:0:0:0:
109,192,114295,1,0,0:0:0:0:
36,192,114295,1,0,0:0:0:0:
329,192,114401,128,0,114506:0:0:0:0:
402,192,114401,1,0,0:0:0:0:
475,192,114401,1,0,0:0:0:0:
256,192,114506,128,0,114929:0:0:0:0:
182,192,114506,1,0,0:0:0:0:
109,192,114506,1,0,0:0:0:0:
36,192,114506,1,0,0:0:0:0:
329,192,114929,128,0,115140:0:0:0:0:
109,192,114929,1,0,0:0:0:0:
36,192,114929,1,0,0:0:0:0:
182,192,114929,1,0,0:0:0:0:
475,192,114929,1,0,0:0:0:0:
402,192,115140,128,0,115352:0:0:0:0:
182,192,115352,128,0,115563:0:0:0:0:
256,192,115352,1,0,0:0:0:0:
329,192,115352,1,0,0:0:0:0:
36,192,115352,1,0,0:0:0:0:
109,192,115563,128,0,115774:0:0:0:0:
329,192,115774,128,0,115985:0:0:0:0:
182,192,115774,1,0,0:0:0:0:
256,192,115774,1,0,0:0:0:0:
402,192,115774,1,0,0:0:0:0:
475,192,115774,1,0,0:0:0:0:
256,192,115985,128,0,116197:0:0:0:0:
182,192,116197,128,0,116408:0:0:0:0:
109,192,116197,1,0,0:0:0:0:
36,192,116197,1,0,0:0:0:0:
402,192,116197,1,0,0:0:0:0:
182,192,116619,128,0,116830:0:0:0:0:
256,192,116619,1,0,0:0:0:0:
36,192,116619,1,0,0:0:0:0:
329,192,116619,1,0,0:0:0:0:
402,192,116619,1,0,0:0:0:0:
182,192,117042,128,0,117464:0:0:0:0:
109,192,117042,1,0,0:0:0:0:
402,192,117042,1,0,0:0:0:0:
475,192,117042,1,0,0:0:0:0:
109,192,117464,1,0,0:0:0:0:
329,192,117464,1,0,0:0:0:0:
402,192,117464,1,0,0:0:0:0:
475,192,117464,1,0,0:0:0:0:
329,192,117887,128,0,118309:0:0:0:0:
256,192,117887,1,0,0:0:0:0:
182,192,117887,1,0,0:0:0:0:
36,192,117887,1,0,0:0:0:0:
182,192,118309,128,0,118521:0:0:0:0:
256,192,118309,1,0,0:0:0:0:
109,192,118309,1,0,0:0:0:0:
402,192,118309,1,0,0:0:0:0:
475,192,118309,1,0,0:0:0:0:
256,192,118521,128,0,118732:0:0:0:0:
402,192,118732,128,0,119154:0:0:0:0:
329,192,118732,1,0,0:0:0:0:
109,192,118732,1,0,0:0:0:0:
36,192,118732,1,0,0:0:0:0:
329,192,119154,128,0,119366:0:0:0:0:
475,192,119154,1,0,0:0:0:0:
182,192,119154,1,0,0:0:0:0:
109,192,119154,1,0,0:0:0:0:
36,192,119154,1,0,0:0:0:0:
256,192,119366,128,0,119577:0:0:0:0:
182,192,119577,128,0,120845:0:0:0:0:
109,192,119577,1,0,0:0:0:0:
402,192,119577,1,0,0:0:0:0:
475,192,119577,1,0,0:0:0:0:
329,192,119999,1,0,0:0:0:0:
256,192,119999,1,0,0:0:0:0:
109,192,119999,1,0,0:0:0:0:
36,192,119999,1,0,0:0:0:0:
329,192,120422,1,0,0:0:0:0:
402,192,120422,1,0,0:0:0:0:
475,192,120422,1,0,0:0:0:0:
109,192,120845,1,0,0:0:0:0:
36,192,120845,1,0,0:0:0:0:
402,192,120845,1,0,0:0:0:0:
475,192,120845,1,0,0:0:0:0:
256,192,121267,128,0,121690:0:0:0:0:
182,192,121267,1,0,0:0:0:0:
109,192,121267,1,0,0:0:0:0:
329,192,121267,1,0,0:0:0:0:
329,192,121690,128,0,121901:0:0:0:0:
402,192,121690,1,0,0:0:0:0:
109,192,121690,1,0,0:0:0:0:
36,192,121690,1,0,0:0:0:0:
475,192,121690,1,0,0:0:0:0:
182,192,121901,128,0,122112:0:0:0:0:
109,192,122112,128,0,122535:0:0:0:0:
36,192,122112,1,0,0:0:0:0:
329,192,122112,1,0,0:0:0:0:
402,192,122112,1,0,0:0:0:0:
329,192,122535,128,0,122746:0:0:0:0:
256,192,122535,1,0,0:0:0:0:
182,192,122535,1,0,0:0:0:0:
36,192,122535,1,0,0:0:0:0:
475,192,122535,1,0,0:0:0:0:
256,192,122746,128,0,122957:0:0:0:0:
402,192,122957,128,0,123168:0:0:0:0:
329,192,122957,1,0,0:0:0:0:
109,192,122957,1,0,0:0:0:0:
36,192,122957,1,0,0:0:0:0:
182,192,123168,128,0,123380:0:0:0:0:
109,192,123380,128,0,123591:0:0:0:0:
256,192,123380,1,0,0:0:0:0:
329,192,123380,1,0,0:0:0:0:
475,192,123380,1,0,0:0:0:0:
36,192,123380,1,0,0:0:0:0:
256,192,123591,128,0,123802:0:0:0:0:
329,192,123802,128,0,124225:0:0:0:0:
402,192,123802,1,0,0:0:0:0:
475,192,123802,1,0,0:0:0:0:
36,192,123802,1,0,0:0:0:0:
109,192,124225,1,0,0:0:0:0:
182,192,124225,1,0,0:0:0:0:
256,192,124225,1,0,0:0:0:0:
475,192,124225,1,0,0:0:0:0:
256,192,124647,128,0,125070:0:0:0:0:
329,192,124647,1,0,0:0:0:0:
402,192,124647,1,0,0:0:0:0:
36,192,124647,1,0,0:0:0:0:
182,192,125070,128,0,125492:0:0:0:0:
109,192,125070,1,0,0:0:0:0:
329,192,125070,1,0,0:0:0:0:
402,192,125070,1,0,0:0:0:0:
475,192,125070,1,0,0:0:0:0:
329,192,125492,128,0,125704:0:0:0:0:
256,192,125492,1,0,0:0:0:0:
109,192,125492,1,0,0:0:0:0:
36,192,125492,1,0,0:0:0:0:
402,192,125704,128,0,125915:0:0:0:0:
256,192,125915,128,0,126126:0:0:0:0:
329,192,125915,1,0,0:0:0:0:
475,192,125915,1,0,0:0:0:0:
109,192,125915,1,0,0:0:0:0:
36,192,125915,1,0,0:0:0:0:
182,192,126126,128,0,126337:0:0:0:0:
109,192,126337,128,0,127605:0:0:0:0:
36,192,126337,1,0,0:0:0:0:
402,192,126337,1,0,0:0:0:0:
475,192,126337,1,0,0:0:0:0:
256,192,126760,1,0,0:0:0:0:
329,192,126760,1,0,0:0:0:0:
36,192,127605,1,0,0:0:0:0:
475,192,127605,1,0,0:0:0:0:
402,192,127711,1,0,0:0:0:0:
329,192,127816,1,0,0:0:0:0:
256,192,127922,1,0,0:0:0:0:
182,192,128028,1,0,0:0:0:0:
109,192,128028,1,0,0:0:0:0:
36,192,128028,1,0,0:0:0:0:
329,192,128239,1,0,0:0:0:0:
402,192,128450,1,0,0:0:0:0:
475,192,128450,1,0,0:0:0:0:
182,192,128450,1,0,0:0:0:0:
109,192,128450,1,0,0:0:0:0:
256,192,128661,1,0,0:0:0:0:
182,192,128873,1,0,0:0:0:0:
109,192,128873,1,0,0:0:0:0:
36,192,128873,1,0,0:0:0:0:
402,192,129084,1,0,0:0:0:0:
475,192,129295,1,0,0:0:0:0:
256,192,129295,1,0,0:0:0:0:
182,192,129295,1,0,0:0:0:0:
36,192,129295,1,0,0:0:0:0:
109,192,129506,1,0,0:0:0:0:
182,192,129718,1,0,0:0:0:0:
329,192,129718,1,0,0:0:0:0:
402,192,129718,1,0,0:0:0:0:
256,192,129929,1,0,0:0:0:0:
402,192,130140,1,0,0:0:0:0:
475,192,130140,1,0,0:0:0:0:
109,192,130140,1,0,0:0:0:0:
36,192,130140,1,0,0:0:0:0:
329,192,130352,1,0,0:0:0:0:
256,192,130563,1,0,0:0:0:0:
182,192,130563,1,0,0:0:0:0:
36,192,130563,1,0,0:0:0:0:
109,192,130774,1,0,0:0:0:0:
182,192,130985,1,0,0:0:0:0:
256,192,130985,1,0,0:0:0:0:
475,192,130985,1,0,0:0:0:0:
402,192,130985,1,0,0:0:0:0:
329,192,131197,1,0,0:0:0:0:
256,192,131408,1,0,0:0:0:0:
182,192,131408,1,0,0:0:0:0:
36,192,131408,1,0,0:0:0:0:
109,192,131619,1,0,0:0:0:0:
182,192,131830,1,0,0:0:0:0:
329,192,131830,1,0,0:0:0:0:
402,192,131830,1,0,0:0:0:0:
475,192,131830,1,0,0:0:0:0:
256,192,132042,1,0,0:0:0:0:
182,192,132253,1,0,0:0:0:0:
36,192,132253,1,0,0:0:0:0:
475,192,132253,1,0,0:0:0:0:
329,192,132464,1,0,0:0:0:0:
256,192,132675,1,0,0:0:0:0:
402,192,132675,1,0,0:0:0:0:
475,192,132675,1,0,0:0:0:0:
109,192,132675,1,0,0:0:0:0:
182,192,132887,1,0,0:0:0:0:
36,192,133098,1,0,0:0:0:0:
329,192,133098,1,0,0:0:0:0:
109,192,133098,1,0,0:0:0:0:
256,192,133309,1,0,0:0:0:0:
329,192,133521,1,0,0:0:0:0:
402,192,133521,1,0,0:0:0:0:
475,192,133521,1,0,0:0:0:0:
109,192,133521,1,0,0:0:0:0:
256,192,133732,1,0,0:0:0:0:
182,192,133943,1,0,0:0:0:0:
109,192,133943,1,0,0:0:0:0:
36,192,133943,1,0,0:0:0:0:
329,192,134154,1,0,0:0:0:0:
402,192,134366,1,0,0:0:0:0:
475,192,134366,1,0,0:0:0:0:
182,192,134366,1,0,0:0:0:0:
109,192,134366,1,0,0:0:0:0:
256,192,134577,1,0,0:0:0:0:
109,192,134788,1,0,0:0:0:0:
36,192,134788,1,0,0:0:0:0:
329,192,134788,1,0,0:0:0:0:
182,192,134999,1,0,0:0:0:0:
256,192,135211,1,0,0:0:0:0:
329,192,135211,1,0,0:0:0:0:
402,192,135211,1,0,0:0:0:0:
475,192,135211,1,0,0:0:0:0:
36,192,135422,1,0,0:0:0:0:
109,192,135633,1,0,0:0:0:0:
182,192,135633,1,0,0:0:0:0:
402,192,135633,1,0,0:0:0:0:
329,192,135845,1,0,0:0:0:0:
256,192,136056,1,0,0:0:0:0:
182,192,136056,1,0,0:0:0:0:
36,192,136056,1,0,0:0:0:0:
475,192,136056,1,0,0:0:0:0:
402,192,136267,1,0,0:0:0:0:
329,192,136478,1,0,0:0:0:0:
256,192,136478,1,0,0:0:0:0:
109,192,136478,1,0,0:0:0:0:
182,192,136690,1,0,0:0:0:0:
36,192,136901,1,0,0:0:0:0:
109,192,136901,1,0,0:0:0:0:
475,192,136901,1,0,0:0:0:0:
402,192,136901,1,0,0:0:0:0:
329,192,137112,1,0,0:0:0:0:
256,192,137323,1,0,0:0:0:0:
182,192,137323,1,0,0:0:0:0:
36,192,137323,1,0,0:0:0:0:
109,192,137535,1,0,0:0:0:0:
182,192,137746,1,0,0:0:0:0:
256,192,137746,1,0,0:0:0:0:
475,192,137746,1,0,0:0:0:0:
402,192,137746,1,0,0:0:0:0:
329,192,137957,1,0,0:0:0:0:
256,192,138168,1,0,0:0:0:0:
36,192,138168,1,0,0:0:0:0:
109,192,138168,1,0,0:0:0:0:
182,192,138380,1,0,0:0:0:0:
109,192,138591,1,0,0:0:0:0:
329,192,138591,1,0,0:0:0:0:
402,192,138591,1,0,0:0:0:0:
475,192,138591,1,0,0:0:0:0:
36,192,138802,1,0,0:0:0:0:
109,192,139014,1,0,0:0:0:0:
182,192,139014,1,0,0:0:0:0:
256,192,139014,1,0,0:0:0:0:
329,192,139225,1,0,0:0:0:0:
402,192,139436,1,0,0:0:0:0:
475,192,139436,1,0,0:0:0:0:
109,192,139436,1,0,0:0:0:0:
36,192,139436,1,0,0:0:0:0:
182,192,139647,1,0,0:0:0:0:
256,192,139859,1,0,0:0:0:0:
329,192,139859,1,0,0:0:0:0:
475,192,139859,1,0,0:0:0:0:
402,192,139964,1,0,0:0:0:0:
329,192,140070,1,0,0:0:0:0:
256,192,140175,1,0,0:0:0:0:
182,192,140281,1,0,0:0:0:0:
109,192,140281,1,0,0:0:0:0:
36,192,140281,1,0,0:0:0:0:
475,192,140281,1,0,0:0:0:0:
402,192,140387,1,0,0:0:0:0:
329,192,140492,1,0,0:0:0:0:
256,192,140598,1,0,0:0:0:0:
182,192,140704,1,0,0:0:0:0:
109,192,140704,1,0,0:0:0:0:
36,192,140704,1,0,0:0:0:0:
475,192,140809,1,0,0:0:0:0:
402,192,140915,1,0,0:0:0:0:
329,192,141021,1,0,0:0:0:0:
256,192,141126,1,0,0:0:0:0:
182,192,141126,1,0,0:0:0:0:
109,192,141126,1,0,0:0:0:0:
36,192,141126,1,0,0:0:0:0:
182,192,141971,1,0,0:0:0:0:
109,192,141971,1,0,0:0:0:0:
36,192,141971,1,0,0:0:0:0:
329,192,141971,1,0,0:0:0:0:
402,192,141971,1,0,0:0:0:0:
475,192,141971,1,0,0:0:0:0:
329,192,142816,1,0,0:0:0:0:
402,192,142816,1,0,0:0:0:0:
475,192,142816,1,0,0:0:0:0:
182,192,142816,1,0,0:0:0:0:
109,192,142816,1,0,0:0:0:0:
36,192,142816,1,0,0:0:0:0:
36,192,143661,1,0,0:0:0:0:
475,192,143661,1,0,0:0:0:0:
109,192,143661,1,0,0:0:0:0:
182,192,143661,1,0,0:0:0:0:
402,192,143661,1,0,0:0:0:0:
329,192,143661,1,0,0:0:0:0:
182,192,144506,1,0,0:0:0:0:
402,192,144506,1,0,0:0:0:0:
329,192,144506,1,0,0:0:0:0:
36,192,144506,1,0,0:0:0:0:
475,192,144506,1,0,0:0:0:0:
109,192,144506,1,0,0:0:0:0:
36,192,145352,1,0,0:0:0:0:
475,192,145352,1,0,0:0:0:0:
109,192,145352,1,0,0:0:0:0:
182,192,145352,1,0,0:0:0:0:
402,192,145352,1,0,0:0:0:0:
329,192,145352,1,0,0:0:0:0:
182,192,146197,1,0,0:0:0:0:
402,192,146197,1,0,0:0:0:0:
329,192,146197,1,0,0:0:0:0:
36,192,146197,1,0,0:0:0:0:
475,192,146197,1,0,0:0:0:0:
109,192,146197,1,0,0:0:0:0:
36,192,147042,1,0,0:0:0:0:
475,192,147042,1,0,0:0:0:0:
109,192,147042,1,0,0:0:0:0:
182,192,147042,1,0,0:0:0:0:
402,192,147042,1,0,0:0:0:0:
329,192,147042,1,0,0:0:0:0:
36,192,147887,1,0,0:0:0:0:
109,192,147887,1,0,0:0:0:0:
182,192,147887,1,0,0:0:0:0:
329,192,147992,1,0,0:0:0:0:
402,192,147992,1,0,0:0:0:0:
475,192,147992,1,0,0:0:0:0:
182,192,148098,1,0,0:0:0:0:
109,192,148098,1,0,0:0:0:0:
36,192,148098,1,0,0:0:0:0:
329,192,148204,1,0,0:0:0:0:
402,192,148204,1,0,0:0:0:0:
475,192,148204,1,0,0:0:0:0:
182,192,148309,1,0,0:0:0:0:
109,192,148309,1,0,0:0:0:0:
36,192,148309,1,0,0:0:0:0:
256,192,148521,1,0,0:0:0:0:
329,192,148732,1,0,0:0:0:0:
402,192,148732,1,0,0:0:0:0:
36,192,148732,1,0,0:0:0:0:
109,192,148732,1,0,0:0:0:0:
182,192,148943,1,0,0:0:0:0:
256,192,149154,1,0,0:0:0:0:
402,192,149154,1,0,0:0:0:0:
475,192,149154,1,0,0:0:0:0:
329,192,149366,1,0,0:0:0:0:
256,192,149577,1,0,0:0:0:0:
109,192,149577,1,0,0:0:0:0:
36,192,149577,1,0,0:0:0:0:
475,192,149577,1,0,0:0:0:0:
182,192,149788,1,0,0:0:0:0:
256,192,149999,1,0,0:0:0:0:
329,192,149999,1,0,0:0:0:0:
402,192,149999,1,0,0:0:0:0:
182,192,150211,1,0,0:0:0:0:
109,192,150422,1,0,0:0:0:0:
36,192,150422,1,0,0:0:0:0:
329,192,150422,1,0,0:0:0:0:
475,192,150422,1,0,0:0:0:0:
402,192,150633,1,0,0:0:0:0:
329,192,150845,1,0,0:0:0:0:
256,192,150845,1,0,0:0:0:0:
182,192,150845,1,0,0:0:0:0:
109,192,151056,1,0,0:0:0:0:
36,192,151267,1,0,0:0:0:0:
256,192,151267,1,0,0:0:0:0:
329,192,151267,1,0,0:0:0:0:
402,192,151267,1,0,0:0:0:0:
182,192,151478,1,0,0:0:0:0:
109,192,151690,1,0,0:0:0:0:
36,192,151690,1,0,0:0:0:0:
475,192,151690,1,0,0:0:0:0:
402,192,151795,1,0,0:0:0:0:
329,192,151901,1,0,0:0:0:0:
256,192,152006,1,0,0:0:0:0:
182,192,152112,1,0,0:0:0:0:
109,192,152112,1,0,0:0:0:0:
36,192,152112,1,0,0:0:0:0:
475,192,152112,1,0,0:0:0:0:
402,192,152218,1,0,0:0:0:0:
329,192,152323,1,0,0:0:0:0:
256,192,152429,1,0,0:0:0:0:
182,192,152535,1,0,0:0:0:0:
109,192,152535,1,0,0:0:0:0:
36,192,152535,1,0,0:0:0:0:
256,192,152640,1,0,0:0:0:0:
329,192,152746,1,0,0:0:0:0:
402,192,152852,1,0,0:0:0:0:
475,192,152957,1,0,0:0:0:0:
182,192,152957,1,0,0:0:0:0:
109,192,152957,1,0,0:0:0:0:
36,192,152957,1,0,0:0:0:0:
256,192,153063,1,0,0:0:0:0:
329,192,153168,1,0,0:0:0:0:
402,192,153274,1,0,0:0:0:0:
475,192,153380,1,0,0:0:0:0:
109,192,153380,1,0,0:0:0:0:
36,192,153380,1,0,0:0:0:0:
182,192,153485,1,0,0:0:0:0:
256,192,153591,1,0,0:0:0:0:
329,192,153697,1,0,0:0:0:0:
402,192,153802,1,0,0:0:0:0:
475,192,153802,1,0,0:0:0:0:
36,192,153802,1,0,0:0:0:0:
109,192,153802,1,0,0:0:0:0:
182,192,153908,1,0,0:0:0:0:
256,192,154014,1,0,0:0:0:0:
329,192,154119,1,0,0:0:0:0:
402,192,154225,1,0,0:0:0:0:
475,192,154225,1,0,0:0:0:0:
36,192,154225,1,0,0:0:0:0:
109,192,154278,1,0,0:0:0:0:
182,192,154330,1,0,0:0:0:0:
256,192,154383,1,0,0:0:0:0:
475,192,154436,1,0,0:0:0:0:
402,192,154489,1,0,0:0:0:0:
329,192,154542,1,0,0:0:0:0:
256,192,154595,1,0,0:0:0:0:
182,192,154647,1,0,0:0:0:0:
109,192,154647,1,0,0:0:0:0:
36,192,154647,1,0,0:0:0:0:
475,192,154647,1,0,0:0:0:0:
402,192,154753,1,0,0:0:0:0:
329,192,154859,1,0,0:0:0:0:
256,192,154964,1,0,0:0:0:0:
182,192,155070,1,0,0:0:0:0:
109,192,155070,1,0,0:0:0:0:
36,192,155070,1,0,0:0:0:0:
256,192,155175,1,0,0:0:0:0:
329,192,155281,1,0,0:0:0:0:
402,192,155387,1,0,0:0:0:0:
475,192,155492,1,0,0:0:0:0:
36,192,155598,1,0,0:0:0:0:
109,192,155704,1,0,0:0:0:0:
182,192,155809,1,0,0:0:0:0:
256,192,155915,1,0,0:0:0:0:
329,192,155915,1,0,0:0:0:0:
402,192,156021,1,0,0:0:0:0:
475,192,156021,1,0,0:0:0:0:
36,192,156126,1,0,0:0:0:0:
109,192,156126,1,0,0:0:0:0:
182,192,156232,1,0,0:0:0:0:
256,192,156232,1,0,0:0:0:0:
329,192,156337,1,0,0:0:0:0:
402,192,156337,1,0,0:0:0:0:
109,192,156443,1,0,0:0:0:0:
182,192,156443,1,0,0:0:0:0:
256,192,156549,1,0,0:0:0:0:
329,192,156549,1,0,0:0:0:0:
402,192,156654,1,0,0:0:0:0:
475,192,156654,1,0,0:0:0:0:
109,192,156760,1,0,0:0:0:0:
36,192,156760,1,0,0:0:0:0:
182,192,156760,128,0,157183:0:0:0:0:
256,192,156760,128,0,156866:0:0:0:0:
329,192,156760,128,0,156971:0:0:0:0:
402,192,156866,128,0,157183:0:0:0:0:
109,192,156971,128,0,157077:0:0:0:0:
475,192,156971,128,0,157077:0:0:0:0:
36,192,157077,128,0,157183:0:0:0:0:
256,192,157183,128,0,157394:0:0:0:0:
329,192,157183,128,0,157288:0:0:0:0:
475,192,157183,128,0,157605:0:0:0:0:
109,192,157183,128,0,157394:0:0:0:0:
329,192,157394,128,0,157605:0:0:0:0:
36,192,157394,128,0,157605:0:0:0:0:
402,192,157394,128,0,157499:0:0:0:0:
256,192,157499,128,0,157605:0:0:0:0:
182,192,157605,128,0,157816:0:0:0:0:
109,192,157605,128,0,157711:0:0:0:0:
402,192,157605,128,0,157816:0:0:0:0:
329,192,157711,128,0,157816:0:0:0:0:
36,192,157711,128,0,157922:0:0:0:0:
109,192,157816,128,0,158028:0:0:0:0:
256,192,157816,128,0,157922:0:0:0:0:
475,192,157816,128,0,158028:0:0:0:0:
182,192,157922,128,0,158028:0:0:0:0:
402,192,157922,128,0,158028:0:0:0:0:
329,192,158028,128,0,158239:0:0:0:0:
256,192,158028,128,0,158133:0:0:0:0:
36,192,158028,128,0,158239:0:0:0:0:
109,192,158133,128,0,158239:0:0:0:0:
182,192,158133,128,0,158450:0:0:0:0:
475,192,158239,128,0,158450:0:0:0:0:
402,192,158239,128,0,158345:0:0:0:0:
256,192,158239,128,0,158450:0:0:0:0:
329,192,158345,128,0,158450:0:0:0:0:
109,192,158345,128,0,158556:0:0:0:0:
402,192,158450,128,0,158873:0:0:0:0:
36,192,158450,128,0,158556:0:0:0:0:
182,192,158556,128,0,158873:0:0:0:0:
256,192,158556,128,0,158767:0:0:0:0:
329,192,158556,128,0,158661:0:0:0:0:
109,192,158661,128,0,158767:0:0:0:0:
36,192,158661,128,0,158978:0:0:0:0:
475,192,158767,128,0,158978:0:0:0:0:
329,192,158873,128,0,159295:0:0:0:0:
256,192,158873,128,0,159084:0:0:0:0:
109,192,158873,128,0,158978:0:0:0:0:
182,192,158978,128,0,159295:0:0:0:0:
402,192,158978,128,0,159190:0:0:0:0:
475,192,159084,128,0,159190:0:0:0:0:
109,192,159084,128,0,159295:0:0:0:0:
36,192,159084,128,0,159401:0:0:0:0:
256,192,159295,128,0,159718:0:0:0:0:
402,192,159295,128,0,159506:0:0:0:0:
475,192,159295,128,0,159401:0:0:0:0:
329,192,159401,128,0,159506:0:0:0:0:
109,192,159401,128,0,159718:0:0:0:0:
182,192,159401,128,0,159612:0:0:0:0:
475,192,159506,128,0,159718:0:0:0:0:
402,192,159612,128,0,159718:0:0:0:0:
36,192,159718,1,0,0:0:0:0:
329,192,159929,1,0,0:0:0:0:
182,192,160140,128,0,160563:0:0:0:0:
109,192,160140,128,0,160352:0:0:0:0:
36,192,160140,128,0,160246:0:0:0:0:
475,192,160140,128,0,160246:0:0:0:0:
402,192,160140,1,0,0:0:0:0:
329,192,160246,128,0,160352:0:0:0:0:
402,192,160352,128,0,160563:0:0:0:0:
475,192,160457,128,0,160563:0:0:0:0:
36,192,160457,128,0,160774:0:0:0:0:
109,192,160457,128,0,160563:0:0:0:0:
329,192,160457,128,0,160668:0:0:0:0:
256,192,160563,128,0,160774:0:0:0:0:
402,192,160668,128,0,160774:0:0:0:0:
475,192,160668,128,0,160985:0:0:0:0:
109,192,160774,128,0,160985:0:0:0:0:
182,192,160774,128,0,160880:0:0:0:0:
329,192,160774,128,0,160985:0:0:0:0:
256,192,160880,128,0,161091:0:0:0:0:
36,192,160880,128,0,160985:0:0:0:0:
402,192,160985,128,0,161408:0:0:0:0:
182,192,160985,128,0,161197:0:0:0:0:
329,192,161091,128,0,161197:0:0:0:0:
109,192,161091,128,0,161408:0:0:0:0:
36,192,161091,128,0,161302:0:0:0:0:
475,192,161197,128,0,161408:0:0:0:0:
256,192,161197,128,0,161408:0:0:0:0:
182,192,161302,128,0,161514:0:0:0:0:
329,192,161408,128,0,161619:0:0:0:0:
36,192,161408,128,0,161514:0:0:0:0:
109,192,161514,128,0,161619:0:0:0:0:
402,192,161514,128,0,161619:0:0:0:0:
256,192,161619,128,0,161830:0:0:0:0:
182,192,161619,128,0,161725:0:0:0:0:
475,192,161619,128,0,161830:0:0:0:0:
36,192,161619,128,0,161830:0:0:0:0:
109,192,161725,128,0,161830:0:0:0:0:
182,192,161830,128,0,163098:0:0:0:0:
329,192,161830,128,0,161936:0:0:0:0:
402,192,161830,128,0,162042:0:0:0:0:
256,192,161936,128,0,162147:0:0:0:0:
109,192,161936,128,0,162042:0:0:0:0:
36,192,162042,128,0,162253:0:0:0:0:
475,192,162042,128,0,162253:0:0:0:0:
329,192,162042,128,0,162147:0:0:0:0:
402,192,162147,128,0,162359:0:0:0:0:
109,192,162147,128,0,162359:0:0:0:0:
329,192,162253,128,0,162359:0:0:0:0:
256,192,162253,128,0,162464:0:0:0:0:
36,192,162359,128,0,162464:0:0:0:0:
109,192,162464,128,0,162570:0:0:0:0:
329,192,162464,128,0,162570:0:0:0:0:
475,192,162464,128,0,162675:0:0:0:0:
402,192,162570,128,0,162675:0:0:0:0:
256,192,162570,128,0,162781:0:0:0:0:
36,192,162570,128,0,162781:0:0:0:0:
329,192,162675,128,0,162887:0:0:0:0:
109,192,162781,128,0,163098:0:0:0:0:
402,192,162781,128,0,162992:0:0:0:0:
475,192,162887,128,0,163098:0:0:0:0:
36,192,162992,128,0,163098:0:0:0:0:
256,192,163098,1,0,0:0:0:0:
329,192,163204,1,0,0:0:0:0:
402,192,163309,1,0,0:0:0:0:
329,192,163415,1,0,0:0:0:0:
182,192,163521,128,0,163943:0:0:0:0:
402,192,163521,128,0,163732:0:0:0:0:
36,192,163521,128,0,164154:0:0:0:0:
256,192,163521,1,0,0:0:0:0:
475,192,163521,1,0,0:0:0:0:
329,192,163732,128,0,163943:0:0:0:0:
256,192,163943,128,0,164366:0:0:0:0:
475,192,163943,128,0,164154:0:0:0:0:
109,192,163943,128,0,164154:0:0:0:0:
182,192,164154,128,0,164577:0:0:0:0:
329,192,164154,128,0,164366:0:0:0:0:
402,192,164366,128,0,164788:0:0:0:0:
109,192,164366,128,0,164577:0:0:0:0:
36,192,164577,128,0,164999:0:0:0:0:
256,192,164577,128,0,164788:0:0:0:0:
329,192,164577,128,0,164999:0:0:0:0:
475,192,164577,128,0,164788:0:0:0:0:
109,192,164788,128,0,165211:0:0:0:0:
182,192,164788,128,0,164999:0:0:0:0:
402,192,164999,128,0,165422:0:0:0:0:
256,192,164999,128,0,165211:0:0:0:0:
329,192,165211,128,0,165422:0:0:0:0:
182,192,165211,128,0,165633:0:0:0:0:
36,192,165211,128,0,165422:0:0:0:0:
475,192,165211,128,0,165633:0:0:0:0:
109,192,165422,128,0,165633:0:0:0:0:
256,192,165422,128,0,165845:0:0:0:0:
329,192,165633,128,0,165845:0:0:0:0:
36,192,165633,128,0,166056:0:0:0:0:
475,192,165845,128,0,166056:0:0:0:0:
109,192,165845,128,0,166056:0:0:0:0:
182,192,165845,128,0,166267:0:0:0:0:
402,192,166056,128,0,166478:0:0:0:0:
329,192,166056,128,0,166267:0:0:0:0:
36,192,166267,128,0,166478:0:0:0:0:
256,192,166267,128,0,166478:0:0:0:0:
329,192,166478,1,0,0:0:0:0:
109,192,166478,1,0,0:0:0:0:
256,192,166690,1,0,0:0:0:0:
475,192,166901,128,0,167112:0:0:0:0:
329,192,166901,128,0,167323:0:0:0:0:
182,192,166901,128,0,167112:0:0:0:0:
109,192,166901,128,0,167323:0:0:0:0:
36,192,167112,128,0,167323:0:0:0:0:
402,192,167323,128,0,167535:0:0:0:0:
475,192,167323,128,0,167746:0:0:0:0:
182,192,167323,128,0,167535:0:0:0:0:
109,192,167535,128,0,167746:0:0:0:0:
329,192,167535,128,0,167957:0:0:0:0:
256,192,167535,128,0,167746:0:0:0:0:
36,192,167535,128,0,167957:0:0:0:0:
402,192,167746,128,0,168168:0:0:0:0:
182,192,167746,128,0,168168:0:0:0:0:
475,192,167957,128,0,168380:0:0:0:0:
256,192,167957,128,0,168380:0:0:0:0:
36,192,168168,128,0,168591:0:0:0:0:
109,192,168168,128,0,168380:0:0:0:0:
329,192,168380,128,0,168591:0:0:0:0:
182,192,168380,128,0,168802:0:0:0:0:
475,192,168591,128,0,168802:0:0:0:0:
109,192,168591,128,0,169014:0:0:0:0:
256,192,168591,128,0,168802:0:0:0:0:
402,192,168591,128,0,169859:0:0:0:0:
329,192,168802,128,0,169225:0:0:0:0:
475,192,169014,128,0,169436:0:0:0:0:
182,192,169014,128,0,169225:0:0:0:0:
36,192,169014,128,0,169436:0:0:0:0:
109,192,169225,128,0,169436:0:0:0:0:
256,192,169225,128,0,169647:0:0:0:0:
182,192,169436,128,0,169859:0:0:0:0:
329,192,169647,128,0,169859:0:0:0:0:
109,192,169647,128,0,169859:0:0:0:0:
36,192,169859,1,0,0:0:0:0:
475,192,169964,1,0,0:0:0:0:
402,192,170070,1,0,0:0:0:0:
329,192,170175,1,0,0:0:0:0:
402,192,170281,128,0,170704:0:0:0:0:
182,192,170281,128,0,170704:0:0:0:0:
256,192,170281,128,0,170492:0:0:0:0:
475,192,170281,1,0,0:0:0:0:
109,192,170281,128,0,170492:0:0:0:0:
36,192,170492,128,0,170704:0:0:0:0:
475,192,170704,128,0,170915:0:0:0:0:
109,192,170704,128,0,171126:0:0:0:0:
329,192,170704,128,0,170915:0:0:0:0:
402,192,170915,128,0,171337:0:0:0:0:
36,192,170915,128,0,171126:0:0:0:0:
256,192,170915,128,0,171126:0:0:0:0:
182,192,171126,128,0,171549:0:0:0:0:
329,192,171126,128,0,171549:0:0:0:0:
36,192,171337,128,0,171760:0:0:0:0:
256,192,171337,128,0,171549:0:0:0:0:
475,192,171337,128,0,171760:0:0:0:0:
109,192,171549,128,0,171760:0:0:0:0:
182,192,171760,128,0,171971:0:0:0:0:
402,192,171760,128,0,171971:0:0:0:0:
329,192,171760,128,0,172183:0:0:0:0:
109,192,171971,128,0,172394:0:0:0:0:
256,192,171971,128,0,172183:0:0:0:0:
475,192,171971,128,0,172394:0:0:0:0:
182,192,172183,128,0,172394:0:0:0:0:
36,192,172183,128,0,172394:0:0:0:0:
402,192,172183,128,0,172394:0:0:0:0:
256,192,172394,128,0,172816:0:0:0:0:
329,192,172394,128,0,172605:0:0:0:0:
402,192,172605,128,0,173028:0:0:0:0:
36,192,172605,128,0,173028:0:0:0:0:
475,192,172605,128,0,172816:0:0:0:0:
109,192,172605,128,0,172816:0:0:0:0:
329,192,172816,128,0,173239:0:0:0:0:
182,192,172816,128,0,173239:0:0:0:0:
475,192,173028,128,0,173239:0:0:0:0:
109,192,173028,128,0,173239:0:0:0:0:
402,192,173239,1,0,0:0:0:0:
256,192,173450,1,0,0:0:0:0:
109,192,173661,128,0,173873:0:0:0:0:
475,192,173661,128,0,173767:0:0:0:0:
36,192,173661,128,0,173767:0:0:0:0:
182,192,173661,128,0,174084:0:0:0:0:
402,192,173661,1,0,0:0:0:0:
329,192,173767,128,0,173873:0:0:0:0:
402,192,173873,128,0,174084:0:0:0:0:
329,192,173978,128,0,174190:0:0:0:0:
109,192,173978,128,0,174084:0:0:0:0:
36,192,173978,128,0,174295:0:0:0:0:
475,192,173978,128,0,174084:0:0:0:0:
256,192,174084,128,0,174295:0:0:0:0:
475,192,174190,128,0,174506:0:0:0:0:
402,192,174190,128,0,174295:0:0:0:0:
109,192,174295,128,0,174506:0:0:0:0:
182,192,174295,128,0,174401:0:0:0:0:
329,192,174295,128,0,174506:0:0:0:0:
256,192,174401,128,0,174612:0:0:0:0:
36,192,174401,128,0,174506:0:0:0:0:
402,192,174506,128,0,174929:0:0:0:0:
182,192,174506,128,0,174718:0:0:0:0:
109,192,174612,128,0,174929:0:0:0:0:
36,192,174612,128,0,174823:0:0:0:0:
329,192,174612,128,0,174718:0:0:0:0:
256,192,174718,128,0,174929:0:0:0:0:
475,192,174718,128,0,174929:0:0:0:0:
182,192,174823,128,0,175035:0:0:0:0:
36,192,174929,128,0,175035:0:0:0:0:
329,192,174929,128,0,175140:0:0:0:0:
402,192,175035,128,0,175140:0:0:0:0:
109,192,175035,128,0,175140:0:0:0:0:
182,192,175140,128,0,175246:0:0:0:0:
256,192,175140,128,0,175352:0:0:0:0:
36,192,175140,128,0,175352:0:0:0:0:
475,192,175140,128,0,175352:0:0:0:0:
109,192,175246,128,0,175352:0:0:0:0:
329,192,175352,128,0,175457:0:0:0:0:
182,192,175352,128,0,176619:0:0:0:0:
402,192,175352,128,0,175563:0:0:0:0:
109,192,175457,128,0,175563:0:0:0:0:
256,192,175457,128,0,175668:0:0:0:0:
329,192,175563,128,0,175668:0:0:0:0:
475,192,175563,128,0,175774:0:0:0:0:
36,192,175563,128,0,175774:0:0:0:0:
109,192,175668,128,0,175880:0:0:0:0:
402,192,175668,128,0,175880:0:0:0:0:
256,192,175774,128,0,175985:0:0:0:0:
329,192,175774,128,0,175880:0:0:0:0:
36,192,175880,128,0,175985:0:0:0:0:
329,192,175985,128,0,176091:0:0:0:0:
475,192,175985,128,0,176197:0:0:0:0:
109,192,175985,128,0,176091:0:0:0:0:
402,192,176091,128,0,176197:0:0:0:0:
36,192,176091,128,0,176302:0:0:0:0:
256,192,176091,128,0,176302:0:0:0:0:
329,192,176197,128,0,176408:0:0:0:0:
402,192,176302,128,0,176514:0:0:0:0:
109,192,176302,128,0,176619:0:0:0:0:
475,192,176408,128,0,176619:0:0:0:0:
36,192,176514,128,0,176619:0:0:0:0:
256,192,176725,1,0,0:0:0:0:
402,192,176830,1,0,0:0:0:0:
329,192,176936,1,0,0:0:0:0:
109,192,177042,128,0,177253:0:0:0:0:
256,192,177042,128,0,177253:0:0:0:0:
182,192,177042,128,0,177464:0:0:0:0:
475,192,177042,1,0,0:0:0:0:
402,192,177042,128,0,177464:0:0:0:0:
36,192,177253,128,0,177464:0:0:0:0:
329,192,177464,128,0,177675:0:0:0:0:
109,192,177464,128,0,177887:0:0:0:0:
475,192,177464,128,0,177675:0:0:0:0:
402,192,177675,128,0,178098:0:0:0:0:
256,192,177675,128,0,177887:0:0:0:0:
36,192,177675,128,0,177887:0:0:0:0:
182,192,177887,128,0,178309:0:0:0:0:
329,192,177887,128,0,178309:0:0:0:0:
475,192,178098,128,0,178521:0:0:0:0:
36,192,178098,128,0,178521:0:0:0:0:
256,192,178098,128,0,178309:0:0:0:0:
109,192,178309,128,0,178521:0:0:0:0:
329,192,178521,128,0,178943:0:0:0:0:
182,192,178521,128,0,178732:0:0:0:0:
402,192,178521,128,0,178732:0:0:0:0:
109,192,178732,128,0,179154:0:0:0:0:
256,192,178732,128,0,178943:0:0:0:0:
475,192,178732,128,0,179154:0:0:0:0:
402,192,178943,128,0,179154:0:0:0:0:
36,192,178943,128,0,179154:0:0:0:0:
182,192,178943,128,0,179154:0:0:0:0:
329,192,179154,128,0,179366:0:0:0:0:
256,192,179154,128,0,179577:0:0:0:0:
109,192,179366,128,0,179577:0:0:0:0:
36,192,179366,128,0,179788:0:0:0:0:
402,192,179366,128,0,179788:0:0:0:0:
475,192,179366,128,0,179577:0:0:0:0:
182,192,179577,128,0,179999:0:0:0:0:
329,192,179577,128,0,179999:0:0:0:0:
109,192,179788,128,0,179999:0:0:0:0:
475,192,179788,128,0,179999:0:0:0:0:
402,192,179999,1,0,0:0:0:0:
256,192,180211,1,0,0:0:0:0:
475,192,180422,128,0,180633:0:0:0:0:
109,192,180422,128,0,180845:0:0:0:0:
182,192,180422,128,0,180633:0:0:0:0:
329,192,180422,128,0,180845:0:0:0:0:
36,192,180633,128,0,180845:0:0:0:0:
475,192,180845,128,0,181267:0:0:0:0:
402,192,180845,128,0,181056:0:0:0:0:
182,192,180845,128,0,181056:0:0:0:0:
36,192,181056,128,0,181478:0:0:0:0:
109,192,181056,128,0,181267:0:0:0:0:
256,192,181056,128,0,181267:0:0:0:0:
329,192,181056,128,0,181478:0:0:0:0:
402,192,181267,128,0,181690:0:0:0:0:
182,192,181267,128,0,181690:0:0:0:0:
256,192,181478,128,0,181901:0:0:0:0:
475,192,181478,128,0,181901:0:0:0:0:
109,192,181690,128,0,181901:0:0:0:0:
36,192,181690,128,0,182112:0:0:0:0:
182,192,181901,128,0,182323:0:0:0:0:
329,192,181901,128,0,182112:0:0:0:0:
109,192,182112,128,0,182535:0:0:0:0:
256,192,182112,128,0,182323:0:0:0:0:
475,192,182112,128,0,182323:0:0:0:0:
402,192,182112,128,0,183380:0:0:0:0:
329,192,182323,128,0,182746:0:0:0:0:
36,192,182535,128,0,182957:0:0:0:0:
475,192,182535,128,0,182957:0:0:0:0:
182,192,182535,128,0,182746:0:0:0:0:
109,192,182746,128,0,182957:0:0:0:0:
256,192,182746,128,0,183168:0:0:0:0:
182,192,182957,128,0,183380:0:0:0:0:
329,192,183168,128,0,183380:0:0:0:0:
109,192,183168,128,0,183380:0:0:0:0:
36,192,183380,1,0,0:0:0:0:
256,192,183802,128,0,184014:0:0:0:0:
182,192,184225,1,0,0:0:0:0:
109,192,184225,1,0,0:0:0:0:
329,192,184225,1,0,0:0:0:0:
402,192,184225,1,0,0:0:0:0:
256,192,184647,128,0,184859:0:0:0:0:
109,192,185070,1,0,0:0:0:0:
36,192,185070,1,0,0:0:0:0:
402,192,185070,1,0,0:0:0:0:
475,192,185070,1,0,0:0:0:0:
256,192,185492,128,0,185704:0:0:0:0:
182,192,185915,1,0,0:0:0:0:
402,192,185915,1,0,0:0:0:0:
329,192,185915,1,0,0:0:0:0:
109,192,185915,1,0,0:0:0:0:
256,192,186337,128,0,186549:0:0:0:0:
36,192,186760,1,0,0:0:0:0:
475,192,186760,1,0,0:0:0:0:
109,192,186760,1,0,0:0:0:0:
402,192,186760,1,0,0:0:0:0:
256,192,187183,128,0,187394:0:0:0:0:
182,192,187605,1,0,0:0:0:0:
402,192,187605,1,0,0:0:0:0:
329,192,187605,1,0,0:0:0:0:
109,192,187605,1,0,0:0:0:0:
256,192,188028,128,0,188239:0:0:0:0:
36,192,188450,1,0,0:0:0:0:
475,192,188450,1,0,0:0:0:0:
109,192,188450,1,0,0:0:0:0:
402,192,188450,1,0,0:0:0:0:
256,192,188873,128,0,189084:0:0:0:0:
329,192,189295,1,0,0:0:0:0:
109,192,189295,1,0,0:0:0:0:
182,192,189295,1,0,0:0:0:0:
402,192,189295,1,0,0:0:0:0:
256,192,189718,128,0,189929:0:0:0:0:
109,192,190140,1,0,0:0:0:0:
402,192,190140,1,0,0:0:0:0:
36,192,190140,1,0,0:0:0:0:
475,192,190140,1,0,0:0:0:0:
182,192,190563,1,0,0:0:0:0:
329,192,190563,1,0,0:0:0:0:
256,192,190668,1,0,0:0:0:0:
36,192,190774,1,0,0:0:0:0:
475,192,190774,1,0,0:0:0:0:
402,192,190880,1,0,0:0:0:0:
109,192,190880,1,0,0:0:0:0:
182,192,190985,1,0,0:0:0:0:
329,192,190985,1,0,0:0:0:0:
256,192,191091,1,0,0:0:0:0:
475,192,191197,1,0,0:0:0:0:
36,192,191197,1,0,0:0:0:0:
402,192,191302,1,0,0:0:0:0:
109,192,191302,1,0,0:0:0:0:
329,192,191408,1,0,0:0:0:0:
182,192,191408,1,0,0:0:0:0:
402,192,191514,1,0,0:0:0:0:
109,192,191514,1,0,0:0:0:0:
475,192,191619,1,0,0:0:0:0:
36,192,191619,1,0,0:0:0:0:
256,192,191725,1,0,0:0:0:0:
329,192,191830,1,0,0:0:0:0:
182,192,191830,1,0,0:0:0:0:
402,192,191936,1,0,0:0:0:0:
109,192,191936,1,0,0:0:0:0:
475,192,192042,1,0,0:0:0:0:
36,192,192042,1,0,0:0:0:0:
402,192,192147,1,0,0:0:0:0:
109,192,192147,1,0,0:0:0:0:
329,192,192253,1,0,0:0:0:0:
182,192,192253,1,0,0:0:0:0:
256,192,192359,1,0,0:0:0:0:
475,192,192464,1,0,0:0:0:0:
182,192,192464,1,0,0:0:0:0:
109,192,192570,1,0,0:0:0:0:
402,192,192570,1,0,0:0:0:0:
36,192,192675,1,0,0:0:0:0:
329,192,192675,1,0,0:0:0:0:
256,192,192781,1,0,0:0:0:0:
109,192,192781,1,0,0:0:0:0:
182,192,192887,1,0,0:0:0:0:
109,192,192992,1,0,0:0:0:0:
256,192,192992,1,0,0:0:0:0:
36,192,193098,1,0,0:0:0:0:
329,192,193098,1,0,0:0:0:0:
402,192,193204,1,0,0:0:0:0:
109,192,193204,1,0,0:0:0:0:
475,192,193309,1,0,0:0:0:0:
182,192,193309,1,0,0:0:0:0:
256,192,193415,1,0,0:0:0:0:
402,192,193415,1,0,0:0:0:0:
329,192,193521,1,0,0:0:0:0:
402,192,193626,1,0,0:0:0:0:
256,192,193626,1,0,0:0:0:0:
475,192,193732,1,0,0:0:0:0:
182,192,193732,1,0,0:0:0:0:
109,192,193837,1,0,0:0:0:0:
402,192,193837,1,0,0:0:0:0:
36,192,193943,1,0,0:0:0:0:
329,192,193943,1,0,0:0:0:0:
109,192,194049,1,0,0:0:0:0:
256,192,194049,1,0,0:0:0:0:
182,192,194154,1,0,0:0:0:0:
256,192,194260,1,0,0:0:0:0:
36,192,194260,1,0,0:0:0:0:
329,192,194366,1,0,0:0:0:0:
109,192,194366,1,0,0:0:0:0:
182,192,194471,1,0,0:0:0:0:
402,192,194471,1,0,0:0:0:0:
256,192,194577,1,0,0:0:0:0:
475,192,194577,1,0,0:0:0:0:
329,192,194683,1,0,0:0:0:0:
182,192,194683,1,0,0:0:0:0:
402,192,194788,1,0,0:0:0:0:
109,192,194788,1,0,0:0:0:0:
475,192,194894,1,0,0:0:0:0:
36,192,194894,1,0,0:0:0:0:
109,192,194999,1,0,0:0:0:0:
402,192,194999,1,0,0:0:0:0:
182,192,195105,1,0,0:0:0:0:
329,192,195105,1,0,0:0:0:0:
256,192,195211,1,0,0:0:0:0:
475,192,195211,1,0,0:0:0:0:
402,192,195316,1,0,0:0:0:0:
182,192,195316,1,0,0:0:0:0:
109,192,195422,1,0,0:0:0:0:
329,192,195422,1,0,0:0:0:0:
36,192,195528,1,0,0:0:0:0:
256,192,195528,1,0,0:0:0:0:
182,192,195633,1,0,0:0:0:0:
475,192,195633,1,0,0:0:0:0:
109,192,195739,1,0,0:0:0:0:
402,192,195739,1,0,0:0:0:0:
36,192,195845,1,0,0:0:0:0:
329,192,195845,1,0,0:0:0:0:
109,192,195950,1,0,0:0:0:0:
256,192,195950,1,0,0:0:0:0:
182,192,196056,1,0,0:0:0:0:
256,192,196161,1,0,0:0:0:0:
109,192,196161,1,0,0:0:0:0:
36,192,196267,1,0,0:0:0:0:
329,192,196267,1,0,0:0:0:0:
109,192,196373,1,0,0:0:0:0:
402,192,196373,1,0,0:0:0:0:
182,192,196478,1,0,0:0:0:0:
475,192,196478,1,0,0:0:0:0:
256,192,196584,1,0,0:0:0:0:
36,192,196584,1,0,0:0:0:0:
329,192,196690,1,0,0:0:0:0:
109,192,196690,1,0,0:0:0:0:
402,192,196795,1,0,0:0:0:0:
182,192,196795,1,0,0:0:0:0:
475,192,196901,1,0,0:0:0:0:
256,192,196901,1,0,0:0:0:0:
329,192,197006,1,0,0:0:0:0:
36,192,197006,1,0,0:0:0:0:
109,192,197112,1,0,0:0:0:0:
402,192,197112,1,0,0:0:0:0:
475,192,197218,1,0,0:0:0:0:
182,192,197218,1,0,0:0:0:0:
256,192,197323,1,0,0:0:0:0:
329,192,197323,1,0,0:0:0:0:
402,192,197323,1,0,0:0:0:0:
36,192,197323,1,0,0:0:0:0:
36,192,198168,1,0,0:0:0:0:
109,192,198168,1,0,0:0:0:0:
402,192,198274,1,0,0:0:0:0:
475,192,198274,1,0,0:0:0:0:
182,192,198380,1,0,0:0:0:0:
109,192,198380,1,0,0:0:0:0:
329,192,198485,1,0,0:0:0:0:
402,192,198485,1,0,0:0:0:0:
182,192,198591,1,0,0:0:0:0:
256,192,198591,1,0,0:0:0:0:
109,192,198697,1,0,0:0:0:0:
36,192,198697,1,0,0:0:0:0:
256,192,198802,1,0,0:0:0:0:
329,192,198802,1,0,0:0:0:0:
475,192,198908,1,0,0:0:0:0:
402,192,198908,1,0,0:0:0:0:
109,192,199014,1,0,0:0:0:0:
36,192,199014,1,0,0:0:0:0:
182,192,199014,128,0,199436:0:0:0:0:
329,192,199014,128,0,199225:0:0:0:0:
256,192,199014,128,0,199119:0:0:0:0:
402,192,199119,128,0,199436:0:0:0:0:
475,192,199225,128,0,199330:0:0:0:0:
109,192,199225,128,0,199330:0:0:0:0:
36,192,199330,128,0,199436:0:0:0:0:
329,192,199436,128,0,199542:0:0:0:0:
256,192,199436,128,0,199647:0:0:0:0:
109,192,199436,128,0,199647:0:0:0:0:
475,192,199436,128,0,199859:0:0:0:0:
402,192,199647,128,0,199753:0:0:0:0:
329,192,199647,128,0,199859:0:0:0:0:
36,192,199647,128,0,199859:0:0:0:0:
256,192,199753,128,0,199859:0:0:0:0:
182,192,199859,128,0,200070:0:0:0:0:
109,192,199859,128,0,199964:0:0:0:0:
402,192,199859,128,0,200070:0:0:0:0:
329,192,199964,128,0,200070:0:0:0:0:
36,192,199964,128,0,200175:0:0:0:0:
475,192,200070,128,0,200281:0:0:0:0:
256,192,200070,128,0,200175:0:0:0:0:
109,192,200070,128,0,200281:0:0:0:0:
402,192,200175,128,0,200281:0:0:0:0:
182,192,200175,128,0,200281:0:0:0:0:
329,192,200281,128,0,200492:0:0:0:0:
256,192,200281,128,0,200387:0:0:0:0:
36,192,200281,128,0,200492:0:0:0:0:
182,192,200387,128,0,200704:0:0:0:0:
109,192,200387,128,0,200492:0:0:0:0:
256,192,200492,128,0,200704:0:0:0:0:
475,192,200492,128,0,200704:0:0:0:0:
402,192,200492,128,0,200598:0:0:0:0:
109,192,200598,128,0,200809:0:0:0:0:
329,192,200598,128,0,200704:0:0:0:0:
36,192,200704,128,0,200809:0:0:0:0:
402,192,200704,128,0,201126:0:0:0:0:
329,192,200809,128,0,200915:0:0:0:0:
182,192,200809,128,0,201126:0:0:0:0:
256,192,200809,128,0,201021:0:0:0:0:
36,192,200915,128,0,201232:0:0:0:0:
109,192,200915,128,0,201021:0:0:0:0:
475,192,201021,128,0,201232:0:0:0:0:
256,192,201126,128,0,201337:0:0:0:0:
109,192,201126,128,0,201232:0:0:0:0:
329,192,201126,128,0,201549:0:0:0:0:
402,192,201232,128,0,201443:0:0:0:0:
182,192,201232,128,0,201549:0:0:0:0:
36,192,201337,128,0,201654:0:0:0:0:
475,192,201337,128,0,201443:0:0:0:0:
109,192,201337,128,0,201549:0:0:0:0:
402,192,201549,128,0,201760:0:0:0:0:
256,192,201549,128,0,201971:0:0:0:0:
475,192,201549,128,0,201654:0:0:0:0:
329,192,201654,128,0,201760:0:0:0:0:
109,192,201654,128,0,201971:0:0:0:0:
182,192,201654,128,0,201866:0:0:0:0:
475,192,201760,128,0,201971:0:0:0:0:
402,192,201866,128,0,201971:0:0:0:0:
36,192,201971,1,0,0:0:0:0:
329,192,202183,1,0,0:0:0:0:
475,192,202394,128,0,202499:0:0:0:0:
402,192,202394,1,0,0:0:0:0:
36,192,202394,128,0,202499:0:0:0:0:
109,192,202394,128,0,202605:0:0:0:0:
182,192,202394,128,0,202816:0:0:0:0:
329,192,202499,128,0,202605:0:0:0:0:
402,192,202605,128,0,202816:0:0:0:0:
109,192,202711,128,0,202816:0:0:0:0:
329,192,202711,128,0,202922:0:0:0:0:
475,192,202711,128,0,202816:0:0:0:0:
36,192,202711,128,0,203028:0:0:0:0:
256,192,202816,128,0,203028:0:0:0:0:
402,192,202922,128,0,203028:0:0:0:0:
475,192,202922,128,0,203239:0:0:0:0:
182,192,203028,128,0,203133:0:0:0:0:
109,192,203028,128,0,203239:0:0:0:0:
329,192,203028,128,0,203239:0:0:0:0:
36,192,203133,128,0,203239:0:0:0:0:
256,192,203133,128,0,203345:0:0:0:0:
402,192,203239,128,0,203661:0:0:0:0:
182,192,203239,128,0,203450:0:0:0:0:
109,192,203345,128,0,203661:0:0:0:0:
36,192,203345,128,0,203556:0:0:0:0:
329,192,203345,128,0,203450:0:0:0:0:
475,192,203450,128,0,203661:0:0:0:0:
256,192,203450,128,0,203661:0:0:0:0:
182,192,203556,128,0,203767:0:0:0:0:
329,192,203661,128,0,203873:0:0:0:0:
36,192,203661,128,0,203767:0:0:0:0:
402,192,203767,128,0,203873:0:0:0:0:
109,192,203767,128,0,203873:0:0:0:0:
475,192,203873,128,0,204084:0:0:0:0:
36,192,203873,128,0,204084:0:0:0:0:
256,192,203873,128,0,204084:0:0:0:0:
182,192,203873,128,0,203978:0:0:0:0:
109,192,203978,128,0,204084:0:0:0:0:
182,192,204084,128,0,205352:0:0:0:0:
402,192,204084,128,0,204295:0:0:0:0:
329,192,204084,128,0,204190:0:0:0:0:
109,192,204190,128,0,204295:0:0:0:0:
256,192,204190,128,0,204401:0:0:0:0:
475,192,204295,128,0,204506:0:0:0:0:
36,192,204295,128,0,204506:0:0:0:0:
329,192,204295,128,0,204401:0:0:0:0:
402,192,204401,128,0,204612:0:0:0:0:
109,192,204401,128,0,204612:0:0:0:0:
256,192,204506,128,0,204718:0:0:0:0:
329,192,204506,128,0,204612:0:0:0:0:
36,192,204612,128,0,204718:0:0:0:0:
329,192,204718,128,0,204823:0:0:0:0:
475,192,204718,128,0,204929:0:0:0:0:
109,192,204718,128,0,204823:0:0:0:0:
256,192,204823,128,0,205035:0:0:0:0:
402,192,204823,128,0,204929:0:0:0:0:
36,192,204823,128,0,205035:0:0:0:0:
329,192,204929,128,0,205140:0:0:0:0:
109,192,205035,128,0,205352:0:0:0:0:
402,192,205035,128,0,205246:0:0:0:0:
475,192,205140,128,0,205352:0:0:0:0:
36,192,205246,128,0,205352:0:0:0:0:
256,192,205352,1,0,0:0:0:0:
329,192,205457,1,0,0:0:0:0:
402,192,205563,1,0,0:0:0:0:
329,192,205668,1,0,0:0:0:0:
182,192,205774,128,0,206197:0:0:0:0:
36,192,205774,128,0,206408:0:0:0:0:
475,192,205774,1,0,0:0:0:0:
256,192,205774,1,0,0:0:0:0:
402,192,205774,128,0,205985:0:0:0:0:
329,192,205985,128,0,206197:0:0:0:0:
109,192,206197,128,0,206408:0:0:0:0:
256,192,206197,128,0,206619:0:0:0:0:
475,192,206197,128,0,206408:0:0:0:0:
182,192,206408,128,0,206830:0:0:0:0:
329,192,206408,128,0,206619:0:0:0:0:
109,192,206619,128,0,206830:0:0:0:0:
402,192,206619,128,0,207042:0:0:0:0:
256,192,206830,128,0,207042:0:0:0:0:
329,192,206830,128,0,207253:0:0:0:0:
36,192,206830,128,0,207253:0:0:0:0:
475,192,206830,128,0,207042:0:0:0:0:
109,192,207042,128,0,207464:0:0:0:0:
182,192,207042,128,0,207253:0:0:0:0:
402,192,207253,128,0,207675:0:0:0:0:
256,192,207253,128,0,207464:0:0:0:0:
475,192,207464,128,0,207887:0:0:0:0:
329,192,207464,128,0,207675:0:0:0:0:
36,192,207464,128,0,207675:0:0:0:0:
182,192,207464,128,0,207887:0:0:0:0:
109,192,207675,128,0,207887:0:0:0:0:
256,192,207675,128,0,208098:0:0:0:0:
36,192,207887,128,0,208309:0:0:0:0:
329,192,207887,128,0,208098:0:0:0:0:
182,192,208098,128,0,208521:0:0:0:0:
109,192,208098,128,0,208309:0:0:0:0:
475,192,208098,128,0,208309:0:0:0:0:
402,192,208309,128,0,208732:0:0:0:0:
329,192,208309,128,0,208521:0:0:0:0:
256,192,208521,128,0,208732:0:0:0:0:
36,192,208521,128,0,208732:0:0:0:0:
109,192,208732,1,0,0:0:0:0:
329,192,208732,1,0,0:0:0:0:
256,192,208943,1,0,0:0:0:0:
475,192,209154,128,0,209366:0:0:0:0:
109,192,209154,128,0,209577:0:0:0:0:
182,192,209154,128,0,209366:0:0:0:0:
329,192,209154,128,0,209577:0:0:0:0:
36,192,209366,128,0,209577:0:0:0:0:
402,192,209577,128,0,209788:0:0:0:0:
475,192,209577,128,0,209999:0:0:0:0:
182,192,209577,128,0,209788:0:0:0:0:
109,192,209788,128,0,209999:0:0:0:0:
329,192,209788,128,0,210211:0:0:0:0:
256,192,209788,128,0,209999:0:0:0:0:
36,192,209788,128,0,210211:0:0:0:0:
402,192,209999,128,0,210422:0:0:0:0:
182,192,209999,128,0,210422:0:0:0:0:
256,192,210211,128,0,210633:0:0:0:0:
475,192,210211,128,0,210633:0:0:0:0:
109,192,210422,128,0,210633:0:0:0:0:
36,192,210422,128,0,210845:0:0:0:0:
182,192,210633,128,0,211056:0:0:0:0:
329,192,210633,128,0,210845:0:0:0:0:
256,192,210845,128,0,211056:0:0:0:0:
109,192,210845,128,0,211267:0:0:0:0:
475,192,210845,128,0,211056:0:0:0:0:
402,192,210845,128,0,212112:0:0:0:0:
329,192,211056,128,0,211478:0:0:0:0:
475,192,211267,128,0,211690:0:0:0:0:
36,192,211267,128,0,211690:0:0:0:0:
182,192,211267,128,0,211478:0:0:0:0:
256,192,211478,128,0,211901:0:0:0:0:
109,192,211478,128,0,211690:0:0:0:0:
182,192,211690,128,0,212112:0:0:0:0:
329,192,211901,128,0,212112:0:0:0:0:
109,192,211901,128,0,212112:0:0:0:0:
36,192,212112,1,0,0:0:0:0:
256,192,212535,1,0,0:0:0:0:
182,192,212535,1,0,0:0:0:0:
329,192,212535,1,0,0:0:0:0:
109,192,212957,1,0,0:0:0:0:
402,192,212957,1,0,0:0:0:0:
329,192,213380,1,0,0:0:0:0:
256,192,213380,1,0,0:0:0:0:
182,192,213380,1,0,0:0:0:0:
36,192,213802,1,0,0:0:0:0:
475,192,213802,1,0,0:0:0:0:
182,192,214225,1,0,0:0:0:0:
329,192,214225,1,0,0:0:0:0:
256,192,214225,1,0,0:0:0:0:
182,192,214436,1,0,0:0:0:0:
329,192,214436,1,0,0:0:0:0:
256,192,214436,1,0,0:0:0:0:
256,192,214647,1,0,0:0:0:0:
329,192,214647,1,0,0:0:0:0:
182,192,214647,1,0,0:0:0:0:
182,192,214859,1,0,0:0:0:0:
329,192,214859,1,0,0:0:0:0:
256,192,214859,1,0,0:0:0:0:
109,192,215070,1,0,0:0:0:0:
36,192,215070,1,0,0:0:0:0:
402,192,215175,1,0,0:0:0:0:
475,192,215175,1,0,0:0:0:0:
182,192,215281,1,0,0:0:0:0:
109,192,215281,1,0,0:0:0:0:
329,192,215387,1,0,0:0:0:0:
402,192,215387,1,0,0:0:0:0:
256,192,215492,1,0,0:0:0:0:
182,192,215492,1,0,0:0:0:0:
109,192,215598,1,0,0:0:0:0:
36,192,215598,1,0,0:0:0:0:
402,192,215704,1,0,0:0:0:0:
475,192,215704,1,0,0:0:0:0:
329,192,215809,1,0,0:0:0:0:
256,192,215809,1,0,0:0:0:0:
36,192,215915,1,0,0:0:0:0:
109,192,215915,1,0,0:0:0:0:
182,192,215915,128,0,216337:0:0:0:0:
36,192,216337,1,0,0:0:0:0:
256,192,216337,128,0,216549:0:0:0:0:
402,192,216337,1,0,0:0:0:0:
475,192,216337,1,0,0:0:0:0:
329,192,216549,128,0,216760:0:0:0:0:
402,192,216760,1,0,0:0:0:0:
182,192,216760,1,0,0:0:0:0:
109,192,216760,128,0,216971:0:0:0:0:
182,192,216971,128,0,217183:0:0:0:0:
402,192,217183,128,0,217394:0:0:0:0:
256,192,217183,1,0,0:0:0:0:
36,192,217183,1,0,0:0:0:0:
475,192,217183,1,0,0:0:0:0:
109,192,217183,1,0,0:0:0:0:
329,192,217394,128,0,217605:0:0:0:0:
475,192,217605,1,0,0:0:0:0:
182,192,217605,1,0,0:0:0:0:
109,192,217605,1,0,0:0:0:0:
256,192,217605,128,0,217816:0:0:0:0:
402,192,218028,1,0,0:0:0:0:
329,192,218028,1,0,0:0:0:0:
256,192,218028,128,0,218239:0:0:0:0:
109,192,218028,1,0,0:0:0:0:
36,192,218028,1,0,0:0:0:0:
182,192,218450,1,0,0:0:0:0:
475,192,218450,1,0,0:0:0:0:
256,192,218450,128,0,218873:0:0:0:0:
402,192,218450,1,0,0:0:0:0:
402,192,218873,1,0,0:0:0:0:
109,192,218873,1,0,0:0:0:0:
329,192,218873,1,0,0:0:0:0:
36,192,218873,1,0,0:0:0:0:
402,192,219295,1,0,0:0:0:0:
182,192,219295,1,0,0:0:0:0:
329,192,219295,128,0,219718:0:0:0:0:
256,192,219295,1,0,0:0:0:0:
109,192,219718,128,0,219929:0:0:0:0:
402,192,219718,1,0,0:0:0:0:
475,192,219718,1,0,0:0:0:0:
36,192,219718,1,0,0:0:0:0:
182,192,219929,128,0,220140:0:0:0:0:
256,192,220140,128,0,220352:0:0:0:0:
329,192,220140,1,0,0:0:0:0:
402,192,220140,1,0,0:0:0:0:
475,192,220140,1,0,0:0:0:0:
109,192,220563,1,0,0:0:0:0:
36,192,220563,1,0,0:0:0:0:
182,192,220563,1,0,0:0:0:0:
402,192,220563,128,0,220774:0:0:0:0:
329,192,220774,128,0,220985:0:0:0:0:
36,192,220985,1,0,0:0:0:0:
182,192,220985,1,0,0:0:0:0:
475,192,220985,1,0,0:0:0:0:
256,192,220985,128,0,222253:0:0:0:0:
329,192,221408,1,0,0:0:0:0:
402,192,221408,1,0,0:0:0:0:
109,192,221408,1,0,0:0:0:0:
475,192,221830,1,0,0:0:0:0:
36,192,221830,1,0,0:0:0:0:
182,192,221830,1,0,0:0:0:0:
182,192,222253,1,0,0:0:0:0:
109,192,222253,1,0,0:0:0:0:
402,192,222253,1,0,0:0:0:0:
475,192,222675,1,0,0:0:0:0:
256,192,222675,128,0,222887:0:0:0:0:
402,192,222675,1,0,0:0:0:0:
329,192,222675,1,0,0:0:0:0:
329,192,223098,1,0,0:0:0:0:
36,192,223098,1,0,0:0:0:0:
109,192,223098,1,0,0:0:0:0:
182,192,223098,128,0,223309:0:0:0:0:
256,192,223309,128,0,223521:0:0:0:0:
109,192,223521,1,0,0:0:0:0:
475,192,223521,1,0,0:0:0:0:
402,192,223521,1,0,0:0:0:0:
329,192,223521,128,0,223943:0:0:0:0:
256,192,223943,128,0,224154:0:0:0:0:
475,192,223943,1,0,0:0:0:0:
36,192,223943,1,0,0:0:0:0:
109,192,223943,1,0,0:0:0:0:
182,192,224154,128,0,224366:0:0:0:0:
402,192,224366,1,0,0:0:0:0:
256,192,224366,1,0,0:0:0:0:
36,192,224366,1,0,0:0:0:0:
329,192,224366,128,0,224577:0:0:0:0:
109,192,224577,128,0,224788:0:0:0:0:
256,192,224788,1,0,0:0:0:0:
402,192,224788,128,0,224999:0:0:0:0:
182,192,224788,1,0,0:0:0:0:
475,192,224788,1,0,0:0:0:0:
36,192,224999,128,0,225211:0:0:0:0:
475,192,225211,128,0,225633:0:0:0:0:
109,192,225211,1,0,0:0:0:0:
182,192,225211,1,0,0:0:0:0:
329,192,225211,1,0,0:0:0:0:
109,192,225633,1,0,0:0:0:0:
182,192,225633,1,0,0:0:0:0:
36,192,225633,1,0,0:0:0:0:
402,192,225704,1,0,0:0:0:0:
329,192,225774,1,0,0:0:0:0:
256,192,225845,1,0,0:0:0:0:
182,192,225915,1,0,0:0:0:0:
109,192,225985,1,0,0:0:0:0:
36,192,226056,1,0,0:0:0:0:
475,192,226056,1,0,0:0:0:0:
329,192,226056,128,0,226478:0:0:0:0:
402,192,226056,1,0,0:0:0:0:
36,192,226478,1,0,0:0:0:0:
475,192,226478,1,0,0:0:0:0:
109,192,226478,1,0,0:0:0:0:
182,192,226478,128,0,226901:0:0:0:0:
256,192,226901,128,0,227112:0:0:0:0:
475,192,226901,1,0,0:0:0:0:
402,192,226901,1,0,0:0:0:0:
36,192,226901,1,0,0:0:0:0:
329,192,227112,128,0,227323:0:0:0:0:
182,192,227323,1,0,0:0:0:0:
36,192,227323,1,0,0:0:0:0:
256,192,227323,1,0,0:0:0:0:
109,192,227323,128,0,227535:0:0:0:0:
402,192,227535,128,0,227746:0:0:0:0:
256,192,227746,1,0,0:0:0:0:
329,192,227746,1,0,0:0:0:0:
475,192,227746,1,0,0:0:0:0:
182,192,227746,128,0,229014:0:0:0:0:
36,192,228168,1,0,0:0:0:0:
109,192,228168,1,0,0:0:0:0:
402,192,228591,1,0,0:0:0:0:
475,192,228591,1,0,0:0:0:0:
329,192,228697,1,0,0:0:0:0:
256,192,228697,1,0,0:0:0:0:
109,192,228802,1,0,0:0:0:0:
36,192,228802,1,0,0:0:0:0:
402,192,228908,1,0,0:0:0:0:
475,192,228908,1,0,0:0:0:0:
329,192,229014,1,0,0:0:0:0:
256,192,229014,1,0,0:0:0:0:
109,192,229119,1,0,0:0:0:0:
36,192,229119,1,0,0:0:0:0:
402,192,229225,1,0,0:0:0:0:
475,192,229225,1,0,0:0:0:0:
109,192,229330,1,0,0:0:0:0:
182,192,229330,1,0,0:0:0:0:
256,192,229436,1,0,0:0:0:0:
329,192,229436,1,0,0:0:0:0:
402,192,229436,1,0,0:0:0:0:
475,192,229436,1,0,0:0:0:0:
