osu file format v14

[General]
AudioFilename: Koven - Get This Right.mp3
AudioLeadIn: 0
PreviewTime: 93028
Countdown: 0
SampleSet: Soft
StackLeniency: 0.7
Mode: 0
LetterboxInBreaks: 0
WidescreenStoryboard: 0

[Editor]
Bookmarks: 27010,68871
DistanceSpacing: 1.1
BeatDivisor: 8
GridSize: 4
TimelineZoom: 1.8

[Metadata]
Title:Get This Right
TitleUnicode:Get This Right
Artist:Koven
ArtistUnicode:Koven
Creator:Aiceo
Version:Extra
Source:
Tags:toybot dnb drum and bass edm appleeaterx ProfessionalBox Sharkie Priti guineaQ byfar
BeatmapID:767774
BeatmapSetID:347947

[Difficulty]
HPDrainRate:7
CircleSize:4.5
OverallDifficulty:9
ApproachRate:9.5
SliderMultiplier:2.5
SliderTickRate:1

[Events]
//Background and Video events
0,0,"holding_for_so_long_by_nanomortis-d8m6dkm.jpg",0,0
//Break Periods
//Storyboard Layer 0 (Background)
//Storyboard Layer 1 (Fail)
//Storyboard Layer 2 (Pass)
//Storyboard Layer 3 (Foreground)
//Storyboard Sound Samples

[TimingPoints]
4685,697.674418604651,4,2,1,85,1,0
27010,-100,4,2,1,25,0,0
60498,-86.9565217391304,4,2,1,30,0,0
68871,-86.9565217391304,4,2,1,40,0,0
69568,-86.9565217391304,4,2,1,45,0,0
70266,-86.9565217391304,4,2,1,40,0,0
70964,-86.9565217391304,4,2,1,55,0,0
71138,-86.9565217391304,4,1,1,50,0,0
71225,-86.9565217391304,4,1,1,40,0,0
71312,-86.9565217391304,4,1,1,50,0,0
71400,-86.9565217391304,4,1,1,60,0,0
71487,-86.9565217391304,4,1,1,70,0,0
71661,-62.5,4,2,1,85,0,0
93289,-62.5,4,2,1,65,0,0
93464,-62.5,4,2,1,60,0,0
93638,-62.5,4,2,1,55,0,0
93725,-62.5,4,2,1,45,0,0
93812,-62.5,4,2,1,35,0,0
93900,-62.5,4,2,1,25,0,0
93987,-55.5555555555556,4,2,1,85,0,1
105062,-55.5555555555556,4,2,1,60,0,1
105150,-55.5555555555556,4,2,1,85,0,1
115440,-55.5555555555556,4,2,1,60,0,1
115528,-55.5555555555556,4,2,1,100,0,1
115615,-62.5,4,2,1,85,0,0
116312,-62.5,4,2,1,100,0,0

[Colours]
Combo1 : 230,176,96
Combo2 : 240,119,113

[HitObjects]
128,335,27010,5,0,0:0:0:0:
128,335,27359,2,0,B|192:349|192:349|265:334,1,125
398,218,28057,1,0,0:0:0:0:
398,218,28231,2,0,B|331:208|331:208|251:223,1,125
49,200,29103,1,0,0:0:0:0:
71,112,29278,1,0,0:0:0:0:
92,24,29452,1,0,0:0:0:0:
149,94,29626,1,0,0:0:0:0:
207,162,29801,6,0,P|261:174|321:130,1,125
316,137,30324,1,0,0:0:0:0:
149,94,30673,1,0,0:0:0:0:
398,160,31022,1,0,0:0:0:0:
398,160,31196,2,0,B|413:222|413:222|388:287,1,125
206,255,31719,2,0,P|229:221|321:227,1,125
288,328,32243,1,0,0:0:0:0:
135,182,32591,5,0,0:0:0:0:
135,182,33289,5,0,0:0:0:0:
214,141,33464,1,0,0:0:0:0:
292,187,33638,1,0,0:0:0:0:
290,99,33812,1,0,0:0:0:0:
214,52,33987,2,0,B|150:40|150:40|65:64,1,125
38,148,34510,2,0,B|56:214|56:214|41:280,1,125
212,230,35033,1,0,0:0:0:0:
228,249,35382,5,0,0:0:0:0:
247,272,36080,1,0,0:0:0:0:
267,298,36778,1,0,0:0:0:0:
285,324,37475,1,0,0:0:0:0:
305,351,38173,5,0,0:0:0:0:
447,242,38522,2,0,P|365:240|343:206,1,125
414,61,39219,1,0,0:0:0:0:
414,61,39394,2,0,B|425:130|425:130|406:189,2,125
230,20,40440,1,0,0:0:0:0:
241,113,40615,1,0,0:0:0:0:
252,205,40789,1,0,0:0:0:0:
165,168,40964,6,0,P|106:155|48:200,1,125
42,313,41487,2,0,P|88:311|118:230,1,125
122,247,42010,1,0,0:0:0:0:
20,63,42359,1,0,0:0:0:0:
32,89,43057,1,0,0:0:0:0:
218,30,43405,1,0,0:0:0:0:
232,122,43580,1,0,0:0:0:0:
246,214,43754,5,0,0:0:0:0:
267,298,43929,6,0,L|341:303,1,62.5
232,122,44452,2,0,L|107:133,1,125
306,64,44975,2,0,B|373:22|415:114|486:54,1,187.5
375,136,45673,2,0,P|455:152|510:123,1,125
448,275,46196,1,0,0:0:0:0:
278,216,46545,5,0,0:0:0:0:
286,185,47243,1,0,0:0:0:0:
294,154,47940,1,0,0:0:0:0:
302,123,48638,1,0,0:0:0:0:
188,186,48812,1,0,0:0:0:0:
107,87,48987,1,0,0:0:0:0:
240,251,49161,1,0,0:0:0:0:
350,23,49336,6,0,B|413:10|413:10|493:33,1,125
410,124,49859,1,0,0:0:0:0:
351,221,50033,2,0,B|409:237|409:237|472:224,1,125
410,124,50557,1,0,0:0:0:0:
291,165,50731,2,0,P|267:213|308:291,1,125
291,165,51254,1,0,0:0:0:0:
168,116,51429,2,0,P|111:102|44:139,1,125
126,260,51952,1,0,0:0:0:0:
255,87,52126,6,0,P|235:51|140:36,1,125
148,186,52650,1,0,0:0:0:0:
291,165,52824,2,0,L|367:155,1,62.5
242,287,53173,2,0,L|180:295,1,62.5
321,235,53522,2,0,P|338:284|302:360,1,125
392,182,54045,1,0,0:0:0:0:
259,74,54219,2,0,P|208:57|127:88,1,125
201,191,54743,1,0,0:0:0:0:
139,306,54917,6,0,P|198:326|258:309,1,125
320,169,55440,1,0,0:0:0:0:
417,258,55615,2,0,L|488:261,1,62.5
320,306,55964,2,0,L|251:310,1,62.5
266,111,56312,2,0,P|323:90|379:116,1,125
228,187,56836,2,0,P|191:149|205:61,1,125
303,37,57359,1,0,0:0:0:0:
317,180,57533,1,0,0:0:0:0:
400,98,57708,6,0,L|470:88,1,62.5
441,186,58057,2,0,L|311:179,1,125
101,252,58929,1,0,0:0:0:0:
101,252,59103,2,0,P|163:280|228:251,1,125
88,175,59626,2,0,P|45:197|26:273,1,125
162,200,60150,2,0,L|176:134,1,62.5
274,7,60498,6,0,L|287:157,1,143.750002741814
439,46,61196,1,0,0:0:0:0:
439,46,61371,2,0,B|457:78|457:78|501:98,1,71.8750013709069
465,203,61719,1,0,0:0:0:0:
445,311,61894,2,0,B|395:295|395:295|297:316,1,143.750002741814
253,234,62417,2,0,B|306:246|306:246|421:220,1,143.750002741814
437,128,62940,2,0,L|356:146,1,71.8750013709069
250,91,63289,6,0,L|334:77,1,71.8750013709069
194,144,63638,2,0,P|174:110|181:57,1,71.8750013709069
134,217,63987,2,0,P|121:267|86:294,1,71.8750013709069
233,228,64336,1,0,0:0:0:0:
233,228,64510,2,0,P|320:237|365:182,1,143.750002741814
297,96,65033,2,0,P|282:151|296:185,1,71.8750013709069
380,83,65382,1,0,0:0:0:0:
380,83,65557,2,0,P|392:43|382:4,1,71.8750013709069
213,107,65905,1,0,0:0:0:0:
213,107,65993,1,0,0:0:0:0:
213,107,66080,5,0,0:0:0:0:
297,96,66254,1,0,0:0:0:0:
99,122,66429,1,0,0:0:0:0:
245,32,66603,1,0,0:0:0:0:
245,32,66690,1,0,0:0:0:0:
245,32,66778,1,0,0:0:0:0:
155,229,66953,1,0,0:0:0:0:
63,55,67127,1,0,0:0:0:0:
213,107,67301,1,0,0:0:0:0:
213,107,67388,1,0,0:0:0:0:
213,107,67475,5,0,0:0:0:0:
122,309,67650,1,0,0:0:0:0:
278,235,67824,1,0,0:0:0:0:
65,235,67998,1,0,0:0:0:0:
65,235,68086,1,0,0:0:0:0:
65,235,68173,1,0,0:0:0:0:
215,184,68347,1,0,0:0:0:0:
139,84,68522,1,0,0:0:0:0:
140,208,68696,1,0,0:0:0:0:
290,157,68871,6,0,L|320:125,3,35.9375006854534
400,205,69219,2,0,L|438:244,3,35.9375006854534
369,81,69568,1,0,0:0:0:0:
337,63,69655,1,0,0:0:0:0:
303,54,69742,1,0,0:0:0:0:
267,56,69829,1,0,0:0:0:0:
234,70,69916,1,0,0:0:0:0:
208,95,70004,1,0,0:0:0:0:
185,122,70091,1,0,0:0:0:0:
156,142,70178,1,0,0:0:0:0:
120,143,70265,5,0,0:0:0:0:
91,123,70352,1,0,0:0:0:0:
77,90,70440,1,0,0:0:0:0:
84,56,70527,1,0,0:0:0:0:
109,30,70614,1,0,0:0:0:0:
143,22,70701,1,0,0:0:0:0:
176,35,70788,1,0,0:0:0:0:
198,63,70876,1,0,0:0:0:0:
208,95,70963,5,0,0:0:0:0:
220,129,71050,1,0,0:0:0:0:
248,160,71138,1,0,0:0:0:0:
282,195,71225,1,0,0:0:0:0:
330,207,71312,1,0,0:0:0:0:
378,193,71399,1,0,0:0:0:0:
411,156,71486,1,0,0:0:0:0:
421,108,71574,1,0,0:0:0:0:
412,61,71661,6,0,P|412:132|515:169,1,150,4|2,1:0|0:0,0:0:0:0:
471,174,72010,1,0,1:0:0:0:
325,108,72185,1,2,0:0:0:0:
194,284,72360,1,8,0:0:0:0:
151,309,72447,1,0,0:0:0:0:
102,310,72534,1,0,0:0:0:0:
58,286,72621,1,0,0:0:0:0:
32,245,72708,1,0,0:0:0:0:
202,147,72883,1,8,0:0:0:0:
257,147,72970,1,0,0:0:0:0:
297,175,73057,5,0,0:0:0:0:
318,220,73144,1,0,0:0:0:0:
316,269,73231,1,0,0:0:0:0:
123,213,73406,1,8,0:0:0:0:
103,166,73493,1,0,0:0:0:0:
107,117,73580,1,0,0:0:0:0:
134,75,73667,1,0,0:0:0:0:
176,51,73754,1,0,0:0:0:0:
226,236,73930,1,8,0:0:0:0:
220,284,74017,1,0,0:0:0:0:
194,325,74104,1,0,0:0:0:0:
149,348,74191,1,0,0:0:0:0:
100,348,74278,1,0,0:0:0:0:
316,269,74452,6,0,P|419:269|453:329,1,150,0|2,1:0|0:0,0:0:0:0:
444,299,74801,1,0,1:0:0:0:
404,151,74975,1,2,0:0:0:0:
253,70,75150,1,8,0:0:0:0:
274,25,75237,1,0,0:0:0:0:
316,0,75324,1,0,0:0:0:0:
366,4,75411,1,0,0:0:0:0:
404,34,75498,1,0,0:0:0:0:
175,153,75673,1,8,0:0:0:0:
125,157,75760,1,0,0:0:0:0:
81,135,75847,5,0,0:0:0:0:
56,92,75934,1,0,0:0:0:0:
56,43,76021,1,0,0:0:0:0:
266,184,76196,1,8,0:0:0:0:
260,221,76283,1,0,0:0:0:0:
255,258,76370,1,0,0:0:0:0:
250,295,76457,1,0,0:0:0:0:
245,332,76544,1,0,0:0:0:0:
415,199,76719,1,8,0:0:0:0:
411,161,76806,1,0,0:0:0:0:
407,124,76893,1,0,0:0:0:0:
403,87,76980,1,0,0:0:0:0:
399,49,77067,1,0,0:0:0:0:
344,229,77243,6,0,P|388:274|483:225,1,150,0|2,1:0|0:0,0:0:0:0:
465,255,77591,1,0,1:0:0:0:
245,332,77766,1,2,0:0:0:0:
332,106,77940,1,8,0:0:0:0:
317,58,78027,1,0,0:0:0:0:
280,24,78114,1,0,0:0:0:0:
231,16,78201,1,0,0:0:0:0:
185,33,78288,1,0,0:0:0:0:
162,228,78464,1,8,0:0:0:0:
210,222,78551,1,0,0:0:0:0:
248,190,78638,5,0,0:0:0:0:
261,143,78725,1,0,0:0:0:0:
245,96,78812,1,0,0:0:0:0:
73,210,78987,1,8,0:0:0:0:
78,259,79074,1,0,0:0:0:0:
108,300,79161,1,0,0:0:0:0:
154,317,79248,1,0,0:0:0:0:
203,309,79335,1,0,0:0:0:0:
154,134,79510,1,8,0:0:0:0:
106,117,79597,1,0,0:0:0:0:
58,101,79684,1,2,0:0:0:0:
245,20,79859,1,0,0:0:0:0:
379,207,80033,5,0,1:0:0:0:
162,228,80208,1,0,0:0:0:0:
162,228,80295,1,2,0:0:0:0:
162,228,80382,1,0,1:0:0:0:
291,83,80557,1,2,0:0:0:0:
328,284,80731,1,8,0:0:0:0:
372,305,80818,1,0,0:0:0:0:
421,297,80905,1,0,0:0:0:0:
457,264,80992,1,0,0:0:0:0:
468,216,81079,1,0,0:0:0:0:
273,208,81254,1,8,0:0:0:0:
242,246,81341,1,0,0:0:0:0:
236,295,81428,5,0,0:0:0:0:
256,341,81515,1,0,0:0:0:0:
297,369,81602,1,0,0:0:0:0:
377,195,81778,1,8,0:0:0:0:
374,157,81865,1,0,0:0:0:0:
371,120,81952,1,0,0:0:0:0:
368,82,82039,1,0,0:0:0:0:
365,45,82126,1,0,0:0:0:0:
212,149,82301,2,0,P|155:160|88:133,1,100,8|0,0:0|0:0,0:0:0:0:
19,264,82650,1,2,0:0:0:0:
19,264,82737,1,2,0:0:0:0:
19,264,82824,6,0,P|92:246|172:275,1,150,2|2,1:2|0:0,0:0:0:0:
161,267,83173,1,0,1:0:0:0:
84,380,83347,1,2,0:0:0:0:
240,234,83522,1,8,0:0:0:0:
284,211,83609,1,0,0:0:0:0:
333,214,83696,1,0,0:0:0:0:
375,239,83783,1,0,0:0:0:0:
400,282,83870,1,0,0:0:0:0:
350,139,84045,1,8,0:0:0:0:
351,89,84132,1,0,0:0:0:0:
379,48,84219,5,0,0:0:0:0:
423,27,84306,1,0,0:0:0:0:
472,32,84393,1,0,0:0:0:0:
270,131,84568,1,8,0:0:0:0:
220,136,84655,1,0,0:0:0:0:
175,117,84742,1,0,0:0:0:0:
144,79,84829,1,0,0:0:0:0:
135,30,84917,1,0,0:0:0:0:
204,218,85091,1,8,0:0:0:0:
203,268,85178,1,0,0:0:0:0:
175,309,85265,1,0,0:0:0:0:
131,330,85352,1,0,0:0:0:0:
82,325,85439,1,0,0:0:0:0:
283,253,85615,6,0,P|333:252|395:257,1,100,0|2,1:0|0:0,0:0:0:0:
210,73,85964,2,0,P|158:73|110:69,1,100,0|2,1:0|0:0,0:0:0:0:
252,179,86312,1,8,0:0:0:0:
295,154,86399,1,0,0:0:0:0:
322,113,86486,1,0,0:0:0:0:
329,64,86573,1,0,0:0:0:0:
313,17,86660,1,0,0:0:0:0:
159,170,86836,1,8,0:0:0:0:
162,207,86923,1,0,0:0:0:0:
165,244,87010,5,0,0:0:0:0:
169,282,87097,1,0,0:0:0:0:
172,319,87184,1,0,0:0:0:0:
392,207,87359,1,8,0:0:0:0:
395,169,87446,1,0,0:0:0:0:
398,132,87533,1,0,0:0:0:0:
402,94,87620,1,0,0:0:0:0:
405,57,87707,1,0,0:0:0:0:
275,188,87882,5,8,0:0:0:0:
279,226,87969,1,0,0:0:0:0:
282,263,88056,1,2,0:0:0:0:
155,130,88231,1,0,0:0:0:0:
409,17,88405,5,0,1:0:0:0:
322,126,88580,1,0,0:0:0:0:
322,126,88667,1,2,0:0:0:0:
322,126,88754,1,0,1:0:0:0:
148,54,88929,1,2,0:0:0:0:
209,251,89103,1,8,0:0:0:0:
202,299,89190,1,0,0:0:0:0:
169,336,89278,1,0,0:0:0:0:
121,347,89364,1,0,0:0:0:0:
75,329,89451,1,0,0:0:0:0:
265,196,89626,1,8,0:0:0:0:
303,226,89713,1,0,0:0:0:0:
318,273,89800,5,0,0:0:0:0:
304,320,89887,1,0,0:0:0:0:
265,351,89974,1,0,0:0:0:0:
243,121,90150,1,8,0:0:0:0:
288,103,90237,1,0,0:0:0:0:
336,113,90324,1,0,0:0:0:0:
370,149,90411,1,0,0:0:0:0:
377,198,90498,1,0,0:0:0:0:
165,102,90673,1,8,0:0:0:0:
148,54,90760,1,0,0:0:0:0:
134,6,90847,1,2,0:0:0:0:
0,197,91022,1,2,0:0:0:0:
188,178,91196,5,0,1:0:0:0:
236,11,91371,1,0,0:0:0:0:
236,11,91458,1,2,0:0:0:0:
236,11,91545,1,0,1:0:0:0:
87,134,91719,1,2,0:0:0:0:
303,223,91894,1,8,0:0:0:0:
351,232,91981,1,0,0:0:0:0:
396,212,92068,1,0,0:0:0:0:
422,170,92155,1,0,0:0:0:0:
420,121,92242,1,0,0:0:0:0:
188,178,92417,1,8,0:0:0:0:
170,224,92504,1,0,0:0:0:0:
176,273,92591,5,0,0:0:0:0:
204,314,92678,1,0,0:0:0:0:
248,337,92765,1,0,0:0:0:0:
289,109,92940,1,10,0:0:0:0:
272,62,93027,1,2,0:0:0:0:
232,33,93114,1,2,0:0:0:0:
183,31,93201,1,2,0:0:0:0:
141,58,93289,2,0,L|106:138,1,50,0|0,1:0|1:0,0:0:0:0:
176,273,93464,2,0,L|196:227,1,50,0|0,1:0|1:0,0:0:0:0:
289,109,93638,1,0,1:0:0:0:
306,156,93725,1,0,1:0:0:0:
346,185,93812,1,0,1:0:0:0:
395,187,93899,1,0,1:0:0:0:
437,160,93987,6,0,B|448:101|448:101|428:30,1,112.499996566773,4|0,1:0|0:0,0:0:0:0:
388,273,94336,2,0,P|453:288|508:259,1,112.499996566773,0|2,1:0|0:0,0:0:0:0:
217,174,94684,1,8,0:0:0:0:
174,177,94771,1,0,0:0:0:0:
132,180,94858,1,0,0:0:0:0:
90,184,94945,1,0,0:0:0:0:
48,187,95032,1,0,0:0:0:0:
327,213,95208,1,8,0:0:0:0:
344,160,95295,1,0,0:0:0:0:
330,106,95382,5,0,0:0:0:0:
289,68,95469,1,0,0:0:0:0:
235,58,95556,1,0,0:0:0:0:
228,286,95731,1,8,0:0:0:0:
260,331,95818,1,0,0:0:0:0:
311,352,95905,1,0,0:0:0:0:
366,345,95992,1,0,0:0:0:0:
410,310,96079,1,0,0:0:0:0:
217,174,96254,2,0,L|154:178,1,56.2499982833863,8|0,0:0|0:0,0:0:0:0:
28,280,96429,2,0,B|146:292,1,112.499996566773,2|10,0:0|0:0,0:0:0:0:
235,58,96778,5,0,1:0:0:0:
327,213,96952,1,0,0:0:0:0:
327,213,97039,1,2,0:0:0:0:
327,213,97126,1,0,1:0:0:0:
99,216,97301,1,2,0:0:0:0:
283,137,97475,1,8,0:0:0:0:
337,126,97562,1,0,0:0:0:0:
386,150,97649,1,0,0:0:0:0:
411,199,97736,1,0,0:0:0:0:
402,253,97823,1,0,0:0:0:0:
193,176,97998,1,8,0:0:0:0:
189,133,98085,1,0,0:0:0:0:
185,91,98172,5,0,0:0:0:0:
182,49,98259,1,0,0:0:0:0:
178,7,98346,1,0,0:0:0:0:
280,240,98522,1,8,0:0:0:0:
236,275,98609,1,0,0:0:0:0:
181,282,98696,1,0,0:0:0:0:
130,260,98783,1,0,0:0:0:0:
98,215,98870,1,0,0:0:0:0:
263,34,99045,2,0,L|268:100,1,56.2499982833863,8|0,0:0|0:0,0:0:0:0:
440,154,99219,2,0,L|435:97,1,56.2499982833863
280,240,99394,2,0,L|285:306,1,56.2499982833863,8|0,0:0|0:0,0:0:0:0:
98,215,99568,6,0,B|80:176|80:176|89:79,1,112.499996566773,0|0,1:0|0:0,0:0:0:0:
22,13,99830,2,0,L|13:78,1,56.2499982833863,2|0,0:0|1:0,1:0:0:0:
178,7,100091,1,2,0:0:0:0:
342,186,100266,1,8,0:0:0:0:
397,188,100353,1,0,0:0:0:0:
440,154,100440,1,0,0:0:0:0:
450,100,100527,1,0,0:0:0:0:
423,52,100615,2,0,L|408:116,1,56.2499982833863
208,136,100789,2,0,L|195:80,1,56.2499982833863,8|0,0:0|0:0,0:0:0:0:
20,238,100964,5,0,0:0:0:0:
2,290,101051,1,0,0:0:0:0:
23,341,101138,1,0,0:0:0:0:
71,366,101225,1,0,0:0:0:0:
125,354,101312,2,0,L|146:288,1,56.2499982833863,8|0,0:0|0:0,0:0:0:0:
272,233,101487,1,0,0:0:0:0:
257,287,101574,1,0,0:0:0:0:
242,341,101661,1,0,0:0:0:0:
390,222,101836,1,8,0:0:0:0:
375,168,101923,1,0,0:0:0:0:
360,114,102010,1,2,0:0:0:0:
176,263,102184,1,8,0:0:0:0:
423,327,102359,5,0,1:0:0:0:
509,144,102533,1,0,0:0:0:0:
509,144,102621,1,2,0:0:0:0:
509,144,102708,1,0,1:0:0:0:
336,308,102882,1,2,0:0:0:0:
174,158,103057,1,8,0:0:0:0:
119,168,103144,1,0,0:0:0:0:
78,206,103231,1,0,0:0:0:0:
64,259,103318,1,0,0:0:0:0:
79,313,103405,1,0,0:0:0:0:
310,199,103580,1,8,0:0:0:0:
310,199,103667,1,0,0:0:0:0:
310,199,103754,5,0,0:0:0:0:
322,144,103841,1,0,0:0:0:0:
307,90,103928,1,0,0:0:0:0:
270,50,104015,1,0,0:0:0:0:
217,31,104103,2,0,L|147:38,1,56.2499982833863,8|0,0:0|0:0,0:0:0:0:
388,96,104278,2,0,L|444:90,1,56.2499982833863
264,260,104452,2,0,L|193:266,1,56.2499982833863
386,187,104626,1,8,0:0:0:0:
425,225,104713,1,0,0:0:0:0:
440,279,104800,1,0,0:0:0:0:
427,333,104887,1,0,0:0:0:0:
388,373,104974,1,8,1:2:0:0:
308,365,105062,1,0,1:0:0:0:
231,353,105150,6,0,B|176:346|176:346|127:361|127:361|38:333,1,168.749994850159,4|2,0:1|0:0,0:0:0:0:
23,228,105498,2,0,B|61:215|61:215|130:237,1,112.499996566773,0|2,1:0|0:0,1:0:0:0:
351,277,105847,1,8,0:0:0:0:
307,242,105934,1,0,0:0:0:0:
291,189,106021,1,0,0:0:0:0:
306,135,106108,1,0,0:0:0:0:
348,99,106195,1,0,0:0:0:0:
228,39,106371,1,8,0:0:0:0:
220,95,106458,1,0,0:0:0:0:
182,135,106545,5,0,0:0:0:0:
128,149,106632,1,0,0:0:0:0:
76,131,106720,1,0,0:0:0:0:
85,259,106894,1,8,0:0:0:0:
137,237,106981,1,0,0:0:0:0:
191,250,107068,1,0,0:0:0:0:
230,290,107155,1,0,0:0:0:0:
240,344,107243,1,0,0:0:0:0:
382,188,107417,2,0,L|460:175,1,56.2499982833863,8|0,0:0|0:0,0:0:0:0:
220,95,107591,2,0,L|164:85,1,56.2499982833863,8|0,0:0|0:0,0:0:0:0:
386,26,107766,2,0,L|464:13,1,56.2499982833863,8|0,0:0|0:0,0:0:0:0:
301,143,107940,6,0,P|294:217|352:272,1,112.499996566773,0|2,1:0|0:0,0:0:0:0:
125,341,108289,2,0,P|147:290|136:236,1,112.499996566773,0|2,1:0|0:0,0:0:0:0:
60,8,108638,1,8,0:0:0:0:
73,61,108725,1,0,0:0:0:0:
113,100,108812,1,0,0:0:0:0:
167,112,108899,1,0,0:0:0:0:
220,95,108986,1,0,0:0:0:0:
27,188,109161,1,8,0:0:0:0:
81,197,109248,1,0,0:0:0:0:
123,234,109335,5,0,0:0:0:0:
139,287,109422,1,0,0:0:0:0:
125,341,109509,1,0,0:0:0:0:
278,195,109684,1,8,0:0:0:0:
329,173,109771,1,0,0:0:0:0:
384,176,109858,1,0,0:0:0:0:
432,204,109945,1,0,0:0:0:0:
463,251,110032,1,0,0:0:0:0:
315,78,110208,2,0,L|305:5,1,56.2499982833863,8|0,0:0|0:0,0:0:0:0:
199,217,110382,2,0,L|206:272,1,56.2499982833863,8|0,0:0|0:0,0:0:0:0:
14,115,110557,2,0,L|6:59,1,56.2499982833863,8|0,0:0|0:0,0:0:0:0:
103,165,110731,5,0,1:0:0:0:
24,355,110905,1,0,0:0:0:0:
24,355,110993,1,2,0:0:0:0:
24,355,111080,1,0,1:0:0:0:
299,264,111254,1,0,0:0:0:0:
64,255,111429,1,8,0:0:0:0:
20,221,111516,1,0,0:0:0:0:
1,169,111603,1,0,0:0:0:0:
14,115,111690,1,0,0:0:0:0:
53,75,111777,1,0,0:0:0:0:
339,171,111952,1,8,0:0:0:0:
389,193,112039,1,0,0:0:0:0:
443,182,112126,5,0,0:0:0:0:
482,142,112214,1,0,0:0:0:0:
490,87,112300,1,0,0:0:0:0:
203,118,112475,1,8,0:0:0:0:
206,160,112562,1,0,0:0:0:0:
210,202,112649,1,0,0:0:0:0:
214,244,112736,1,0,0:0:0:0:
218,286,112824,2,0,P|243:304|310:284,1,56.2499982833863
129,137,112998,2,0,P|100:146|80:179,1,56.2499982833863,8|0,0:0|0:0,0:0:0:0:
339,171,113173,2,0,P|366:154|372:116,1,56.2499982833863,8|0,0:0|0:0,0:0:0:0:
211,34,113347,1,8,0:0:0:0:
207,76,113434,1,0,0:0:0:0:
203,118,113522,5,0,1:0:0:0:
32,39,113696,1,0,0:0:0:0:
32,39,113783,1,2,0:0:0:0:
32,39,113871,1,0,1:0:0:0:
304,28,114045,1,2,0:0:0:0:
248,280,114219,1,8,0:0:0:0:
291,314,114306,1,0,0:0:0:0:
346,321,114393,1,0,0:0:0:0:
397,298,114480,1,0,0:0:0:0:
430,253,114567,1,0,0:0:0:0:
198,161,114743,1,8,0:0:0:0:
149,188,114830,1,0,0:0:0:0:
118,234,114917,5,0,0:0:0:0:
113,290,115004,1,0,0:0:0:0:
135,341,115091,1,0,0:0:0:0:
328,177,115266,1,8,0:0:0:0:
338,121,115353,1,0,0:0:0:0:
349,66,115440,2,0,L|421:50,1,56.2499982833863,0|0,1:0|1:0,0:0:0:0:
93,59,115615,2,0,L|19:46,1,50,0|0,1:0|0:0,1:0:0:0:
265,311,115789,1,8,0:0:0:0:
483,103,115964,1,2,0:0:0:0:
192,68,116138,1,8,0:0:0:0:
495,357,116312,5,4,0:1:0:0:
