osu file format v9

[General]
AudioFilename: Renai Circulation -Instrumental-.mp3
AudioLeadIn: 0
PreviewTime: 57706
Countdown: 0
SampleSet: Soft
StackLeniency: 0.7
Mode: 0
LetterboxInBreaks: 1

[Editor]
DistanceSpacing: 1
BeatDivisor: 4
GridSize: 4

[Metadata]
Title:Renai Circulation (Instrumental)
Artist:Kousaki Satoru
Creator:[Ranger]
Version:Normal
Source:Bakemonogatari
Tags:Dark Fang Dark Layer

[Difficulty]
HPDrainRate:3
CircleSize:3
OverallDifficulty:3
ApproachRate:3
SliderMultiplier:1.4
SliderTickRate:1

[Events]
//Background and Video events
0,0,"BG.jpg"
//Break Periods
2,73406,80266
2,105405,105766
2,153906,160266
2,187906,202266
//Storyboard Layer 0 (Background)
//Storyboard Layer 1 (Fail)
//Storyboard Layer 2 (Pass)
//Storyboard Layer 3 (Foreground)
//Storyboard Sound Samples
//Background Colour Transformations
3,100,163,162,255

[TimingPoints]
1706,500,4,2,1,40,1,0
9706,-100,4,2,1,70,0,0
41706,-100,4,2,1,60,0,0
57706,-100,4,2,1,80,0,1
73206,-100,4,2,1,70,0,0
107706,-100,4,2,1,60,0,0
137706,-100,4,2,1,80,0,1
153706,-100,4,2,1,60,0,0
185706,-100,4,2,1,10,0,0
203706,-100,4,2,1,80,0,1
219206,-100,4,2,1,80,0,0
219706,-100,4,2,1,90,0,1
235706,-100,4,2,1,60,0,0

[Colours]
Combo1 : 230,153,227
Combo2 : 34,232,23
Combo3 : 248,251,111
Combo4 : 55,206,194

[HitObjects]
132,88,1706,2,0,B|172:16|340:16|380:88,3,280,0|2|0|2
380,296,5706,2,0,B|340:368|172:368|132:296,3,280,0|2|0|2
168,88,9706,5,4
80,192,10206,2,0,B|128:248,1,70,8|0
168,296,10706,2,0,B|248:288|288:224,1,140,0|8
416,192,11706,5,0
352,72,12206,2,0,B|296:120,1,70,8|0
248,160,12706,2,0,B|176:152|136:80,1,140,0|8
56,192,13706,6,0,B|56:120,2,70,2|0|8
176,256,14706,2,0,B|176:328,2,70,2|0|8
312,256,15706,5,2
440,192,16206,1,8
312,128,16706,1,0
312,128,16956,1,8
312,128,17206,1,8
192,56,17706,5,4
120,56,17956,1,0
48,56,18206,1,8
120,176,18706,2,0,B|228:268,1,140,0|8
360,304,19706,5,0
360,232,19956,1,0
360,160,20206,1,8
256,64,20706,2,0,B|136:144,1,140,0|8
48,248,21706,6,0,B|64:288|96:296,2,70,0|0|8
184,296,22706,2,0,B|215:288|231:248,2,70,0|0|8
256,168,23706,2,0,B|280:120|344:104|440:168|456:224|408:264,1,280,0|0
296,348,25206,1,8
296,348,25706,6,0,B|152:349,1,140,4|8
116,216,26706,2,0,B|116:144,1,70
116,76,27206,1,8
256,52,27706,6,0,B|400:52,1,140,0|8
472,168,28706,2,0,B|416:208,1,70,0|8
360,248,29206,1,8
256,336,29706,6,0,B|208:264|256:200,1,140,0|8
360,120,30706,2,0,B|296:80|228:120,1,140,0|8
104,192,31706,5,0
104,264,31956,1,0
104,336,32206,1,8
240,336,32706,1,0
296,288,32956,1,8
352,240,33206,1,8
376,104,33706,6,0,B|448:120|488:192,2,140,0|8|0
256,32,35206,1,8
136,104,35706,6,0,B|64:120|24:192,2,140,0|8|0
256,32,37206,1,8
336,144,37706,6,0,B|392:184|392:352|256:352,1,280
256,212,39206,1,8
256,72,39706,2,0,B|136:79|112:231|176:279,1,280
288,192,41206,1,8
352,312,41706,6,0,B|424:288|448:216,1,140,4|8
448,80,42706,1,0
448,80,43206,1,8
328,152,43706,6,0,B|256:184|192:152,1,140,0|8
72,80,44706,1,0
72,80,45206,1,8
72,216,45706,5,0
136,248,45956,1,0
200,280,46206,2,0,B|240:304|296:288|320:240,2,140,8|0|8
256,152,47706,5,0
312,112,47956,1,0
368,72,48206,2,0,B|448:80|480:152,2,140,8|0|8
404,208,49706,6,0,B|460:248,2,70,4|0|8
288,288,50706,2,0,B|240:344,2,70,0|0|8
184,192,51706,6,0,B|128:152,2,70,0|0|8
288,96,52706,2,0,B|344:48,2,70,0|0|8
324,232,53706,5,0
256,356,54206,1,8
188,232,54706,1,0
120,356,55206,1,8
256,192,55706,12,8,57206
256,96,57706,5,4
360,192,58206,1,8
256,288,58706,1,0
152,192,59206,1,8
52,92,59706,6,0,B|256:12|468:92,1,420,0|8
448,228,61706,5,4
308,212,62206,1,8
172,240,62706,1,0
36,212,63206,1,8
120,104,63706,6,0,B|256:72,1,140,0|8
384,128,64706,2,0,B|248:168,1,140,0|8
256,304,65706,6,0,B|184:336|120:304,1,140,4|8
40,192,66706,1,0
112,72,67206,2,0,B|264:72,1,140,8|0
392,72,68206,2,0,B|448:136|400:200,2,140,8|0|8
332,200,69706,5,0
256,320,70206,1,8
180,200,70706,1,0
256,88,71206,1,8
256,192,71706,12,0,73206
48,192,81706,6,0,B|80:144|136:144|168:196,1,140,0|8
256,296,82706,2,0,B|256:364,2,70,0|8|8
384,248,83706,6,0,B|432:224|432:160|384:136,1,140,0|8
256,80,84706,2,0,B|256:4,2,70,0|8|8
176,192,85706,5,0
176,192,86206,1,8
328,192,86706,1,0
328,192,87206,1,8
256,320,87706,6,0,B|160:192|256:56,1,280
252,60,89206,1,8
392,88,89706,5,4
488,192,90206,2,0,B|432:232,1,70,8|0
376,280,90706,2,0,B|320:320|240:280,1,140,0|8
120,216,91706,5,0
40,104,92206,2,0,B|104:72,1,70,8|0
168,40,92706,2,0,B|232:24|304:64,1,140,0|8
360,192,93706,6,0,B|360:264,2,70,0|0|8
224,192,94706,2,0,B|224:120,2,70,0|0|8
88,192,95706,6,0,B|160:312|328:328,1,280
384,292,96956,1,8
384,292,97206,1,8
440,160,97706,5,4
392,112,97956,1,0
344,64,98206,1,8
288,192,98706,2,0,B|264:256|176:272,1,140,2|8
64,192,99706,5,0
104,136,99956,1,0
148,80,100206,1,8
284,40,100706,2,0,B|356:64|380:144,1,140,2|8
424,272,101706,6,0,B|352:272,1,70
304,320,102206,2,0,B|232:320,1,70,8|0
164,320,102706,1,0
108,192,103206,1,8
248,192,103706,2,0,B|376:136|432:92|348:-28|256:56|280:144|432:192,1,420,0|8
256,88,107206,5,8
256,88,107706,6,0,B|192:120,1,70
132,152,108206,1,8
72,272,108706,2,0,B|136:312|208:272,1,140,0|8
340,244,109706,6,0,B|404:212,1,70,0|0
460,176,110206,1,8
352,88,110706,2,0,B|288:56|216:88,1,140,0|8
128,192,111706,6,0,B|192:224|216:296|216:296|240:224|304:192,1,280
392,84,113206,1,8
256,48,113706,6,0,B|184:48,1,70
120,48,114206,1,8
24,144,114706,2,0,B|96:144,1,70
160,144,115206,1,8
288,192,115706,5,0
360,192,115956,1,0
432,192,116206,1,8
328,280,116706,1,0
256,280,116956,1,8
184,280,117206,1,8
80,192,117706,6,0,B|216:160,1,140,0|8
352,136,118706,1,0
296,88,118956,2,0,B|224:80,1,70,0|8
88,56,119706,6,0,B|48:192,1,140,0|8
96,320,120706,1,0
144,272,120956,2,0,B|216:248,1,70,0|8
296,136,121706,6,0,B|344:160|344:224|296:248,3,140,4|8|0|8
216,136,123706,2,0,B|168:160|168:224|216:248,3,140,0|8|0|8
344,192,125706,6,0,B|384:120|320:64,1,140,0|8
184,96,126706,2,0,B|112:96,2,70,0|0|8
80,192,127706,2,0,B|48:264|128:312,1,140,0|8
264,288,128706,2,0,B|336:288,2,70,0|8|8
368,192,129706,5,4
464,88,130206,1,8
336,40,130706,2,0,B|272:72,1,70
208,104,131206,1,8
88,176,131706,6,0,B|144:224,1,70
200,264,132206,1,8
320,336,132706,2,0,B|392:320|416:240,1,140,0|8
424,104,133706,6,0,B|344:88|296:144,1,140,0|8
256,280,134706,2,0,B|192:256|160:184,1,140,0|8
256,192,135706,12,8,137206
328,128,137706,5,4
328,268,138206,1,8
188,268,138706,1,0
188,128,139206,1,8
300,44,139706,6,0,B|372:44|372:44|428:84,1,140,0|8
488,208,140706,2,0,B|432:248|432:248|360:248,1,140,0|8
256,344,141706,5,4
128,288,142206,1,8
24,192,142706,1,0
128,96,143206,2,0,B|200:96,1,70,8|0
256,136,143706,6,0,B|328:136,1,70,0|0
396,136,144206,2,0,B|428:200|396:272,2,140,2|0|2
280,64,145706,5,4
216,192,146206,1,8
280,320,146706,1,0
216,192,147206,1,8
128,88,147706,6,0,B|64:120|32:192,1,140,0|8
56,328,148706,2,0,B|128:328,1,70
196,328,149206,1,8
256,200,149706,6,0,B|304:152|200:120|256:72,3,140,4|8|4|8
256,192,151706,12,4,153706
56,120,161706,6,0,B|256:24|464:120,1,420,0|8
456,264,163706,2,0,B|256:360|48:264,1,420,0|8
176,192,165706,6,0,B|320:192,1,140,0|8
408,88,166706,1,0
336,88,166956,1,0
264,88,167206,1,8
128,112,167706,5,0
16,200,168206,1,8
128,288,168706,5,0
200,288,168956,1,0
272,288,169206,1,8
344,288,169456,1,0
400,248,169706,6,0,B|440:192|440:192|400:128,1,140,0|8
352,80,170456,1,0
280,80,170706,2,0,B|280:152,2,70,0|0|8
148,116,171706,6,0,B|84:156,1,70
28,192,172206,1,8
168,216,172706,1,0
240,224,172956,1,0
312,232,173206,1,8
256,112,173706,6,0,B|296:56|296:56|344:112,1,140,0|8
392,160,174456,1,0
440,208,174706,2,0,B|496:264,2,70,0|0|8
344,312,175706,6,0,B|272:296,1,70
280,224,176206,2,0,B|208:208,1,70,8|0
148,176,176706,2,0,B|120:240,1,70,0|0
48,244,177206,2,0,B|28:176,1,70,8|0
88,140,177706,6,0,B|136:84|208:68,1,140,0|8
256,120,178456,1,0
304,68,178706,2,0,B|376:81|426:135,1,140,0|8
316,224,179706,6,0,B|300:264|212:264|196:224,3,140,0|8|0|8
64,192,181706,6,0,B|64:264|120:320,1,140,0|8
184,296,182456,1,0
252,320,182706,2,0,B|305:266|305:194,1,140,0|8
296,48,183706,6,0,B|224:48,1,70
184,104,184206,2,0,B|112:104,1,70,8|0
44,104,184706,2,0,B|44:176,2,70,0|0|8
256,192,185706,12,0,187706
152,192,203706,5,4
256,104,204206,1,8
360,192,204706,1,0
256,280,205206,1,8
128,216,205706,6,0,B|80:160|128:80,1,140,0|8
256,48,206706,2,0,B|328:16|392:48,1,140,0|8
440,176,207706,5,0
360,288,208206,2,0,B|296:320,1,70,8|0
232,336,208706,2,0,B|176:296|152:224,1,140,0|8
136,88,209706,5,0
200,112,209956,1,0
200,112,210206,2,0,B|272:128|304:208,2,140,8|0|8
80,192,211706,5,4
168,304,212206,1,8
256,192,212706,1,0
344,304,213206,1,8
432,192,213706,5,0
432,192,213956,1,0
432,192,214206,2,0,B|312:112,1,140,8|0
200,40,215206,1,8
96,128,215706,6,0,B|56:152|56:224|96:248,3,140,0|8|0|8
256,192,217706,12,0,219206
320,128,219706,5,4
320,264,220206,1,8
184,264,220706,1,0
184,128,221206,1,8
320,128,221706,6,0,B|392:128,2,70,0|0|8
184,128,222706,2,0,B|112:128,2,70,0|0|8
256,248,223706,6,0,B|288:312|368:320,2,140,0|8|0
120,192,225206,2,0,B|80:136|120:56,1,140,8|0
256,40,226206,1,8
372,116,226706,1,0
420,168,226956,1,8
372,220,227206,1,8
256,296,227706,5,4
120,248,228206,1,8
256,200,228706,1,0
120,152,229206,1,8
256,104,229706,6,0,B|400:104,1,140,0|8
456,232,230706,2,0,B|456:304,2,70,0|0|8
336,320,231706,2,0,B|236:292|216:144|280:88,1,280
372,192,233206,1,8
256,192,233706,12,0,235206
128,120,235706,6,0,B|176:60|336:60|384:120,1,280,4|0
384,120,237206,1,8
384,264,237706,6,0,B|336:324|176:324|128:264,1,280
128,264,239206,1,8
120,120,239706,6,0,B|64:80,2,70,0|0|8
256,120,240706,2,0,B|312:80,2,70,0|0|8
256,264,241706,5,0
304,312,241956,1,0
356,264,242206,1,8
480,208,242706,5,0
432,160,242956,1,8
384,208,243206,1,8
256,160,243706,6,0,B|184:128|120:160,1,140,4|8
48,280,244706,2,0,B|112:312|184:280,1,140,0|8
320,264,245706,5,0
320,264,245956,2,0,B|392:264,1,70,0|8
456,144,246706,1,0
456,144,246956,2,8,B|384:144,1,70,0|8
256,88,247706,5,0
184,88,247956,1,0
112,88,248206,1,8
24,192,248706,5,0
96,192,248956,1,0
168,192,249206,1,8
304,192,249706,5,4
