osu file format v9

[General]
AudioFilename: Renai Circulation -Instrumental-.mp3
AudioLeadIn: 0
PreviewTime: 57706
Countdown: 0
SampleSet: Soft
StackLeniency: 0.7
Mode: 0
LetterboxInBreaks: 1

[Editor]
DistanceSpacing: 1.2
BeatDivisor: 4
GridSize: 4

[Metadata]
Title:Renai Circulation (Instrumental)
Artist:Kousaki Satoru
Creator:[Ranger]
Version:Hard
Source:Bakemonogatari
Tags:Dark Fang Dark Layer

[Difficulty]
HPDrainRate:6
CircleSize:4
OverallDifficulty:6
ApproachRate:7
SliderMultiplier:1.6
SliderTickRate:1

[Events]
//Background and Video events
0,0,"BG.jpg"
//Break Periods
2,73406,80806
2,153906,160806
2,187906,194806
//Storyboard Layer 0 (Background)
//Storyboard Layer 1 (Fail)
//Storyboard Layer 2 (Pass)
//Storyboard Layer 3 (Foreground)
//Storyboard Sound Samples
//Background Colour Transformations
3,100,163,162,255

[TimingPoints]
1706,500,4,2,1,40,1,0
9706,-100,4,2,1,70,0,0
41706,-100,4,2,1,60,0,0
57706,-100,4,2,1,80,0,1
73206,-100,4,2,1,70,0,0
105706,-200,4,2,1,30,0,0
107706,-100,4,2,1,60,0,0
137706,-100,4,2,1,80,0,1
153706,-100,4,2,1,60,0,0
185706,-100,4,2,1,10,0,0
195706,-200,4,2,1,30,0,0
202456,-200,4,2,1,5,0,0
202581,-200,4,2,1,30,0,0
203706,-100,4,2,1,80,0,1
219206,-100,4,2,1,80,0,0
219706,-100,4,2,1,90,0,1
235706,-100,4,2,1,60,0,0

[Colours]
Combo1 : 230,153,227
Combo2 : 34,232,23
Combo3 : 248,251,111
Combo4 : 55,206,194

[HitObjects]
256,160,1706,2,0,B|256:80|352:40,1,160,0|2
288,192,2706,2,0,B|368:192|408:288,1,160,0|2
256,224,3706,2,0,B|256:304|160:344,1,160,0|2
224,192,4706,2,0,B|144:192|104:96,1,160,0|2
256,32,5706,6,0,B|336:32,2,80,0|0|2
416,192,6706,2,0,B|416:272,2,80,0|0|2
256,352,7706,2,0,B|176:352,2,80,0|0|2
96,192,8706,2,0,B|96:112,2,80,0|0|2
200,320,9706,6,0,B|240:336|256:368|272:336|316:316,1,120,4|0
348,292,10206,2,0,B|388:292,2,40,8|0|0
296,212,10706,2,0,B|256:188|217:215,2,80,0|0|8
120,136,11706,6,0,B|104:176|72:192|104:208|124:248,1,120,0|0
140,288,12206,2,0,B|108:320,2,40,8|0|0
216,232,12706,2,0,B|256:256|298:230,2,80,0|0|8
400,192,13706,5,0
344,112,13956,1,0
344,112,14081,1,2
296,192,14331,1,0
296,192,14456,1,2
120,192,14706,5,0
168,112,14956,1,0
168,112,15081,1,2
216,192,15331,1,0
216,192,15456,1,2
256,280,15706,5,2
256,280,15831,1,0
344,320,16081,2,0,B|384:320|416:280|400:232,1,120,2|0
400,136,16706,1,0
256,40,16956,5,8
112,136,17206,1,8
208,304,17706,6,0,B|264:296|288:264|256:232|224:264|240:296|304:304,2,160,4|8|0
112,304,18956,1,0
112,264,19081,1,2
112,224,19206,1,8
112,184,19331,1,0
112,144,19456,1,2
208,80,19706,6,0,B|264:88|288:120|256:152|224:120|248:88|312:80,2,160,0|8|0
112,80,20956,1,0
112,120,21081,1,2
112,160,21206,1,8
112,200,21331,1,0
112,240,21456,1,2
176,312,21706,5,0
256,256,21956,1,2
256,256,22081,2,0,B|320:276|372:224,1,120
432,152,22706,1,0
360,88,22956,1,2
360,88,23081,2,0,B|296:56|248:104,1,120,0|2
172,44,23706,6,0,B|108:52|76:116,1,120
78,111,24206,1,8
128,192,24456,1,2
256,320,24706,1,0
384,192,24956,5,8
256,64,25206,1,8
448,64,25706,6,0,B|456:144,1,80,4|0
472,240,26206,2,0,B|512:240,2,40,8|0|0
400,304,26706,1,0
312,344,26956,1,8
224,304,27206,1,8
48,224,27706,6,0,B|64:144,1,80
32,56,28206,2,0,B|0:32,2,40,8|0|0
128,80,28706,1,0
216,40,28956,1,8
304,80,29206,1,8
464,192,29706,6,0,B|416:136|392:192|368:248|328:188,1,160,0|8
256,256,30456,1,0
256,256,30581,1,0
256,256,30706,2,0,B|256:336,2,80,0|8|8
48,192,31706,6,0,B|96:136|120:192|144:248|184:188,1,160,0|8
256,128,32456,1,0
256,128,32581,1,0
256,128,32706,2,0,B|256:48,2,80,0|8|8
384,264,33706,6,0,B|264:264,1,120,4|0
224,264,34206,1,8
184,264,34331,1,0
144,264,34456,1,0
64,192,34706,2,0,B|44:156|64:112,2,80,0|8|8
184,40,35706,6,0,B|304:40,1,120
344,40,36206,1,8
384,40,36331,1,0
424,40,36456,1,0
464,128,36706,2,0,B|484:164|464:208,2,80,0|8|8
352,280,37706,6,0,B|304:344|208:344,1,160,0|8
120,304,38456,2,0,B|80:288,2,40,0|0|0
204,252,38956,2,0,B|228:220,2,40,8|0|8
88,96,39706,6,0,B|136:32|232:32,1,160,0|8
312,80,40456,2,0,B|352:72,2,40,0|0|0
240,144,40956,2,0,B|216:176,2,40,8|0|8
432,120,41706,6,0,B|488:192|436:272,3,160,4|8|0|8
80,120,43706,2,0,B|16:192|68:272,3,160,0|8|0|8
256,32,45706,6,0,B|336:32,2,80,0|0|8
32,192,46706,2,0,B|32:112,2,80,0|0|8
256,352,47706,2,0,B|176:352,2,80,0|0|8
488,192,48706,2,0,B|488:272,2,80,0|8|10
336,48,49706,5,4
272,120,49956,1,0
336,192,50206,1,8
192,312,50706,1,0
96,312,50956,1,0
0,312,51206,1,8
160,48,51706,5,0
224,120,51956,1,0
160,192,52206,1,8
304,312,52706,1,0
400,312,52956,1,0
496,312,53206,1,8
352,192,53706,6,0,B|432:192,2,80,0|0|8
160,192,54706,2,0,B|80:192,2,80,0|0|8
256,32,55706,5,0
256,72,55831,1,0
256,112,55956,1,0
256,152,56081,1,0
256,192,56206,1,8
160,192,56456,5,0
256,296,56706,1,0
352,192,56956,1,8
256,296,57206,1,8
256,40,57706,5,4
48,192,58206,1,8
256,344,58706,1,0
464,192,59206,1,8
296,104,59706,6,0,B|216:112,1,80
160,192,60206,2,0,B|240:208,1,80,8|0
296,280,60706,2,0,B|376:264,3,80,0|0|8|0
432,192,61706,5,0
352,136,61956,1,0
256,112,62206,1,8
160,136,62456,1,0
80,192,62706,1,0
160,248,62956,1,0
192,344,63206,6,0,B|152:344|120:312,1,80,8|0
320,344,63706,2,0,B|360:344|392:312,1,80
256,264,64206,2,0,B|180:216|332:156|232:108,1,160,8|0
255,123,64956,1,2
255,123,65206,1,2
80,192,65706,6,0,B|12:120|80:48,1,160,4|8
432,192,66706,2,0,B|496:256|432:336,1,160,0|8
256,296,67706,5,0
168,264,67956,1,0
88,208,68206,2,0,B|72:168|96:128,1,80,8|0
176,72,68706,1,0
256,24,68956,1,0
344,56,69206,2,0,B|368:88|352:136,1,80,8|0
256,128,69706,6,0,B|216:192|256:192|304:192|256:272,3,160,4|8|4|8
256,192,71706,12,0,73206
72,48,81706,5,4
256,96,82206,1,8
72,144,82706,1,0
164,172,82956,1,8
256,192,83206,1,8
440,336,83706,5,0
256,288,84206,1,8
440,240,84706,1,0
348,212,84956,1,8
256,192,85206,1,8
440,144,85706,6,0,B|312:40,1,160,0|8
80,240,86706,2,0,B|192:360,1,160,0|8
208,168,87706,6,0,B|272:160|288:128|256:96|224:128|240:160|304:168,3,160,0|8|0|8
440,32,89706,6,0,B|472:104|448:152,1,120,4|0
464,192,90206,2,0,B|496:224,2,40,8|0|0
384,248,90706,1,0
344,336,90956,2,0,B|304:328|280:288,1,80,0|8
232,208,91456,1,0
160,272,91706,6,0,B|80:248|56:208,1,120
32,176,92206,2,0,B|0:208,2,40,8|0|0
120,136,92706,1,0
80,48,92956,2,0,B|120:32|160:48,1,80,0|8
224,120,93456,1,0
320,104,93706,5,0
392,160,93956,1,0
392,160,94081,1,2
320,224,94331,1,0
320,224,94456,1,2
240,280,94706,5,0
184,360,94956,1,0
184,360,95081,1,2
136,280,95331,1,0
136,280,95456,1,2
104,192,95706,5,0
168,120,95956,1,0
256,80,96206,1,8
344,120,96456,1,0
416,184,96706,1,0
328,224,96956,5,8
184,224,97206,1,8
48,96,97706,6,0,B|128:96,1,80,4|0
200,160,98206,2,0,B|248:160,2,40,8|0|0
272,96,98706,2,0,B|352:96,1,80,2|0
424,160,99206,2,0,B|464:160,2,40,8|0|0
456,248,99706,6,0,B|376:248,1,80
304,312,100206,2,0,B|264:312,2,40,8|0|0
232,248,100706,2,0,B|152:248,1,80,2|0
80,312,101206,2,0,B|40:312,2,40,8|0|0
56,192,101706,6,0,B|88:120|176:88,1,160,0|8
440,244,102706,2,0,B|408:316|320:348,1,160,0|8
296,152,103706,6,0,B|344:192|344:272|256:312|168:272|168:192|216:152,1,320
256,64,104956,1,8
256,64,105206,1,8
224,192,105706,6,0,B|232:216|256:224|280:216|288:180,3,80,0|2|0|2
120,24,107706,6,0,B|96:104,1,80,2|0
8,128,108206,2,0,B|32:208,1,80,8|0
88,280,108706,1,2
112,312,108831,1,0
152,320,108956,1,8
232,272,109206,1,8
232,272,109456,1,0
304,208,109706,6,0,B|384:208,1,80,2|0
448,136,110206,2,0,B|368:136,1,80,8|0
292,76,110706,1,2
251,78,110831,1,0
222,107,110956,1,8
176,192,111206,1,8
176,192,111456,1,0
120,272,111706,6,0,B|80:272,2,40,2|0|0
192,328,112206,1,8
232,328,112331,1,0
272,328,112456,1,0
312,328,112581,1,0
352,328,112706,1,0
448,312,112956,2,0,B|448:232,1,80,2|8
304,104,113706,6,0,B|264:72|256:40|256:40|248:72|208:104,1,160,0|8
152,176,114456,1,0
208,256,114706,1,0
304,256,114956,1,8
360,176,115206,1,8
216,48,115706,6,0,B|152:96|152:96|72:96,1,160,0|8
296,48,116706,2,0,B|344:96|344:96|440:96,1,160,0|8
416,288,117706,6,0,B|448:312,2,40
344,224,118206,2,0,B|312:200,1,40,8|0
272,168,118456,2,0,B|240:144,1,40
200,112,118706,2,0,B|168:88,2,40,0|0|8
256,64,119206,1,8
152,168,119456,1,0
80,232,119706,6,0,B|120:232,1,40
168,232,119956,2,0,B|208:232,1,40
256,232,120206,2,0,B|296:232,1,40,8|0
344,232,120456,2,0,B|384:232,1,40
432,232,120706,1,0
472,144,120956,2,0,B|464:96|416:88,1,80,8|8
256,152,121706,5,4
192,264,122206,2,0,B|160:336,1,80,8|0
320,264,122706,2,0,B|352:344,1,80
152,264,123206,2,0,B|120:336,1,80,8|0
360,264,123706,2,0,B|392:344,1,80
408,192,124206,6,0,B|256:104|100:196,1,320,8|8
256,232,125706,5,2
192,120,126206,2,0,B|168:40,1,80,8|0
320,120,126706,2,0,B|344:40,1,80
152,120,127206,2,0,B|128:40,1,80,8|0
360,120,127706,2,0,B|384:40,1,80
368,192,128206,6,0,B|256:248|136:192,1,240,8|8
136,192,129206,1,8
32,32,129706,6,0,B|32:112,2,80,4|0|8
480,352,130706,2,0,B|480:272,2,80,0|0|8
32,352,131706,6,0,B|112:352,2,80,0|0|8
480,32,132706,2,0,B|400:32,2,80,0|0|8
336,144,133706,6,0,B|336:96,2,40
256,192,134206,2,0,B|256:240,2,40,8|0|0
176,144,134706,2,0,B|176:104,2,40
96,192,135206,2,0,B|96:232,2,40,8|0|0
256,192,135706,12,8,137206
128,64,137706,5,4
384,64,138206,1,8
384,320,138706,1,0
128,320,139206,1,8
256,112,139706,6,0,B|200:168|304:208|256:256,3,160,0|8|0|8
256,40,141706,5,2
256,40,141956,1,0
200,104,142206,2,0,B|120:104,1,80,8|0
312,104,142706,2,0,B|392:104,1,80,2|0
176,176,143206,2,0,B|88:176,1,80,8|0
336,176,143706,2,0,B|416:176,1,80,2|0
256,256,144206,1,8
256,256,144456,1,2
128,256,144706,5,0
256,344,144956,1,2
384,256,145206,1,2
256,112,145706,6,0,B|264:80|296:72|296:72|408:72,1,160,4|8
256,272,146706,2,0,B|248:304|216:312|216:312|104:312,1,160,0|8
56,128,147706,5,0
128,64,147956,1,0
152,160,148206,1,8
224,96,148456,1,0
304,40,148706,1,0
344,40,148831,1,0
384,40,148956,1,0
424,40,149081,1,0
464,40,149206,1,8
384,192,149706,5,0
384,192,149956,1,0
332,272,150206,1,8
332,272,150456,1,0
280,192,150706,1,0
280,192,150956,1,0
228,272,151206,2,0,B|180:280|148:256,1,80,8|0
48,192,151706,5,0
72,160,151831,1,0
104,136,151956,1,0
136,120,152081,1,0
176,112,152206,1,8
256,56,152456,5,0
392,192,152706,1,0
256,328,152956,1,8
120,192,153206,1,8
256,192,153706,5,4
48,48,161706,6,0,B|128:64,1,80
88,152,162206,2,0,B|168:168,1,80,8|0
168,264,162706,2,0,B|248:280,2,80,0|0|8
464,48,163706,6,0,B|384:64,1,80
424,152,164206,2,0,B|344:168,1,80,8|0
352,264,164706,2,0,B|272:280,2,80,0|0|8
256,192,165456,5,4
216,104,165706,2,0,B|256:80|296:104,1,80
376,152,166206,2,0,B|400:192|376:232,1,80,8|0
296,280,166706,2,0,B|256:304|216:280,1,80
136,232,167206,2,0,B|112:192|136:152,1,80,8|0
256,120,167706,6,0,B|256:80,2,40
256,264,168206,2,0,B|256:304,2,40,8|0|0
352,288,168706,5,0
432,240,168956,1,0
432,144,169206,1,8
352,92,169456,1,4
256,112,169706,5,0
216,112,169831,1,0
176,112,169956,1,0
136,112,170081,1,0
96,112,170206,1,8
40,192,170456,1,0
80,192,170581,1,0
120,192,170706,1,0
160,192,170831,1,0
200,192,170956,1,0
296,192,171206,6,0,B|296:272,2,80,8|2|0
384,160,171956,1,0
296,120,172206,2,0,B|224:88,1,80,8|0
144,32,172706,2,0,B|104:56|104:144|144:176,1,160,0|8
280,304,173706,5,0
320,304,173831,1,0
360,304,173956,1,0
400,304,174081,1,0
440,304,174206,1,8
488,224,174456,1,0
448,224,174581,1,0
408,224,174706,1,0
368,224,174831,1,0
328,224,174956,1,0
232,224,175206,6,0,B|152:224,2,80,8|2|0
256,128,175956,1,0
256,32,176206,2,0,B|320:80,1,80,8|0
408,48,176706,2,0,B|448:72|448:168|408:192,1,160,0|8
256,304,177706,6,0,B|216:304,1,40
168,304,177956,2,0,B|128:304,2,40,0|0|8
128,216,178456,2,0,B|128:176,1,40
128,128,178706,2,0,B|128:88,2,40
224,104,179206,1,8
312,64,179456,1,2
400,104,179706,5,0
464,176,179956,2,0,B|448:216|408:232,1,80,0|8
320,192,180456,2,0,B|280:208|264:248,1,80
312,328,180956,2,0,B|280:360|240:336,1,80,0|8
239,335,181456,5,4
168,272,181706,2,0,B|136:248,1,40,0|0
104,216,181956,2,0,B|72:192,2,40,0|0|8
128,120,182456,2,0,B|168:120,1,40
216,120,182706,2,0,B|256:120,2,40
280,192,183206,1,8
360,144,183456,1,2
440,192,183706,5,0
440,232,183831,1,0
440,272,183956,1,0
360,328,184206,1,8
320,328,184331,1,0
280,328,184456,1,0
192,264,184706,5,8
152,252,184831,1,0
120,228,184956,1,8
96,196,185081,1,0
120,164,185206,1,8
152,140,185331,1,0
192,128,185456,1,4
256,192,185706,12,0,187706
96,192,195706,6,0,B|104:144|152:136,1,80
256,88,196706,2,0,B|304:88|320:128,1,80
424,192,197706,2,0,B|424:232|384:256,1,80
256,304,198706,2,0,B|208:304|184:264,1,80
136,192,199706,5,0
208,128,200206,1,2
304,128,200706,1,0
376,192,201206,1,2
256,192,201706,2,0,B|216:232|288:256|252:312,2,120,4|0|8
152,40,203706,6,0,B|16:128,1,160,4|8
360,40,204706,2,0,B|488:136,1,160,0|8
304,192,205706,5,0
256,272,205956,1,0
208,192,206206,1,8
256,112,206456,1,0
328,48,206706,2,0,B|368:64|384:104,1,80
184,48,207206,2,0,B|144:64|128:104,1,80,8|0
80,184,207706,5,0
0,240,207956,1,0
32,328,208206,1,8
128,328,208456,1,0
160,240,208706,1,0
256,224,208956,6,0,B|320:176,1,80,0|8
256,224,209456,2,0,B|336:224,1,80
256,224,209956,2,0,B|320:280,1,80,0|8
392,336,210456,1,0
360,192,210706,1,0
256,88,210956,1,8
152,192,211206,1,8
256,352,211706,6,0,B|168:352|112:280,1,160,4|8
104,80,212706,2,0,B|168:32|256:32,1,160,0|8
440,88,213706,5,0
464,184,213956,1,0
408,264,214206,1,8
320,312,214456,1,0
232,264,214706,2,0,B|232:184,1,80,0|0
96,128,215206,2,0,B|96:208,2,80,8|0|0
168,64,215956,5,0
256,112,216206,1,8
344,64,216456,1,0
416,128,216706,1,0
344,192,216956,1,0
344,232,217081,1,0
344,272,217206,1,8
256,232,217456,1,0
256,192,217706,12,8,219206
64,64,219706,6,0,B|184:64,1,120,4|0
224,64,220206,1,8
264,64,220331,1,0
304,64,220456,1,2
392,32,220706,2,0,B|440:40|456:80,1,80
456,176,221206,1,8
432,208,221331,1,0
408,240,221456,1,2
336,304,221706,6,0,B|216:304,1,120
176,304,222206,1,8
136,304,222331,1,0
96,304,222456,1,2
24,240,222706,2,0,B|24:192|72:176,1,80
160,184,223206,1,8
184,152,223331,1,0
208,120,223456,1,2
256,40,223706,5,0
352,40,223956,2,0,B|432:40,1,80,0|8
496,112,224456,1,0
400,112,224706,2,0,B|320:112,1,80
256,184,225206,1,8
352,184,225456,2,0,B|432:184,1,80
464,272,225956,5,0
440,304,226081,1,0
408,328,226206,1,8
336,272,226456,1,0
304,296,226581,1,0
280,328,226706,1,0
184,328,226956,1,8
172,292,227081,1,0
140,268,227206,1,8
112,112,227706,6,0,B|192:112,1,80,4|0
400,112,228206,2,0,B|320:112,1,80,8|0
192,192,228706,2,0,B|112:192,1,80
320,192,229206,2,0,B|400:192,1,80,8|0
432,264,229706,5,0
376,320,229956,1,0
296,344,230206,1,8
256,272,230456,1,0
216,344,230706,1,0
136,320,230956,1,0
80,264,231206,1,8
192,88,231706,6,0,B|216:48|256:32|296:48|320:88,3,160,0|8|0|8
412,120,233456,1,0
448,208,233706,1,0
424,240,233831,1,0
400,272,233956,1,0
376,304,234081,1,0
352,336,234206,1,8
256,296,234456,5,0
152,192,234706,1,0
256,88,234956,1,8
360,192,235206,1,8
464,32,235706,5,4
400,216,236206,1,8
336,32,236706,1,0
304,128,236956,1,8
272,224,237206,1,8
48,32,237706,5,4
112,216,238206,1,8
176,32,238706,1,0
208,128,238956,1,8
240,224,239206,1,8
416,112,239706,6,0,B|456:136|456:232|416:256,1,160,4|8
93,254,240706,2,0,B|56:232|56:136|96:112,1,160,0|8
256,352,241706,5,4
256,312,241831,1,0
256,272,241956,1,0
256,232,242081,1,0
256,192,242206,1,8
256,96,242456,1,0
160,96,242706,5,0
256,24,242956,1,8
352,96,243206,1,8
424,272,243706,6,0,B|344:288,3,80,4|0|8|0
296,352,244706,1,0
244,292,244956,1,8
296,232,245206,1,8
88,88,245706,6,0,B|168:104,3,80,4|0|8|0
220,44,246706,1,0
272,104,246956,1,8
220,164,247206,1,8
80,336,247706,5,4
80,240,247956,1,0
80,144,248206,1,8
432,48,248706,5,0
432,144,248956,1,0
432,240,249206,1,8
256,192,249706,5,4
