osu file format v14

[General]
AudioFilename: understand.mp3
AudioLeadIn: 0
PreviewTime: 57553
Countdown: 0
SampleSet: Soft
StackLeniency: 0.3
Mode: 0
LetterboxInBreaks: 0
WidescreenStoryboard: 0

[Editor]
Bookmarks: 83736,92257,232849,241369
DistanceSpacing: 1.2
BeatDivisor: 4
GridSize: 32
TimelineZoom: 1.3

[Metadata]
Title:Understand? Understand!
TitleUnicode:Understand? Understand!
Artist:Kousaka Umi (CV.Ueda Reina) x Tanaka Kotoha (CV.Taneda Risa)
ArtistUnicode:高坂海美 (CV.上田麗奈)×田中琴葉 (CV.種田梨沙)
Creator:Setz
Version:Mochi's H@RD
Source:アイドルマスター ミリオンライブ!
Tags:THE IDOLM@STER Million Live imas im@s THE@TER DREAMERS 06 idolmaster Karia Momochikun Doormat うえしゃま
BeatmapID:969694
BeatmapSetID:437279

[Difficulty]
HPDrainRate:5.5
CircleSize:4
OverallDifficulty:6
ApproachRate:7.5
SliderMultiplier:1.42
SliderTickRate:1

[Events]
//Background and Video events
0,0,"imasbg2.jpg",0,0
//Break Periods
2,83936,94095
2,167723,178059
//Storyboard Layer 0 (Background)
//Storyboard Layer 1 (Fail)
//Storyboard Layer 2 (Pass)
//Storyboard Layer 3 (Foreground)
//Storyboard Sound Samples

[TimingPoints]
-49,355.029585798817,4,2,5,80,1,0
838,-100,4,2,6,40,0,0
12199,-100,4,2,5,80,0,0
20897,-100,4,2,6,80,0,0
20986,-100,4,2,5,80,0,0
23915,-100,4,2,6,80,0,0
24980,-100,4,2,5,80,0,0
25513,-100,4,2,5,80,0,0
31016,-111.111111111111,4,2,5,80,0,0
32613,-111.111111111111,4,2,6,80,0,0
34033,-100,4,2,5,80,0,0
39536,-105.263157894737,4,2,5,80,0,0
45394,355.029585798817,3,2,6,60,1,0
45394,-100,3,2,6,60,0,0
49121,-100,3,2,6,80,0,0
49565,-100,3,2,5,5,0,0
49654,355.029585798817,4,2,5,80,1,0
49655,-100,4,2,5,80,0,0
56399,-100,4,2,5,55,0,0
57109,-100,4,2,5,80,0,0
57997,-100,4,2,5,80,0,1
69269,-100,4,2,5,80,0,0
69358,-100,4,2,5,80,0,1
80896,-100,4,2,5,80,0,0
83026,-100,4,2,6,80,0,0
92257,-100,4,2,5,80,0,0
94920,-100,4,2,6,80,0,0
95985,-100,4,2,5,80,0,0
96517,-100,4,2,5,80,0,0
103618,-100,4,2,6,80,0,0
105038,-100,4,2,5,80,0,0
107612,-100,4,2,5,20,0,0
107701,-100,4,2,5,80,0,0
107967,-100,4,2,5,5,0,0
108056,-100,4,2,5,80,0,0
110719,-111.111111111111,4,2,5,80,0,0
116399,-100,4,2,5,80,0,0
126872,-100,4,2,5,80,0,0
127405,-100,4,2,5,80,0,0
127760,-100,4,2,5,80,0,0
130245,-100,4,2,5,80,0,0
130600,-100,4,2,5,80,0,0
133085,-100,4,2,5,80,0,0
133440,-100,4,2,5,80,0,0
144624,-100,4,2,5,80,0,1
155896,-100,4,2,5,80,0,0
155985,-100,4,2,5,80,0,1
167523,-100,4,2,2,80,0,0
190245,-100,4,2,2,60,0,0
190955,-100,4,2,2,70,0,0
191665,-100,4,2,2,80,0,0
194506,-100,4,2,2,60,0,0
195038,-100,4,2,2,40,0,0
195926,-100,4,2,2,80,0,0
198588,-100,4,2,5,80,0,1
209861,-100,4,2,5,80,0,0
209949,-100,4,2,5,80,0,1
213056,-100,4,2,5,5,0,1
213145,-100,4,2,5,80,0,1
221488,-100,4,2,5,80,0,0
241902,-100,4,2,5,80,0,0
242967,-100,4,2,5,80,0,0
243855,-100,4,2,5,80,0,0
244210,-100,4,2,5,80,0,0
252730,-100,4,2,5,80,0,0
253263,-100,4,2,5,80,0,0
253796,-100,4,2,5,80,0,0
254328,-100,4,2,5,80,0,0
255571,-100,4,2,5,20,0,0

[Colours]
Combo1 : 0,128,255
Combo2 : 255,128,192
Combo3 : 128,128,255
Combo4 : 255,128,128
Combo5 : 255,255,128

[HitObjects]
370,209,838,6,0,P|408:197|442:194,2,71,2|2|2,0:0|0:0|0:0,0:0:0:0:
293,246,1371,2,0,P|226:254|169:209,1,142,2|10,0:0|0:0,0:0:0:0:
169,210,2081,2,0,L|147:63,1,142,2|10,0:0|0:0,0:0:0:0:
280,12,2613,2,0,L|258:152,1,142,2|2,0:0|0:0,0:0:0:0:
297,228,3146,1,10,0:0:0:0:
376,199,3323,2,0,B|415:184|415:184|457:219|527:197,1,142,2|8,0:0|0:0,0:0:0:0:
497,285,3856,2,0,P|476:327|470:354,1,71,8|0,0:0|0:0,0:0:0:0:
390,380,4211,5,0,0:0:0:0:
326,323,4388,2,0,P|279:331|251:337,1,71,2|10,0:0|0:0,0:0:0:0:
175,307,4743,1,2,0:0:0:0:
175,307,4921,2,0,P|167:260|161:232,1,71,2|2,0:0|0:0,0:0:0:0:
155,152,5276,1,10,0:0:0:0:
220,97,5453,2,0,P|280:126|300:195,1,142,2|2,0:0|0:0,0:0:0:0:
249,263,5986,1,10,0:0:0:0:
162,237,6164,2,0,P|97:250|23:283,1,142,2|2,0:0|0:0,0:0:0:0:
2,206,6696,2,0,L|-16:129,1,71,10|2,0:0|0:0,0:0:0:0:
49,79,7051,5,2,0:0:0:0:
215,45,7406,2,0,L|198:114,1,71,10|0,0:0|0:0,0:0:0:0:
198,114,7761,2,0,B|241:138|241:138|343:109,1,142,2|10,0:0|0:0,0:0:0:0:
401,64,8294,2,0,P|447:104|452:195,1,142,2|2,0:0|0:0,0:0:0:0:
508,248,8826,1,10,0:0:0:0:
508,248,9004,2,0,P|459:213|373:222,1,142,2|10,0:0|0:0,0:0:0:0:
306,259,9536,1,10,0:0:0:0:
373,311,9714,1,2,0:0:0:0:
295,346,9891,6,0,B|231:368|217:335|155:371,1,142,2|10,0:0|0:0,0:0:0:0:
91,314,10424,2,0,L|106:241,1,71,2|0,0:0|0:0,0:0:0:0:
175,196,10779,2,0,L|190:123,1,71,2|8,0:0|0:0,0:0:0:0:
263,84,11134,2,0,P|208:97|129:42,1,142,2|2,0:0|0:0,0:0:0:0:
60,20,11666,2,0,P|37:53|35:91,1,71,10|2,0:0|0:0,0:0:0:0:
17,105,12199,5,8,0:0:0:0:
70,171,12377,2,0,L|87:248,1,71,8|0,0:0|0:0,0:0:0:0:
31,306,12732,2,0,P|88:266|154:282,1,142,4|8,0:0|0:0,0:0:0:0:
220,335,13264,1,0,0:0:0:0:
220,335,13442,2,0,P|256:335|303:307,1,71,8|0,0:0|0:0,0:0:0:0:
356,270,13797,1,8,0:0:0:0:
396,345,13974,6,0,L|416:193,1,142,2|0,0:1|0:0,0:0:0:0:
388,122,14507,1,8,0:0:0:0:
490,227,14684,2,0,L|500:151,1,71,0|8,0:0|0:0,0:0:0:0:
465,78,15039,1,2,0:1:0:0:
388,122,15217,2,0,P|372:91|374:48,1,71,10|0,0:1|0:0,0:0:0:0:
292,23,15572,6,0,B|256:38|225:28|225:28|197:65|147:68,1,142,4|8,0:0|0:0,0:0:0:0:
80,48,16104,1,0,0:1:0:0:
24,113,16282,2,0,P|7:166|2:191,2,71,8|0|8,0:0|0:0|0:0,0:0:0:0:
99,150,16814,6,0,P|171:175|241:174,1,142,2|0,0:1|0:0,0:0:0:0:
296,113,17347,2,0,L|259:250,1,142,10|10,0:1|0:1,0:0:0:0:
190,300,17879,2,0,L|208:373,1,71,0|8,0:0|0:0,0:0:0:0:
291,354,18235,1,8,0:0:0:0:
190,300,18412,6,0,B|136:287|136:287|115:296|115:296|80:277|45:277,1,142,4|8,0:0|0:0,0:0:0:0:
0,116,19122,2,0,P|32:100|85:105,1,71,8|0,0:0|0:0,0:0:0:0:
131,153,19477,1,8,0:0:0:0:
131,153,19655,2,0,P|166:146|203:139,1,71,2|0,0:1|0:0,0:0:0:0:
273,95,20010,5,0,0:0:0:0:
355,74,20187,2,0,P|348:108|341:143,1,71,8|0,0:0|0:0,0:0:0:0:
299,218,20542,2,0,P|371:222|418:149,1,142,8|6,0:0|0:0,0:0:0:0:
288,17,21252,6,0,L|243:29,1,35.5,10|10,0:1|0:1,0:0:0:0:
216,48,21430,2,0,L|143:32,1,71,10|2,0:1|0:1,0:0:0:0:
10,113,21785,2,0,L|55:125,1,35.5,10|8,0:1|0:1,0:0:0:0:
82,144,21963,2,0,L|155:128,1,71,10|2,0:1|0:1,0:0:0:0:
244,184,22317,2,0,L|278:176,2,35.5,10|8|10,0:1|0:1|0:1,0:0:0:0:
178,238,22672,6,0,P|164:273|155:305,1,71,2|2,0:1|0:1,0:0:0:0:
214,366,23027,1,10,0:1:0:0:
277,309,23205,1,2,0:1:0:0:
356,337,23382,2,0,P|408:325|464:315,2,106.5,10|10|6,0:1|0:1|0:0,0:0:0:0:
256,192,24004,12,8,25158,0:0:0:0:
390,80,25513,5,4,0:0:0:0:
306,96,25690,1,0,0:0:0:0:
222,112,25868,2,0,P|204:159|196:192,1,71,0|0,0:0|0:0,0:0:0:0:
134,234,26223,2,0,L|16:209,2,106.5,0|0|0,0:0|0:0|0:0,0:0:0:0:
199,289,26933,1,0,0:0:0:0:
277,256,27110,1,0,0:0:0:0:
304,336,27288,2,0,P|347:355|387:356,1,71,0|0,0:0|0:0,0:0:0:0:
446,319,27643,2,0,P|457:251|420:199,2,106.5,0|0|0,0:0|0:0|0:0,0:0:0:0:
376,270,28353,5,0,0:0:0:0:
339,193,28530,1,0,0:0:0:0:
339,193,28708,2,0,P|342:155|353:120,1,71
368,39,29063,1,0,0:0:0:0:
437,87,29240,2,0,L|517:71,1,71
368,39,29595,2,0,P|312:34|219:72,1,142
159,106,30128,2,0,L|85:91,1,71,0|0,0:0|0:0,0:0:0:0:
12,128,30483,1,0,0:0:0:0:
145,346,31016,5,0,0:0:0:0:
214,301,31193,2,0,B|302:284|302:284|349:304,1,127.799996099854,4|0,0:0|0:0,0:0:0:0:
413,331,31726,1,2,0:0:0:0:
413,331,31903,2,0,P|443:272|425:196,1,127.799996099854,8|0,0:0|0:0,0:0:0:0:
384,146,32436,1,2,0:0:0:0:
384,146,32613,2,0,P|436:181|512:173,1,127.799996099854,10|10,0:0|0:0,0:0:0:0:
459,104,33146,1,2,0:0:0:0:
326,86,33323,2,0,P|305:122|299:147,1,63.8999980499268,10|2,0:0|0:0,0:0:0:0:
380,20,33678,2,0,P|344:7|310:2,1,63.8999980499268,10|2,0:0|0:0,0:0:0:0:
239,49,34033,6,0,L|96:82,1,142,4|0,0:0|0:0,0:0:0:0:
32,132,34566,1,0,0:0:0:0:
83,199,34743,2,0,P|60:296|57:314,2,106.5,0|0|0,0:0|0:0|0:0,0:0:0:0:
242,137,35631,1,0,0:0:0:0:
278,213,35808,2,0,P|310:225|363:222,1,71,0|0,0:0|0:0,0:0:0:0:
414,170,36164,2,0,B|484:152|484:152|527:165,2,106.5,0|0|0,0:0|0:0|0:0,0:0:0:0:
324,314,37051,5,0,0:0:0:0:
245,348,37229,2,0,L|170:332,1,71,0|0,0:0|0:0,0:0:0:0:
95,304,37584,1,0,0:0:0:0:
14,329,37761,2,0,L|24:371,2,35.5,0|0|0,0:0|0:0|0:0,0:0:0:0:
95,304,38116,1,0,0:0:0:0:
55,228,38294,2,0,P|67:191|88:155,1,71,0|0,0:0|0:0,0:0:0:0:
161,130,38649,2,0,P|197:142|233:163,1,71,0|0,0:0|0:0,0:0:0:0:
258,237,39004,1,0,0:0:0:0:
467,77,39536,5,0,0:0:0:0:
390,33,39714,2,0,P|327:47|295:111,1,134.899996397781,4|0,0:0|0:0,0:0:0:0:
353,170,40246,1,2,0:0:0:0:
353,170,40424,2,0,L|364:245,1,67.4499981988907,8|0,0:0|0:0,0:0:0:0:
434,287,40779,2,0,P|382:319|304:302,1,134.899996397781,2|0,0:0|0:0,0:0:0:0:
229,278,41311,1,8,0:0:0:0:
332,370,41489,2,0,P|326:337|311:307,1,67.4499981988907,2|0,0:0|0:0,0:0:0:0:
289,222,41844,2,0,L|265:87,1,134.899996397781,8|0,0:0|0:0,0:0:0:0:
265,89,42377,1,0,0:0:0:0:
187,168,42554,6,0,P|135:180|64:119,1,134.899996397781,4|0,0:0|0:0,0:0:0:0:
48,51,43087,1,2,0:0:0:0:
132,28,43264,2,0,B|186:43|186:43|210:34|210:34|268:50,1,134.899996397781,8|2,0:0|0:0,0:0:0:0:
333,98,43797,1,0,0:0:0:0:
333,98,44152,1,8,0:0:0:0:
402,151,44329,2,0,P|419:187|423:217,1,67.4499981988907,2|0,0:0|0:0,0:0:0:0:
323,271,44684,2,0,P|307:241|302:207,1,67.4499981988907,8|2,0:0|0:0,0:0:0:0:
240,144,45039,2,0,L|169:158,1,67.4499981988907,0|0,0:0|0:0,0:0:0:0:
102,203,45394,5,6,0:0:0:0:
102,203,45749,1,2,0:0:0:0:
190,57,46104,2,0,L|261:44,2,71,2|0|2,0:0|0:0|0:0,0:0:0:0:
39,137,46814,1,2,0:0:0:0:
167,249,47169,2,0,P|211:313|215:381,2,142,2|2|2,0:0|0:0|0:0,0:0:0:0:
214,178,48056,1,0,0:0:0:0:
288,220,48234,2,0,P|336:229|364:235,1,71,2|0,0:0|0:0,0:0:0:0:
454,172,48589,2,0,P|363:149|311:139,1,142,2|2,0:0|0:0,0:0:0:0:
251,84,49121,2,0,L|244:39,2,35.5,0|0|0,0:0|0:0|0:0,0:0:0:0:
281,252,49654,6,0,P|263:306|254:337,1,71,4|0,0:0|0:0,0:0:0:0:
186,362,50009,1,2,0:0:0:0:
186,362,50097,1,0,0:0:0:0:
186,362,50186,1,0,0:0:0:0:
115,313,50364,2,0,P|68:323|42:336,1,71,2|0,0:0|0:0,0:0:0:0:
4,259,50719,1,2,0:0:0:0:
78,217,50896,6,0,P|118:187|115:91,1,142,2|0,0:1|0:0,0:0:0:0:
40,79,51429,2,0,L|188:117,1,142,2|2,0:0|0:0,0:0:0:0:
238,55,51961,2,0,L|319:74,1,71,2|2,0:0|0:0,0:0:0:0:
389,185,52316,6,0,P|321:193|264:137,1,142,4|0,0:0|0:0,0:0:0:0:
446,122,52849,2,0,P|469:164|471:194,1,71,2|0,0:0|0:0,0:0:0:0:
339,276,53204,2,0,P|316:234|314:204,1,71,2|0,0:0|0:0,0:0:0:0:
345,123,53559,1,2,0:0:0:0:
345,123,53736,2,0,L|327:51,1,71,0|2,0:0|0:0,0:0:0:0:
252,14,54091,5,0,0:0:0:0:
210,88,54269,2,0,P|152:105|120:109,1,71,2|0,0:0|0:0,0:0:0:0:
106,198,54624,2,0,P|48:179|-2:172,2,106.5,2|2|2,0:0|0:0|0:0,0:0:0:0:
158,265,55334,5,8,0:0:0:0:
225,316,55511,1,2,0:0:0:0:
306,291,55689,2,0,P|322:260|324:215,1,71,8|2,0:0|0:0,0:0:0:0:
422,202,56044,2,0,P|411:168|380:135,1,71,8|2,0:0|0:0,0:0:0:0:
301,92,56399,6,0,L|257:101,3,35.5,8|8|8|8,0:0|0:0|0:0|0:0,0:0:0:0:
231,123,56754,2,0,L|196:115,3,35.5,8|8|8|8,0:0|0:0|0:0|0:0,0:0:0:0:
157,98,57109,1,12,0:0:0:0:
25,274,57464,1,2,0:1:0:0:
102,324,57642,6,0,P|140:319|177:309,1,71,0|0,0:0|0:0,0:0:0:0:
257,241,57997,2,0,P|313:284|318:368,1,142,4|0,0:0|0:0,0:0:0:0:
408,327,58529,2,0,P|420:288|426:257,1,71,10|0,0:1|0:0,0:0:0:0:
483,195,58884,2,0,P|471:156|465:125,1,71,2|0,0:0|0:0,0:0:0:0:
488,44,59239,1,8,0:0:0:0:
403,32,59417,6,0,B|358:67|305:67|305:67|294:88|280:102,1,142,2|0,0:1|0:0,0:0:0:0:
247,172,59949,2,0,P|208:166|174:142,1,71,8|0,0:0|0:0,0:0:0:0:
135,78,60304,1,2,0:0:0:0:
88,189,60482,2,0,L|107:267,1,71,0|8,0:0|0:0,0:0:0:0:
211,272,60837,5,0,0:0:0:0:
211,272,60926,1,0,0:0:0:0:
211,272,61014,2,0,L|192:350,1,71,2|0,0:1|0:0,0:0:0:0:
279,350,61369,2,0,P|353:337|414:372,1,142,8|2,0:0|0:0,0:0:0:0:
489,336,61902,2,0,P|507:302|502:258,1,71,0|8,0:0|0:0,0:0:0:0:
443,212,62257,6,0,B|411:122|411:122|427:73,1,142,2|0,0:1|0:0,0:0:0:0:
354,30,62790,2,0,P|302:15|270:15,1,71,8|2,0:0|0:0,0:0:0:0:
210,123,63145,2,0,P|243:134|278:138,1,71,2|0,0:0|0:0,0:0:0:0:
363,120,63500,1,8,0:0:0:0:
320,224,63677,5,0,0:0:0:0:
320,224,63855,2,0,P|300:274|292:307,1,71,4|0,0:0|0:0,0:0:0:0:
355,350,64210,2,0,P|284:337|199:304,1,142,8|2,0:0|0:1,0:0:0:0:
135,293,64742,1,0,0:0:0:0:
197,234,64920,1,8,0:0:0:0:
55,267,65097,6,0,P|5:225|29:149,1,142,0|0,0:0|0:0,0:0:0:0:
115,72,65630,2,0,P|77:80|40:86,1,71,8|0,0:0|0:0,0:0:0:0:
146,164,65985,2,0,P|184:156|221:150,1,71,0|0,0:0|0:0,0:0:0:0:
283,99,66340,2,0,P|299:135|297:172,1,71,10|0,0:1|0:0,0:0:0:0:
270,275,66695,5,4,0:0:0:0:
353,257,66872,1,0,0:0:0:0:
412,317,67050,1,8,0:0:0:0:
374,240,67227,1,0,0:0:0:0:
436,182,67405,2,0,L|453:113,1,71,2|0,0:0|0:0,0:0:0:0:
484,33,67760,1,8,0:0:0:0:
484,33,67938,1,0,0:0:0:0:
338,60,68115,6,0,L|353:129,1,71,6|2,0:0|0:0,0:0:0:0:
436,182,68470,1,8,0:0:0:0:
374,240,68648,2,0,L|381:280,2,35.5,2|2|2,0:0|0:0|0:0,0:0:0:0:
299,198,69003,6,0,P|261:197|230:212,1,71,8|8,0:0|0:0,0:0:0:0:
160,286,69358,2,0,P|106:295|41:239,1,142,4|0,0:0|0:0,0:0:0:0:
0,183,69890,2,0,P|11:255|21:341,1,142,10|0,0:1|0:0,0:0:0:0:
120,223,70423,2,0,P|112:181|105:147,1,71,0|8,0:0|0:0,0:0:0:0:
149,79,70778,6,0,B|195:70|237:92|237:92|264:80|281:48,1,142,2|0,0:1|0:0,0:0:0:0:
355,32,71310,2,0,P|379:70|380:101,1,71,8|0,0:0|0:0,0:0:0:0:
385,180,71665,1,8,0:0:0:0:
302,156,71843,1,8,0:0:0:0:
327,237,72020,1,8,0:0:0:0:
243,217,72198,6,0,P|170:203|100:192,1,142,4|0,0:0|0:0,0:0:0:0:
13,268,72730,2,0,P|83:279|152:292,1,142,8|0,0:0|0:0,0:0:0:0:
214,351,73263,1,0,0:0:0:0:
290,313,73440,1,8,0:0:0:0:
372,336,73618,6,0,P|417:299|406:217,1,142,2|0,0:1|0:0,0:0:0:0:
356,154,74151,2,0,P|406:141|437:138,1,71,8|0,0:0|0:0,0:0:0:0:
284,118,74506,2,0,P|270:86|272:49,1,71,8|0,0:0|0:0,0:0:0:0:
349,14,74861,1,8,0:0:0:0:
191,85,75038,5,0,0:0:0:0:
191,85,75216,2,0,P|126:96|60:40,1,142,4|8,0:0|0:0,0:0:0:0:
26,128,75748,1,0,0:0:0:0:
86,188,75926,2,0,P|103:231|111:256,1,71,0|0,0:0|0:0,0:0:0:0:
83,335,76281,1,8,0:0:0:0:
190,287,76458,6,0,P|248:306|326:339,1,142,2|0,0:1|0:0,0:0:0:0:
400,301,76991,2,0,P|443:290|480:283,1,71,8|0,0:0|0:0,0:0:0:0:
390,210,77346,2,0,P|347:221|310:228,1,71,8|0,0:0|0:0,0:0:0:0:
243,190,77701,1,8,0:0:0:0:
415,130,78056,6,0,P|471:167|478:238,2,142,2|8|0,0:0|0:0|0:0,0:0:0:0:
332,109,78943,2,0,P|338:75|356:34,1,71,0|8,0:0|0:0,0:0:0:0:
251,66,79298,6,0,P|179:89|106:90,1,142,2|8,0:0|0:0,0:0:0:0:
5,189,79831,2,0,P|52:175|103:167,1,71,0|0,0:0|0:0,0:0:0:0:
140,224,80186,1,8,0:0:0:0:
221,199,80364,1,8,0:0:0:0:
270,268,80541,1,8,0:0:0:0:
396,153,80896,5,4,0:0:0:0:
325,329,81251,2,0,P|285:347|253:347,1,71,8|2,0:0|0:1,0:0:0:0:
284,254,81606,2,0,P|351:244|411:303,1,142,2|8,0:1|0:0,0:0:0:0:
467,347,82139,6,0,P|444:282|439:198,1,142,10|2,0:1|0:1,0:0:0:0:
476,133,82671,1,10,0:1:0:0:
366,157,82849,2,0,P|376:122|390:90,1,71,10|2,0:1|0:0,0:0:0:0:
464,47,83204,5,2,0:0:0:0:
390,90,83381,1,8,0:0:0:0:
476,133,83559,1,8,0:0:0:0:
376,6,83736,1,6,0:0:0:0:
256,192,94920,12,8,96162,0:0:0:0:
256,64,96517,6,0,P|192:85|157:166,1,142,4|4,0:0|0:3,0:0:0:0:
207,216,97050,1,0,0:0:0:0:
144,273,97227,2,0,P|88:273|35:240,2,106.5,0|0|0,0:0|0:0|0:0,0:0:0:0:
207,216,97938,2,0,L|285:231,1,71,0|0,0:0|0:0,0:0:0:0:
325,299,98293,2,0,L|394:285,1,71,4|0,0:3|0:0,0:0:0:0:
467,329,98648,1,0,0:0:0:0:
497,249,98825,2,0,P|512:214|510:178,1,71,8|8,0:0|0:0,0:0:0:0:
408,59,99180,6,0,L|433:202,1,142,4|0,0:0|0:0,0:0:0:0:
381,267,99713,2,0,P|337:266|305:245,1,71,4|0,0:3|0:0,0:0:0:0:
236,217,100068,2,0,P|166:220|122:282,1,142,0|4,0:0|0:3,0:0:0:0:
87,349,100600,2,0,P|157:346|201:284,1,142,0|0,0:0|0:0,0:0:0:0:
236,217,101133,2,0,L|223:128,1,71,4|0,0:3|0:0,0:0:0:0:
211,62,101488,1,8,0:0:0:0:
208,48,101577,1,8,0:0:0:0:
205,34,101665,1,8,0:0:0:0:
293,75,101843,2,0,P|328:75|365:55,1,71,4|0,0:3|0:0,0:0:0:0:
445,59,102198,6,0,P|388:75|361:154,1,142,4|8,0:0|0:0,0:0:0:0:
432,191,102730,1,2,0:0:0:0:
367,247,102908,2,0,P|376:286|382:321,1,71,0|2,0:0|0:0,0:0:0:0:
307,358,103263,2,0,P|300:323|292:288,1,71,8|0,0:0|0:0,0:0:0:0:
256,272,103529,1,0,0:0:0:0:
256,272,103618,2,0,P|212:262|184:260,1,71,10|10,0:0|0:0,0:0:0:0:
141,161,103973,2,0,P|185:171|213:173,1,71,10|2,0:0|0:0,0:0:0:0:
267,109,104328,2,0,L|257:64,2,35.5,10|10|10,0:0|0:0|0:0,0:0:0:0:
343,146,104683,1,10,0:0:0:0:
407,90,104861,1,2,0:0:0:0:
486,119,105038,6,0,B|462:206|462:206|483:232|483:259,1,142,4|0,0:0|0:0,0:0:0:0:
439,326,105571,1,0,0:0:0:0:
356,306,105748,2,0,B|303:321|303:321|276:313|276:313|211:333,1,142,0|0,0:0|0:0,0:0:0:0:
135,344,106281,2,0,P|104:294|117:202,1,142,2|0,0:1|0:0,0:0:0:0:
159,143,106813,2,0,P|198:151|231:158,1,71,0|0,0:0|0:0,0:0:0:0:
302,115,107168,2,0,P|341:123|410:136,2,106.5,0|0|2,0:0|0:0|0:1,0:0:0:0:
145,47,108056,6,0,B|103:38|103:38|50:62|62:133,1,142,4|0,0:0|0:0,0:0:0:0:
92,198,108588,2,0,P|118:246|120:271,1,71,0|0,0:0|0:0,0:0:0:0:
94,296,108855,2,0,P|148:270|210:274,1,106.5,4|2,0:0|0:0,0:0:0:0:
264,316,109298,1,6,0:0:0:0:
346,295,109476,1,2,0:0:0:0:
371,213,109654,1,2,0:0:0:0:
300,165,109831,1,2,0:0:0:0:
218,189,110009,2,0,L|179:177,4,35.5,2|0|0|0|0,0:0|0:0|0:0|0:0|0:0,0:0:0:0:
399,127,110719,6,0,B|421:49|421:49|399:-3,1,127.799996099854,4|0,0:0|0:0,0:0:0:0:
321,21,111251,1,2,0:0:0:0:
241,46,111429,2,0,B|181:78|176:43|111:76,1,127.799996099854,8|2,0:0|0:0,0:0:0:0:
15,203,112139,1,0,0:0:0:0:
88,241,112316,2,0,P|98:283|100:308,2,63.8999980499268,8|2|0,0:0|0:0|0:0,0:0:0:0:
154,190,112849,2,0,L|289:221,1,127.799996099854,8|0,0:0|0:0,0:0:0:0:
368,243,113381,1,8,0:0:0:0:
322,325,113559,6,0,P|287:297|283:209,1,127.799996099854,4|0,0:0|0:0,0:0:0:0:
330,154,114091,1,2,0:0:0:0:
412,164,114269,2,0,P|447:192|451:280,1,127.799996099854,8|2,0:0|0:0,0:0:0:0:
414,342,114801,1,0,0:0:0:0:
330,154,115156,1,8,0:0:0:0:
251,137,115334,2,0,P|204:122|124:113,1,127.799996099854,2|8,0:0|0:0,0:0:0:0:
68,53,115867,1,2,0:0:0:0:
145,24,116044,2,0,P|178:32|222:38,1,63.8999980499268,8|0,0:0|0:0,0:0:0:0:
306,72,116399,6,0,B|351:67|392:91|392:91|416:75|427:49,1,142,4|8,0:0|0:0,0:0:0:0:
502,203,117109,2,0,P|487:237|479:275,1,71,0|0,0:0|0:0,0:0:0:0:
479,269,117464,1,8,0:0:0:0:
398,241,117642,2,0,P|325:262|257:296,1,142,0|0,0:0|0:0,0:0:0:0:
214,358,118174,2,0,L|233:205,1,142,8|0,0:0|0:0,0:0:0:0:
242,132,118707,1,0,0:0:0:0:
163,165,118884,6,0,P|110:178|44:105,2,142,4|4|8,0:0|0:0|0:0,0:0:0:0:
304,70,119949,2,0,P|327:111|329:145,1,71,0|0,0:0|0:0,0:0:0:0:
290,209,120304,1,8,0:0:0:0:
352,267,120482,2,0,B|402:264|428:228|428:228|452:241|498:237,1,142,0|0,0:0|0:0,0:0:0:0:
509,158,121014,1,8,0:0:0:0:
435,114,121192,2,0,P|419:78|410:42,1,71,8|0,0:0|0:0,0:0:0:0:
329,23,121547,2,0,P|313:59|304:95,1,71,8|8,0:0|0:0,0:0:0:0:
328,171,121902,1,0,0:0:0:0:
248,203,122080,6,0,B|184:229|170:194|105:237,2,142,4|8|0,0:0|0:0|0:0,0:0:0:0:
395,288,123145,2,0,P|403:253|410:215,1,71,8|0,0:0|0:0,0:0:0:0:
442,139,123500,2,0,P|385:89|304:94,1,142,0|8,0:0|0:0,0:0:0:0:
240,111,124032,1,0,0:0:0:0:
162,147,124210,2,0,P|92:142|41:95,1,142,0|4,0:0|0:0,0:0:0:0:
41,95,124920,6,0,L|65:241,1,142,10|10,0:1|0:1,0:0:0:0:
82,318,125452,1,0,0:0:0:0:
157,278,125630,2,0,L|141:204,2,71,10|2|2,0:1|0:0|0:0,0:0:0:0:
216,338,126162,2,0,P|287:357|376:355,1,142,4|8,0:0|0:0,0:0:0:0:
434,326,126695,1,2,0:0:0:0:
366,260,126872,2,0,P|330:212|312:121,1,142,4|2,0:0|0:0,0:0:0:0:
354,59,127405,2,0,P|312:29|259:16,1,106.5,10|0,0:1|0:0,0:0:0:0:
218,30,127760,6,0,P|180:41|122:45,1,71,4|0,0:0|0:0,0:0:0:0:
77,92,128115,2,0,B|96:123|96:123|61:173|81:225,1,142,8|2,0:0|0:1,0:0:0:0:
119,299,128648,1,0,0:0:0:0:
193,258,128825,1,8,0:0:0:0:
237,330,129003,2,0,P|287:353|384:338,1,142,2|0,0:1|0:0,0:0:0:0:
444,300,129535,2,0,P|426:248|414:225,1,71,8|0,0:0|0:0,0:0:0:0:
476,170,129890,2,0,P|457:139|434:112,1,71,0|0,0:0|0:0,0:0:0:0:
357,75,130245,1,4,0:0:0:0:
293,232,130600,6,0,P|256:245|211:245,1,71,8|2,0:0|0:0,0:0:0:0:
147,208,130955,1,2,0:0:0:0:
156,297,131133,2,0,P|184:321|231:330,1,71,8|2,0:0|0:0,0:0:0:0:
304,312,131488,1,2,0:0:0:0:
372,362,131665,1,0,0:0:0:0:
452,333,131843,2,0,P|501:295|496:221,1,142,2|2,0:0|0:0,0:0:0:0:
446,152,132375,1,8,0:0:0:0:
446,152,132553,2,0,P|369:169|304:186,1,142,2|0,0:0|0:0,0:0:0:0:
229,152,133085,1,4,0:0:0:0:
86,245,133440,6,0,P|122:249|152:264,1,71,4|0,0:0|0:0,0:0:0:0:
208,329,133796,2,0,P|243:325|274:309,1,71,8|0,0:0|0:0,0:0:0:0:
355,280,134151,2,0,P|370:311|374:346,2,71,8|0|8,0:0|0:0|0:0,0:0:0:0:
295,218,134683,1,0,0:0:0:0:
362,165,134861,6,0,L|342:87,1,71,8|0,0:0|0:0,0:0:0:0:
392,25,135216,2,0,P|327:13|263:70,1,142,8|8,0:0|0:0,0:0:0:0:
194,97,135748,1,8,0:0:0:0:
133,36,135926,1,8,0:0:0:0:
61,82,136103,6,0,B|37:116|37:116|62:232,1,142,4|8,0:0|0:0,0:0:0:0:
89,293,136636,2,0,P|128:306|163:311,1,71,8|8,0:0|0:0,0:0:0:0:
238,338,136991,2,0,P|277:325|312:320,2,71,8|8|8,0:0|0:0|0:0,0:0:0:0:
220,254,137523,1,8,0:0:0:0:
254,175,137701,6,0,P|265:139|265:102,1,71,8|8,0:0|0:0,0:0:0:0:
206,44,138056,1,8,0:0:0:0:
287,18,138233,1,8,0:0:0:0:
349,75,138411,2,0,P|439:59|463:55,2,106.5,8|8|8,0:0|0:0|0:0,0:0:0:0:
396,146,139121,6,0,P|450:171|475:181,1,71,4|0,0:0|0:0,0:0:0:0:
408,242,139476,2,0,P|443:290|458:311,1,71,10|0,0:1|0:0,0:0:0:0:
365,312,139831,2,0,P|354:370|351:397,1,71,10|0,0:1|0:0,0:0:0:0:
278,341,140186,2,0,P|219:330|192:327,1,71,10|0,0:1|0:0,0:0:0:0:
134,286,140541,6,0,B|82:307|45:264|45:264|63:213,1,142,10|4,0:1|0:0,0:0:0:0:
113,158,141074,1,0,0:0:0:0:
43,109,141251,2,0,P|20:58|20:7,2,106.5,8|8|8,0:0|0:0|0:0,0:0:0:0:
113,158,141961,6,0,P|150:141|185:138,1,71,8|2,0:0|0:0,0:0:0:0:
253,180,142316,2,0,P|284:195|319:200,1,71,8|2,0:0|0:0,0:0:0:0:
400,171,142671,2,0,L|444:159,2,35.5,8|8|8,0:0|0:0|0:0,0:0:0:0:
390,86,143026,2,0,L|399:44,2,35.5,8|8|8,0:0|0:0|0:0,0:0:0:0:
308,61,143381,6,0,P|271:68|229:80,1,71,4|8,0:0|0:0,0:0:0:0:
168,151,143736,1,8,0:0:0:0:
402,199,144269,6,0,P|414:237|425:271,1,71,0|0,0:0|0:0,0:0:0:0:
506,331,144624,2,0,P|453:368|369:357,1,142,4|0,0:0|0:0,0:0:0:0:
309,303,145156,2,0,P|271:309|243:325,1,71,10|0,0:1|0:0,0:0:0:0:
168,366,145511,1,0,0:0:0:0:
114,299,145689,2,0,P|105:268|93:228,1,71,0|8,0:0|0:0,0:0:0:0:
173,200,146044,6,0,P|189:103|198:59,1,142,2|0,0:1|0:0,0:0:0:0:
278,31,146577,2,0,P|349:55|420:50,1,142,8|0,0:0|0:0,0:0:0:0:
512,153,147109,2,0,P|467:137|442:134,1,71,0|8,0:0|0:0,0:0:0:0:
368,173,147464,5,0,0:0:0:0:
368,173,147553,1,0,0:0:0:0:
368,173,147642,2,0,L|292:204,1,71,2|0,0:1|0:0,0:0:0:0:
223,233,147997,2,0,P|177:209|177:125,1,142,8|0,0:0|0:0,0:0:0:0:
149,62,148529,2,0,P|169:92|175:127,1,71,0|8,0:0|0:0,0:0:0:0:
136,200,148884,6,0,B|45:177|45:177|-2:197,1,142,2|0,0:1|0:0,0:0:0:0:
14,280,149417,1,8,0:0:0:0:
30,363,149594,1,2,0:0:0:0:
96,309,149772,2,0,L|168:328,1,71,2|0,0:0|0:0,0:0:0:0:
243,293,150127,1,8,0:0:0:0:
306,349,150304,1,0,0:0:0:0:
376,263,150482,6,0,P|391:228|390:185,1,71,4|0,0:0|0:0,0:0:0:0:
317,153,150837,2,0,P|369:165|434:107,1,142,8|0,0:0|0:0,0:0:0:0:
378,46,151369,2,0,L|305:29,1,71,0|8,0:0|0:0,0:0:0:0:
231,67,151725,6,0,B|168:97|158:58|88:100,1,142
36,158,152257,2,0,P|58:196|66:222,1,71,8|0,0:0|0:0,0:0:0:0:
142,258,152612,2,0,P|180:236|206:228,1,71,0|0,0:0|0:0,0:0:0:0:
287,251,152967,1,10,0:1:0:0:
441,178,153322,5,4,0:0:0:0:
498,114,153500,1,0,0:0:0:0:
459,38,153677,1,8,0:0:0:0:
375,58,153855,1,0,0:0:0:0:
357,141,154032,1,2,0:0:0:0:
441,178,154210,2,0,L|462:259,1,71,0|8,0:0|0:0,0:0:0:0:
481,329,154565,1,0,0:0:0:0:
379,297,154742,6,0,P|342:283|298:285,1,71,6|2,0:0|0:0,0:0:0:0:
235,322,155097,1,8,0:0:0:0:
185,236,155275,1,2,0:0:0:0:
195,219,155364,1,2,0:0:0:0:
206,204,155452,2,0,L|192:128,1,71,2|8,0:0|0:0,0:0:0:0:
272,49,155807,5,8,0:0:0:0:
313,169,155985,2,0,P|244:178|185:108,1,142,4|0,0:0|0:0,0:0:0:0:
272,49,156517,2,0,P|340:39|399:109,1,142,10|0,0:1|0:0,0:0:0:0:
459,137,157050,2,0,L|439:216,1,71,0|8,0:0|0:0,0:0:0:0:
411,285,157405,6,0,B|387:289|363:298|363:298|337:289|337:289|302:304|262:309,1,142,2|0,0:1|0:0,0:0:0:0:
213,247,157938,2,0,P|179:231|138:230,1,71,8|0,0:0|0:0,0:0:0:0:
76,278,158293,1,8,0:0:0:0:
140,370,158470,2,0,P|162:337|161:296,1,71,8|8,0:0|0:0,0:0:0:0:
78,197,158825,6,0,B|49:104|49:104|82:65,1,142,8|0,0:0|0:0,0:0:0:0:
156,37,159358,2,0,P|223:58|259:119,1,142,8|0,0:0|0:0,0:0:0:0:
332,158,159890,2,0,P|320:196|299:220,1,71,0|8,0:0|0:0,0:0:0:0:
217,241,160245,6,0,L|366:202,1,142,2|0,0:1|0:0,0:0:0:0:
460,265,160778,2,0,L|391:282,1,71,8|0,0:0|0:0,0:0:0:0:
317,328,161133,1,8,0:0:0:0:
237,357,161310,2,0,L|168:339,1,71,0|8,0:0|0:0,0:0:0:0:
69,310,161665,5,0,0:0:0:0:
69,310,161843,2,0,P|59:264|37:230,1,71,6|0,0:0|0:0,0:0:0:0:
97,174,162198,2,0,P|142:131|230:107,1,142,8|2,0:0|0:1,0:0:0:0:
297,134,162730,1,0,0:0:0:0:
350,67,162908,1,8,0:0:0:0:
297,134,163085,6,0,P|299:202|339:271,1,142,2|0,0:1|0:0,0:0:0:0:
400,288,163618,2,0,P|360:271|322:264,1,71,8|0,0:0|0:0,0:0:0:0:
443,207,163973,2,0,P|483:224|521:231,1,71,8|0,0:0|0:0,0:0:0:0:
482,323,164328,1,8,0:0:0:0:
256,352,164683,6,0,B|221:333|221:333|182:378|106:347,1,142,4|8,0:0|0:0,0:0:0:0:
54,309,165216,1,0,0:0:0:0:
54,309,165393,2,0,L|31:225,1,71,0|0,0:0|0:0,0:0:0:0:
11,158,165748,1,8,0:0:0:0:
127,215,165926,6,0,P|192:221|241:163,1,142,2|8,0:0|0:0,0:0:0:0:
191,74,166458,2,0,P|168:113|166:141,1,71,0|0,0:0|0:0,0:0:0:0:
296,238,166813,2,0,P|319:199|321:171,1,71,8|8,0:0|0:0,0:0:0:0:
297,58,167168,1,8,0:0:0:0:
447,199,167523,1,4,0:0:0:0:
256,96,178884,6,0,B|307:82|307:82|339:92|339:92|396:76,1,142,4|8,0:0|0:0,0:0:0:0:
456,19,179417,1,0,0:0:0:0:
456,19,179594,2,0,L|425:169,1,142,0|10,0:0|0:0,0:0:0:0:
352,199,180127,6,0,L|370:278,1,71,2|0,0:0|0:0,0:0:0:0:
393,349,180482,1,2,0:0:0:0:
308,340,180659,2,0,P|250:339|171:373,1,142,10|0,0:0|0:0,0:0:0:0:
91,347,181192,2,0,P|73:309|73:280,1,71,2|10,0:0|0:0,0:0:0:0:
126,214,181547,5,2,0:0:0:0:
126,214,181725,2,0,P|124:178|107:147,1,71,4|0,0:0|0:0,0:0:0:0:
55,80,182080,2,0,P|110:118|191:118,1,142,8|2,0:0|0:0,0:0:0:0:
261,86,182612,2,0,L|337:103,1,71,2|10,0:0|0:0,0:0:0:0:
414,211,182967,6,0,L|275:180,1,142,2|2,0:0|0:0,0:0:0:0:
200,220,183500,1,10,0:0:0:0:
177,301,183677,2,0,P|131:280|125:193,1,142,2|2,0:0|0:0,0:0:0:0:
149,115,184210,2,0,L|125:44,1,71,8|2,0:0|0:0,0:0:0:0:
205,16,184565,6,0,L|247:32,3,35.5,6|2|2|2,0:0|0:0|0:0|0:0,0:0:0:0:
272,54,184920,2,0,L|305:41,3,35.5,10|2|2|2,0:0|0:0|0:0|0:0,0:0:0:0:
347,36,185275,2,0,L|380:48,3,35.5,2|2|2|2,0:0|0:0|0:0|0:0,0:0:0:0:
416,70,185630,2,0,L|449:57,3,35.5,10|2|2|2,0:0|0:0|0:0|0:0,0:0:0:0:
490,48,185985,6,0,P|505:88|511:118,1,71,2|2,0:0|0:0,0:0:0:0:
467,189,186340,1,8,0:0:0:0:
384,170,186517,2,0,P|345:181|304:193,1,71,2|2,0:0|0:0,0:0:0:0:
233,213,186872,2,0,L|218:254,2,35.5,10|8|10,0:0|0:0|0:0,0:0:0:0:
314,104,187227,6,0,B|394:84|394:84|423:86|451:119,1,142,6|2,0:0|0:0,0:0:0:0:
487,186,187760,2,0,P|473:224|449:247,1,71,10|2,0:0|0:0,0:0:0:0:
303,234,188115,2,0,P|342:241|369:260,1,71,10|2,0:0|0:0,0:0:0:0:
410,383,188470,2,0,P|410:342|424:312,1,71,10|2,0:0|0:0,0:0:0:0:
487,186,188825,6,0,L|410:205,1,71,10|2,0:0|0:0,0:0:0:0:
294,141,189180,2,0,L|362:123,1,71,8|2,0:0|0:0,0:0:0:0:
480,27,189535,2,0,L|411:44,1,71,8|0,0:0|0:0,0:0:0:0:
294,141,189890,2,0,P|257:126|224:121,1,71,4|2,0:0|0:0,0:0:0:0:
164,61,190245,6,0,L|194:204,1,142,6|10,0:0|0:0,0:0:0:0:
218,281,190778,1,2,0:0:0:0:
133,273,190955,2,0,P|111:240|109:203,2,71,10|2|10,0:0|0:0|0:0,0:0:0:0:
218,281,191488,1,2,0:0:0:0:
278,220,191665,6,0,P|341:212|405:255,1,142,10|10,0:0|0:0,0:0:0:0:
478,294,192198,1,2,0:0:0:0:
478,294,192287,1,2,0:0:0:0:
478,294,192375,2,0,L|492:168,2,106.5,10|10|10,0:0|0:0|0:0,0:0:0:0:
402,228,193085,6,0,L|379:145,1,71,14|10,0:0|0:0,0:0:0:0:
313,209,193440,2,0,L|252:164,1,71,10|10,0:0|0:0,0:0:0:0:
234,250,193796,2,0,L|155:266,1,71,10|0,0:0|0:0,0:0:0:0:
80,281,194151,1,10,0:0:0:0:
16,225,194328,1,10,0:0:0:0:
64,154,194506,6,0,L|78:114,3,35.5,14|8|8|8,0:0|0:0|0:0|0:0,0:0:0:0:
112,98,194861,2,0,L|126:58,3,35.5,8|8|14|8,0:0|0:0|0:0|0:0,0:0:0:0:
155,35,195216,6,0,L|181:22,14,17.75,8|8|8|8|8|8|8|8|8|8|8|8|8|8|8,0:0|0:0|0:0|0:0|0:0|0:0|0:0|0:0|0:0|0:0|0:0|0:0|0:0|0:0|0:0,0:0:0:0:
197,32,195926,6,0,P|288:49|337:60,1,142,0|0,0:0|0:0,0:0:0:0:
455,222,196636,2,0,P|414:232|369:243,1,71
314,286,196991,1,0,0:0:0:0:
233,256,197168,1,0,0:0:0:0:
154,222,197346,2,0,L|173:143,1,71,0|0,0:0|0:0,0:0:0:0:
233,256,197701,1,0,0:0:0:0:
165,307,197878,1,0,0:0:0:0:
165,307,198233,5,8,0:0:0:0:
85,275,198411,1,8,0:0:0:0:
233,256,198588,2,0,P|281:225|279:137,1,142,4|0,0:0|0:0,0:0:0:0:
206,111,199121,2,0,P|264:65|338:78,1,142,10|0,0:1|0:0,0:0:0:0:
398,120,199654,2,0,P|442:111|472:105,1,71,0|8,0:0|0:0,0:0:0:0:
467,105,200009,6,0,P|449:174|432:264,1,142,2|0,0:1|0:0,0:0:0:0:
393,317,200541,2,0,P|339:333|271:263,1,142,10|0,0:1|0:0,0:0:0:0:
193,262,201074,2,0,L|120:277,1,71,0|8,0:0|0:0,0:0:0:0:
10,210,201429,5,0,0:0:0:0:
10,210,201517,1,0,0:0:0:0:
10,210,201606,2,0,L|79:195,1,71,2|0,0:1|0:0,0:0:0:0:
119,119,201961,2,0,P|173:103|241:173,1,142,8|0,0:0|0:0,0:0:0:0:
298,209,202494,1,8,0:0:0:0:
382,221,202671,1,8,0:0:0:0:
452,172,202849,6,0,P|492:137|484:48,1,142,2|0,0:1|0:0,0:0:0:0:
408,23,203381,2,0,P|369:36|330:37,1,71,8|2,0:0|0:0,0:0:0:0:
256,32,203736,2,0,P|244:65|241:100,1,71,2|0,0:0|0:0,0:0:0:0:
265,182,204091,1,8,0:0:0:0:
288,264,204269,1,0,0:0:0:0:
205,243,204446,6,0,P|171:251|122:264,1,71,4|0,0:0|0:0,0:0:0:0:
36,320,204801,2,0,P|78:333|187:355,1,142,8|0,0:0|0:0,0:0:0:0:
257,336,205334,1,0,0:0:0:0:
331,375,205511,1,8,0:0:0:0:
378,304,205689,6,0,B|401:272|401:272|370:225|381:165,1,142,0|0,0:0|0:0,0:0:0:0:
452,129,206222,2,0,P|438:91|441:62,1,71,8|0,0:0|0:0,0:0:0:0:
362,28,206577,2,0,L|217:57,1,142,0|8,0:0|0:0,0:0:0:0:
144,21,207109,1,0,0:0:0:0:
123,118,207287,6,0,L|100:187,1,71,4|0,0:0|0:0,0:0:0:0:
156,303,207642,2,0,L|178:235,1,71,8|0,0:0|0:0,0:0:0:0:
33,162,207997,2,0,L|100:184,1,71,2|0,0:0|0:0,0:0:0:0:
223,325,208352,2,0,L|155:302,1,71,8|0,0:0|0:0,0:0:0:0:
256,224,208707,5,6,0:0:0:0:
330,289,208884,1,2,0:0:0:0:
428,270,209062,2,0,P|446:238|444:189,1,71,8|2,0:0|0:0,0:0:0:0:
441,187,209328,1,2,0:0:0:0:
434,170,209417,1,2,0:0:0:0:
360,111,209594,5,8,0:0:0:0:
456,60,209772,1,8,0:0:0:0:
339,25,209949,2,0,P|297:61|289:160,1,142,4|0,0:0|0:0,0:0:0:0:
349,197,210482,2,0,B|258:176|258:176|191:195,1,142,10|0,0:1|0:0,0:0:0:0:
126,199,211014,2,0,L|106:120,1,71,0|8,0:0|0:0,0:0:0:0:
41,224,211369,6,0,P|77:270|178:264,1,142,2|0,0:1|0:0,0:0:0:0:
251,168,211902,2,0,P|190:157|124:202,1,142,8|8,0:0|0:0,0:0:0:0:
156,276,212435,1,8,0:0:0:0:
226,324,212612,1,8,0:0:0:0:
306,228,212790,6,0,L|290:71,1,142,4|2,0:0|0:0,0:0:0:0:
376,134,213322,2,0,P|432:147|495:91,1,142,4|0,0:0|0:0,0:0:0:0:
449,11,213855,2,0,P|428:43|423:81,1,71,0|8,0:0|0:0,0:0:0:0:
411,224,214210,6,0,P|352:222|294:163,1,142,4|0,0:0|0:0,0:0:0:0:
220,126,214742,2,0,P|179:139|148:154,1,71,8|0,0:0|0:0,0:0:0:0:
75,116,215097,2,0,P|55:154|43:186,1,71,8|0,0:0|0:0,0:0:0:0:
77,259,215452,1,4,0:0:0:0:
211,225,215630,5,0,0:0:0:0:
211,225,215719,1,0,0:0:0:0:
211,225,215807,2,0,B|255:264|316:254|316:254|340:277,1,142,4|8,0:0|0:0,0:0:0:0:
384,110,216517,1,0,0:0:0:0:
450,163,216695,1,0,0:0:0:0:
482,84,216872,1,8,0:0:0:0:
372,186,217050,6,0,P|322:164|313:78,1,142,2|0,0:1|0:0,0:0:0:0:
237,39,217582,2,0,B|196:27|162:35|162:35|135:24|135:24|92:32,2,142,8|0|8,0:0|0:0|0:0,0:0:0:0:
309,84,218470,1,0,0:0:0:0:
364,18,218648,6,0,L|332:164,1,142,4|8,0:0|0:0,0:0:0:0:
267,313,219358,2,0,P|222:300|193:297,1,71,2|0,0:0|0:0,0:0:0:0:
198,298,219713,1,8,0:0:0:0:
252,231,219890,6,0,P|325:209|400:196,1,142,4|8,0:0|0:0,0:0:0:0:
418,103,220423,2,0,P|373:116|344:119,1,71,0|0,0:0|0:0,0:0:0:0:
256,64,220778,1,8,0:0:0:0:
154,240,221133,1,8,0:0:0:0:
333,305,221488,6,0,P|372:287|385:190,1,142,4|8,0:0|0:0,0:0:0:0:
339,127,222020,1,2,0:0:0:0:
339,127,222198,2,0,P|259:146|189:158,1,142,2|8,0:0|0:0,0:0:0:0:
145,221,222730,2,0,L|172:71,1,142,2|2,0:0|0:0,0:0:0:0:
92,46,223263,2,0,L|79:115,1,71,8|2,0:0|0:0,0:0:0:0:
68,200,223618,2,0,L|55:269,1,71,2|8,0:0|0:0,0:0:0:0:
96,344,223973,1,8,0:0:0:0:
256,256,224328,6,0,P|313:242|390:294,1,142,4|8,0:0|0:0,0:0:0:0:
444,340,224861,1,2,0:0:0:0:
444,340,225038,2,0,B|424:242|424:242|446:184,1,142,2|8,0:0|0:0,0:0:0:0:
473,124,225571,2,0,P|433:81|347:75,1,142,2|0,0:0|0:0,0:0:0:0:
291,130,226103,2,0,P|256:143|221:143,1,71,8|0,0:0|0:0,0:0:0:0:
141,17,226458,2,0,P|162:41|177:78,1,71,2|8,0:0|0:0,0:0:0:0:
148,186,226813,1,8,0:0:0:0:
298,309,227168,6,0,B|255:321|215:294|215:294|184:304|168:326,1,142,12|8,0:0|0:0,0:0:0:0:
89,351,227701,1,2,0:0:0:0:
27,292,227878,2,0,P|14:262|14:225,1,71,10|2,0:0|0:0,0:0:0:0:
68,158,228233,1,8,0:0:0:0:
148,186,228411,6,0,L|217:170,1,71,2|8,0:0|0:0,0:0:0:0:
281,113,228766,1,0,0:0:0:0:
341,218,228943,2,0,L|357:149,1,71,8|0,0:0|0:0,0:0:0:0:
444,53,229298,2,0,P|463:86|467:118,1,71,8|0,0:0|0:0,0:0:0:0:
434,204,229654,2,0,L|418:273,1,71,8|0,0:0|0:0,0:0:0:0:
317,347,230009,6,0,P|275:358|187:292,1,142,4|8,0:0|0:0,0:0:0:0:
143,242,230541,1,2,0:0:0:0:
274,276,230719,2,0,P|317:232|323:143,1,142,4|8,0:0|0:0,0:0:0:0:
212,79,231251,6,0,P|169:123|163:212,1,142,4|2,0:0|0:0,0:0:0:0:
194,310,231784,1,8,0:0:0:0:
274,276,231961,2,0,P|306:260|347:257,1,71,4|0,0:0|0:0,0:0:0:0:
421,283,232316,1,2,0:1:0:0:
402,182,232494,2,0,P|375:158|336:144,1,71,10|2,0:1|0:1,0:0:0:0:
226,168,232849,6,0,B|164:203|149:163|84:213,1,142,4|8,0:0|0:0,0:0:0:0:
16,360,233559,2,0,P|12:323|-1:287,2,71,8|0|8,0:0|0:0|0:0,0:0:0:0:
95,329,234091,2,0,P|167:328|239:356,1,142,2|0,0:1|0:0,0:0:0:0:
314,372,234624,1,8,0:0:0:0:
314,372,234801,2,0,L|335:224,1,142
342,146,235334,1,10,0:0:0:0:
464,27,235689,6,0,P|406:65|313:55,1,142,4|8,0:0|0:0,0:0:0:0:
260,23,236222,1,2,0:1:0:0:
189,70,236399,2,0,P|164:109|152:148,1,71,8|0,0:0|0:0,0:0:0:0:
195,207,236754,1,8,0:0:0:0:
270,247,236932,2,0,B|219:263|219:263|116:241,1,142,2|0,0:1|0:0,0:0:0:0:
51,219,237464,2,0,L|38:145,2,71,8|0|8,0:0|0:0|0:0,0:0:0:0:
72,301,237997,1,8,0:0:0:0:
132,244,238174,2,0,P|154:277|156:313,1,71,8|0,0:0|0:0,0:0:0:0:
222,362,238529,6,0,P|282:373|345:311,1,142,4|8,0:0|0:0,0:0:0:0:
427,177,239239,2,0,P|393:158|343:159,1,71,8|0,0:0|0:0,0:0:0:0:
276,166,239594,1,8,0:0:0:0:
225,97,239772,2,0,L|80:128,1,142,2|0,0:0|0:0,0:0:0:0:
67,43,240304,2,0,L|18:195,1,142,8|8,0:0|0:0,0:0:0:0:
23,263,240837,1,0,0:0:0:0:
106,248,241014,2,0,P|142:257|176:279,1,71,8|0,0:0|0:0,0:0:0:0:
238,328,241369,6,0,L|273:320,1,35.5,10|0,0:1|0:0,0:0:0:0:
312,337,241547,2,0,P|352:322|372:299,1,71,0|2,0:1|0:1,0:0:0:0:
398,205,241902,2,0,L|386:169,1,35.5,10|0,0:1|0:0,0:0:0:0:
363,134,242080,2,0,P|346:101|347:55,1,71,0|2,0:1|0:1,0:0:0:0:
426,45,242435,1,10,0:1:0:0:
289,11,242612,2,0,P|265:37|255:71,1,71,2|0,0:1|0:1,0:0:0:0:
264,156,242967,5,10,0:1:0:0:
174,192,243145,2,0,L|124:180,1,35.5,0|2,0:1|0:1,0:0:0:0:
97,175,243322,2,0,L|113:261,1,71,2|10,0:1|0:1,0:0:0:0:
192,268,243677,1,0,0:0:0:0:
274,291,243855,1,8,0:0:0:0:
355,314,244032,1,0,0:0:0:0:
435,342,244210,6,0,P|485:299|472:213,1,142,4|8,0:0|0:0,0:0:0:0:
391,83,244920,2,0,P|352:89|324:111,1,71,8|0,0:0|0:0,0:0:0:0:
245,133,245275,1,8,0:0:0:0:
189,68,245452,2,0,L|218:227,1,142,2|0,0:1|0:0,0:0:0:0:
285,254,245985,1,8,0:0:0:0:
285,254,246162,2,0,P|218:239|168:285,1,142,0|2,0:0|0:1,0:0:0:0:
100,337,246695,2,0,P|63:331|30:303,1,71,2|0,0:1|0:0,0:0:0:0:
45,226,247050,6,0,B|62:186|62:186|40:140|50:85,1,142,4|8,0:0|0:0,0:0:0:0:
121,45,247582,1,0,0:0:0:0:
177,108,247760,2,0,L|251:91,1,71,8|0,0:0|0:0,0:0:0:0:
329,74,248115,1,8,0:0:0:0:
329,74,248293,2,0,P|384:101|408:177,1,142,2|0,0:1|0:0,0:0:0:0:
462,239,248825,2,0,P|429:210|336:217,1,142,10|10,0:1|0:1,0:0:0:0:
266,265,249358,1,0,0:0:0:0:
266,265,249535,2,0,L|189:280,1,71,8|8,0:0|0:0,0:0:0:0:
125,326,249890,6,0,B|97:295|97:295|118:192,1,142,4|8,0:0|0:0,0:0:0:0:
212,56,250600,2,0,P|176:39|131:40,2,71,8|0|8,0:0|0:0|0:0,0:0:0:0:
279,107,251133,2,0,P|349:120|441:114,1,142,2|0,0:1|0:0,0:0:0:0:
472,51,251665,2,0,L|446:197,1,142,8|8,0:0|0:0,0:0:0:0:
438,275,252198,1,2,0:1:0:0:
360,240,252375,2,0,P|317:240|286:258,1,71,10|0,0:1|0:0,0:0:0:0:
219,297,252730,5,10,0:1:0:0:
162,232,252908,2,0,L|128:221,2,35.5,0|2|0,0:1|0:1|0:1,0:0:0:0:
235,188,253263,2,0,L|210:110,1,71,10|0,0:1|0:1,0:0:0:0:
231,81,253529,2,0,L|243:37,1,35.5,2|2,0:1|0:1,0:0:0:0:
350,29,253796,2,0,P|390:32|421:50,1,71,10|0,0:1|0:1,0:0:0:0:
431,87,254063,2,0,L|440:121,1,35.5,2|0,0:1|0:1,0:0:0:0:
456,204,254328,5,10,0:1:0:0:
371,257,254506,1,2,0:1:0:0:
336,262,254594,1,2,0:1:0:0:
301,269,254683,2,0,L|257:257,3,35.5,2|2|10|2,0:1|0:1|0:1|0:1,0:0:0:0:
234,275,255038,2,0,L|190:263,3,35.5,10|2|2|2,0:1|0:1|0:1|0:1,0:0:0:0:
165,255,255393,1,4,0:0:0:0:
256,192,255571,12,0,258588,0:0:0:0:
