osu file format v14

[General]
AudioFilename: understand.mp3
AudioLeadIn: 0
PreviewTime: 57553
Countdown: 0
SampleSet: Soft
StackLeniency: 0.5
Mode: 0
LetterboxInBreaks: 0
WidescreenStoryboard: 0

[Editor]
Bookmarks: 83736,92257,232849,241369
DistanceSpacing: 0.8
BeatDivisor: 4
GridSize: 32
TimelineZoom: 1.9

[Metadata]
Title:Understand? Understand!
TitleUnicode:Understand? Understand!
Artist:Kousaka Umi (CV.Ueda Reina) x Tanaka Kotoha (CV.Taneda Risa)
ArtistUnicode:高坂海美 (CV.上田麗奈)×田中琴葉 (CV.種田梨沙)
Creator:Setz
Version:Karia's INS@NE
Source:アイドルマスター ミリオンライブ!
Tags:THE IDOLM@STER Million Live imas im@s THE@TER DREAMERS 06 idolmaster Karia Momochikun Doormat うえしゃま
BeatmapID:969665
BeatmapSetID:437279

[Difficulty]
HPDrainRate:6
CircleSize:4
OverallDifficulty:7.8
ApproachRate:9
SliderMultiplier:1.7
SliderTickRate:1

[Events]
//Background and Video events
0,0,"imasbg2.jpg",0,0
//Break Periods
2,83936,91657
2,233049,240769
//Storyboard Layer 0 (Background)
//Storyboard Layer 1 (Fail)
//Storyboard Layer 2 (Pass)
//Storyboard Layer 3 (Foreground)
//Storyboard Sound Samples

[TimingPoints]
-49,355.029585798817,4,2,5,30,1,0
838,-133.333333333333,4,2,5,30,0,0
1371,-133.333333333333,4,2,5,40,0,0
3323,-100,4,2,5,40,0,0
3678,-133.333333333333,4,2,5,40,0,0
9004,-100,4,2,5,40,0,0
9359,-133.333333333333,4,2,5,40,0,0
12199,-100,4,2,5,60,0,0
12732,-100,4,2,5,70,0,0
23915,-200,4,2,5,70,0,0
24270,-200,4,2,5,5,0,0
24980,-100,4,2,5,70,0,0
25513,-117.647058823529,4,2,5,60,0,0
31193,-142.857142857143,4,2,5,70,0,0
34033,-117.647058823529,4,2,5,60,0,0
35187,-117.647058823529,4,2,5,5,0,0
35276,-117.647058823529,4,2,5,60,0,0
36341,-117.647058823529,4,2,5,5,0,0
36430,-117.647058823529,4,2,5,60,0,0
36696,-117.647058823529,4,2,5,30,0,0
36785,-117.647058823529,4,2,5,60,0,0
39714,-142.857142857143,4,2,5,70,0,0
45394,355.029585798817,3,2,5,60,1,0
45394,-133.333333333333,3,2,5,60,0,0
49299,-83.3333333333333,3,2,5,60,0,0
49565,-100,3,2,5,5,0,0
49654,355.029585798817,4,2,5,65,1,0
49654,-111.111111111111,4,2,5,65,0,0
57109,-200,4,2,5,70,0,0
57198,-200,4,2,5,5,0,0
57997,-100,4,2,5,80,0,1
58529,-66.6666666666667,4,2,5,80,0,1
58707,-100,4,2,5,80,0,1
59949,-66.6666666666667,4,2,5,80,0,1
60127,-100,4,2,5,80,0,1
69269,-100,4,2,5,80,0,0
69358,-100,4,2,5,80,0,1
69890,-66.6666666666667,4,2,5,80,0,1
70068,-100,4,2,5,80,0,1
71310,-66.6666666666667,4,2,5,80,0,1
71488,-100,4,2,5,80,0,1
80896,-117.647058823529,4,2,5,70,0,0
83026,-100,4,2,5,70,0,0
94920,-200,4,2,5,70,0,0
95097,-200,4,2,5,5,0,0
95985,-200,4,2,5,70,0,0
96517,-111.111111111111,4,2,5,65,0,0
105038,-100,4,2,5,65,0,0
110719,-142.857142857143,4,2,5,70,0,0
116399,-111.111111111111,4,2,5,70,0,0
126162,-100,4,2,5,70,0,0
126872,-133.333333333333,4,2,5,60,0,0
127405,-90.9090909090909,4,2,5,70,0,0
127760,-111.111111111111,4,2,5,70,0,0
130245,-90.9090909090909,4,2,5,70,0,0
130600,-111.111111111111,4,2,5,70,0,0
133085,-80,4,2,5,70,0,0
133440,-111.111111111111,4,2,5,70,0,0
144624,-100,4,2,5,80,0,1
145156,-66.6666666666667,4,2,5,80,0,1
145511,-100,4,2,5,80,0,1
146577,-66.6666666666667,4,2,5,80,0,1
146932,-100,4,2,5,80,0,1
155896,-100,4,2,5,80,0,0
155985,-100,4,2,5,80,0,1
156517,-66.6666666666667,4,2,5,80,0,1
156872,-100,4,2,5,80,0,1
157938,-66.6666666666667,4,2,5,80,0,1
158293,-100,4,2,5,80,0,1
167523,-111.111111111111,4,2,5,70,0,0
195038,-83.3333333333333,4,2,5,70,0,0
195926,-111.111111111111,4,2,5,60,0,0
198588,-100,4,2,5,80,0,1
199121,-66.6666666666667,4,2,5,80,0,1
199476,-100,4,2,5,80,0,1
200541,-66.6666666666667,4,2,5,80,0,1
200896,-100,4,2,5,80,0,1
209861,-100,4,2,5,80,0,0
209949,-100,4,2,5,80,0,1
210482,-66.6666666666667,4,2,5,80,0,1
210837,-100,4,2,5,80,0,1
211902,-66.6666666666667,4,2,5,80,0,1
212257,-100,4,2,5,80,0,1
221488,-117.647058823529,4,2,5,70,0,0
223884,-117.647058823529,4,2,5,5,0,0
223973,-117.647058823529,4,2,5,70,0,0
232316,-100,4,2,5,70,0,0
243855,-80,4,2,5,70,0,0
244210,-100,4,2,5,70,0,0
256991,-100,4,2,5,60,0,0
257346,-100,4,2,5,50,0,0
257701,-100,4,2,5,40,0,0
258056,-100,4,2,5,30,0,0
258411,-100,4,2,5,20,0,0
258588,-100,4,2,5,10,0,0

[Colours]
Combo1 : 0,128,255
Combo2 : 255,128,192
Combo3 : 128,128,255
Combo4 : 255,128,128
Combo5 : 255,255,128

[HitObjects]
408,85,838,5,0,0:0:0:0:
408,85,1016,1,0,0:0:0:0:
408,85,1193,1,0,0:0:0:0:
408,85,1371,6,0,L|392:163,1,63.7500024318696
254,205,1726,2,0,L|324:190,1,63.7500024318696,2|0,0:0|0:0,0:0:0:0:
208,85,2081,2,0,L|278:96,1,63.7500024318696
137,189,2436,1,2,0:0:0:0:
72,81,2613,6,0,P|61:48|109:75,1,127.500004863739
133,198,3146,1,2,0:0:0:0:
66,90,3323,6,0,P|55:38|103:92,1,170
131,209,3856,1,2,0:0:0:0:
131,209,4033,2,0,L|52:194,1,63.7500024318696
197,269,4388,5,0,0:0:0:0:
253,208,4566,1,2,0:0:0:0:
311,265,4743,1,0,0:0:0:0:
375,212,4921,2,0,B|407:209|407:209|450:226,1,63.7500024318696
311,265,5276,1,2,0:0:0:0:
326,138,5453,6,0,L|311:265,1,127.500004863739
174,189,5986,1,2,0:0:0:0:
187,270,6164,2,0,L|177:207,1,63.7500024318696
70,105,6519,5,0,0:0:0:0:
70,105,6696,1,0,0:0:0:0:
70,105,6874,1,0,0:0:0:0:
70,105,7051,6,0,P|105:104|146:81,1,63.7500024318696
253,162,7406,2,0,P|223:150|191:149,1,63.7500024318696,2|0,0:0|0:0,0:0:0:0:
321,110,7761,2,0,P|356:109|397:86,1,63.7500024318696
235,58,8116,1,2,0:0:0:0:
362,186,8294,6,0,P|373:211|322:190,1,127.500004863739
243,49,8826,1,2,0:0:0:0:
365,178,9004,6,0,P|382:215|316:185,1,170
252,36,9536,1,2,0:0:0:0:
252,36,9714,1,0,0:0:0:0:
131,148,9891,6,0,P|168:143|199:139,1,63.7500024318696
49,162,10246,1,2,0:0:0:0:
165,31,10424,1,0,0:0:0:0:
157,25,10779,1,0,0:0:0:0:
242,185,10957,1,2,0:0:0:0:
39,155,11134,6,0,L|166:135,1,127.500004863739
39,155,11666,1,2,0:0:0:0:
233,194,11844,1,0,0:0:0:0:
233,194,12199,6,0,L|226:245,1,42.5,2|2,0:0|0:0,0:0:0:0:
246,111,12377,1,8,0:0:0:0:
246,111,12732,6,0,P|227:73|232:22,1,85,12|2,0:0|0:0,0:0:0:0:
315,168,13087,2,0,P|307:212|299:266,1,85,8|2,0:0|0:0,0:0:0:0:
348,79,13442,1,8,0:0:0:0:
226,190,13619,1,2,0:0:0:0:
402,163,13797,1,8,0:0:0:0:
242,93,13974,1,2,0:0:0:0:
419,54,14152,6,0,L|412:104|405:154,1,85,8|2,0:0|0:0,0:0:0:0:
309,279,14507,1,8,0:0:0:0:
448,239,14684,1,2,0:0:0:0:
274,197,14862,1,8,0:0:0:0:
274,197,15039,1,2,0:0:0:0:
448,239,15217,2,0,P|404:239|357:258,1,85,8|2,0:0|0:0,0:0:0:0:
182,220,15572,6,0,P|226:220|273:201,1,85,8|2,0:0|0:0,0:0:0:0:
383,341,15927,2,0,P|343:322|292:319,1,85,8|2,0:0|0:0,0:0:0:0:
136,361,16282,1,8,0:0:0:0:
190,201,16459,1,0,0:0:0:0:
228,330,16637,1,8,0:0:0:0:
58,280,16814,6,0,P|101:275|155:268,1,85,2|8,0:0|0:0,0:0:0:0:
58,280,17169,1,2,0:0:0:0:
226,281,17347,2,0,P|183:275|141:269,1,85,8|2,0:0|0:0,0:0:0:0:
315,228,17702,1,8,0:0:0:0:
210,359,17879,1,2,0:0:0:0:
162,187,18057,1,8,0:0:0:0:
162,187,18146,1,8,0:0:0:0:
162,187,18235,1,2,0:0:0:0:
316,318,18412,6,0,P|359:325|407:303,1,85,12|2,0:0|0:0,0:0:0:0:
220,250,18767,2,0,L|229:296|238:342,1,85,8|2,0:0|0:0,0:0:0:0:
197,158,19122,1,8,0:0:0:0:
110,313,19300,1,0,0:0:0:0:
11,185,19477,1,8,0:0:0:0:
186,230,19655,6,0,P|145:237|96:244,1,85,2|8,0:0|0:0,0:0:0:0:
268,161,20010,1,2,0:0:0:0:
181,315,20187,1,8,0:0:0:0:
181,315,20365,1,2,0:0:0:0:
28,229,20542,2,0,P|12:185|22:137,1,85,8|2,0:0|0:0,0:0:0:0:
87,348,20897,2,0,P|96:301|105:253,1,85,8|2,0:0|0:0,0:0:0:0:
139,96,21252,5,8,0:0:0:0:
139,96,21341,1,8,0:0:0:0:
139,96,21430,2,0,P|142:122|156:151,3,42.5,2|0|2|0,0:0|0:0|0:0|0:0,0:0:0:0:
207,226,21785,5,8,0:0:0:0:
207,226,21874,1,8,0:0:0:0:
207,226,21963,2,0,P|215:206|220:185,3,42.5,2|0|2|0,0:0|0:0|0:0|0:0,0:0:0:0:
120,285,22317,5,8,0:0:0:0:
120,285,22406,1,8,0:0:0:0:
120,285,22495,2,0,L|165:295,1,42.5,2|0,0:0|0:0,0:0:0:0:
228,347,22672,2,0,L|270:342,1,42.5,2|0,0:0|0:0,0:0:0:0:
337,289,22850,5,2,0:0:0:0:
357,257,22939,1,2,0:0:0:0:
348,221,23027,1,8,0:0:0:0:
317,202,23116,1,2,0:0:0:0:
281,211,23205,1,2,0:0:0:0:
262,244,23294,1,2,0:0:0:0:
277,279,23382,6,0,P|301:274|325:268,2,42.5,2|2|0,0:0|0:0|0:0,0:0:0:0:
195,341,23649,2,0,P|215:345|236:350,2,42.5,2|2|0,0:0|0:0|0:0,0:0:0:0:
111,288,23915,6,0,B|57:166|180:165|113:41,1,255,2|2,0:0|0:0,0:0:0:0:
115,45,25158,6,0,P|109:84|135:138,1,85,8|0,0:0|0:0,0:0:0:0:
264,219,25513,6,0,L|184:231,1,72.2500013780594,12|0,0:0|0:0,0:0:0:0:
342,203,25868,2,0,P|355:167|346:107,1,72.2500013780594
317,280,26223,2,0,P|317:315|330:349,1,72.2500013780594
408,350,26489,2,0,P|428:302|374:257,1,108.375002067089
482,135,26933,6,0,P|489:180|494:217,1,72.2500013780594
403,112,27288,2,0,P|410:157|415:194,1,72.2500013780594
509,292,27643,2,0,P|475:287|430:279,1,72.2500013780594
437,280,27909,1,0,0:0:0:0:
437,280,27998,1,0,0:0:0:0:
312,364,28175,1,0,0:0:0:0:
312,364,28264,1,0,0:0:0:0:
312,364,28353,6,0,P|346:359|391:351,1,72.2500013780594
249,302,28708,2,0,P|234:271|234:228,1,72.2500013780594
339,138,29063,2,0,P|343:173|332:207,1,72.2500013780594
332,207,29329,1,0,0:0:0:0:
332,207,29418,1,0,0:0:0:0:
241,95,29595,1,0,0:0:0:0:
163,227,29773,5,0,0:0:0:0:
247,183,29951,1,0,0:0:0:0:
84,176,30128,1,0,0:0:0:0:
168,132,30306,1,0,0:0:0:0:
79,271,30483,1,0,0:0:0:0:
79,271,31193,6,0,P|45:229|79:160,1,118.999996368408,4|0,0:0|0:0,0:0:0:0:
62,171,31726,1,2,0:0:0:0:
157,293,31903,2,0,P|216:285|278:276,1,118.999996368408,8|0,0:0|0:0,0:0:0:0:
330,206,32436,1,2,0:0:0:0:
386,345,32613,6,0,L|394:312,2,29.7499990921021,2|0|0,0:0|0:0|0:0,0:0:0:0:
337,203,32968,2,0,L|341:234,2,29.7499990921021,2|0|0,0:0|0:0|0:0,0:0:0:0:
280,343,33323,2,0,L|288:310,1,29.7499990921021,8|0,0:0|0:0,0:0:0:0:
240,247,33501,1,2,0:0:0:0:
174,337,33678,2,0,L|182:304,1,29.7499990921021,8|0,0:0|0:0,0:0:0:0:
134,241,33856,1,2,0:0:0:0:
66,348,34033,6,0,P|51:317|56:271,1,72.2500013780594,4|0,0:0|0:0,0:0:0:0:
152,162,34388,2,0,P|156:197|144:230,1,72.2500013780594
23,114,34743,2,0,P|57:109|107:101,1,72.2500013780594
169,64,35010,2,0,P|204:69|240:74,1,72.2500013780594
290,141,35276,1,0,0:0:0:0:
360,28,35453,6,0,L|369:106,1,72.2500013780594
448,185,35808,1,0,0:0:0:0:
282,152,35986,1,0,0:0:0:0:
282,152,36075,1,0,0:0:0:0:
282,152,36164,2,0,L|274:233,1,72.2500013780594
211,267,36430,2,0,P|168:259|214:258,1,108.375002067089
216,282,36785,6,0,P|212:243|206:163,1,108.375002067089
117,102,37229,2,0,P|122:142|127:181,1,72.2500013780594
14,271,37584,2,0,P|52:268|84:252,1,72.2500013780594
2,281,37850,2,0,P|56:291|124:302,1,108.375002067089
245,232,38294,5,0,0:0:0:0:
183,341,38471,1,0,0:0:0:0:
141,208,38649,1,0,0:0:0:0:
193,330,38826,1,0,0:0:0:0:
234,154,39004,1,0,0:0:0:0:
234,154,39714,6,0,L|249:279,1,118.999996368408,4|0,0:0|0:0,0:0:0:0:
234,154,40246,1,2,0:0:0:0:
352,235,40424,2,0,L|368:151,1,59.4999981842042,8|0,0:0|0:0,0:0:0:0:
273,294,40779,6,0,B|348:245|348:245|440:283,1,178.499994552612,2|8,0:0|0:0,0:0:0:0:
329,362,41489,2,0,P|366:357|405:353,1,59.4999981842042,2|0,0:0|0:0,0:0:0:0:
257,307,41844,1,8,0:0:0:0:
257,307,42022,2,0,P|227:310|197:314,1,59.4999981842042
19,325,42377,1,8,0:0:0:0:
188,301,42554,6,0,L|325:285,1,118.999996368408,4|0,0:0|0:0,0:0:0:0:
188,301,43087,1,2,0:0:0:0:
217,156,43264,2,0,L|203:226,1,59.4999981842042,8|0,0:0|0:0,0:0:0:0:
61,143,43619,6,0,P|120:100|212:139,1,178.499994552612,2|8,0:0|0:0,0:0:0:0:
107,23,44329,2,0,L|117:85,1,59.4999981842042,2|0,0:0|0:0,0:0:0:0:
152,239,44684,1,8,0:0:0:0:
17,181,44862,1,2,0:0:0:0:
152,239,45039,2,0,P|119:250|79:247,1,59.4999981842042,8|0,0:0|0:0,0:0:0:0:
217,193,45394,6,0,P|270:226|339:201,2,127.500004863739,6|0|0,0:0|0:0|0:0,0:0:0:0:
190,91,46281,1,0,0:0:0:0:
190,91,46459,6,0,L|203:222,1,127.500004863739
202,217,47169,2,0,L|132:206,1,63.7500024318696
263,277,47524,6,0,B|225:299|225:299|131:284,1,127.500004863739,2|0,0:0|0:0,0:0:0:0:
56,202,48056,1,0,0:0:0:0:
56,202,48234,2,0,P|63:247|67:282,1,63.7500024318696
158,134,48589,6,0,P|151:179|147:214,1,63.7500024318696
101,44,48944,1,0,0:0:0:0:
243,133,49121,1,0,0:0:0:0:
243,133,49210,1,0,0:0:0:0:
243,133,49299,2,0,P|285:119|223:91,1,152.999995330811
236,149,49654,6,0,P|277:154|325:159,1,76.4999976654053,4|0,0:0|0:0,0:0:0:0:
417,54,50009,1,2,0:0:0:0:
412,79,50097,1,0,0:0:0:0:
408,105,50186,1,0,0:0:0:0:
347,229,50364,1,2,0:0:0:0:
483,195,50541,2,0,L|496:277,1,76.4999976654053,0|2,0:0|0:0,0:0:0:0:
402,135,50896,6,0,P|366:118|311:123,1,76.4999976654053,0|2,0:0|0:0,0:0:0:0:
199,201,51251,1,0,0:0:0:0:
199,201,51340,1,0,0:0:0:0:
199,201,51429,2,0,P|244:192|277:185,1,76.4999976654053,2|0,0:0|0:0,0:0:0:0:
112,233,51784,1,2,0:0:0:0:
279,269,51961,1,2,0:0:0:0:
108,319,52139,1,2,0:0:0:0:
296,357,52316,6,0,P|220:348|144:338,1,152.999995330811,4|0,0:0|0:0,0:0:0:0:
17,235,52849,2,0,P|25:284|30:316,1,76.4999976654053,2|0,0:0|0:0,0:0:0:0:
113,155,53204,1,2,0:0:0:0:
113,155,53381,2,0,P|108:204|104:236,1,76.4999976654053,0|2,0:0|0:0,0:0:0:0:
16,70,53736,6,0,P|24:119|29:151,1,76.4999976654053,0|2,0:0|0:0,0:0:0:0:
198,92,54091,1,0,0:0:0:0:
198,92,54268,2,0,P|193:141|189:173,1,76.4999976654053,2|0,0:0|0:0,0:0:0:0:
83,280,54624,2,0,B|156:256|156:256|190:285,2,114.749996498108,2|2|2,0:0|0:0|0:0,0:0:0:0:
244,227,55334,5,12,0:0:0:0:
191,359,55511,1,2,0:0:0:0:
366,326,55689,1,8,0:0:0:0:
269,309,55867,1,2,0:0:0:0:
444,267,56044,1,8,0:0:0:0:
332,371,56222,1,0,0:0:0:0:
386,188,56399,5,8,0:0:0:0:
386,188,56488,1,8,0:0:0:0:
386,188,56577,1,2,0:0:0:0:
455,366,56754,1,8,0:0:0:0:
455,366,56843,1,8,0:0:0:0:
455,366,56932,1,2,0:0:0:0:
244,306,57109,6,0,L|443:280,1,191.25,8|0,0:0|0:0,0:0:0:0:
492,219,57997,6,0,P|505:181|489:129,1,85,4|0,0:0|0:0,0:0:0:0:
430,292,58352,1,0,0:0:0:0:
485,131,58529,6,0,P|494:206|502:269,1,127.500004863739,8|0,0:0|0:0,0:0:0:0:
402,98,58884,5,2,0:0:0:0:
338,218,59062,1,0,0:0:0:0:
298,58,59239,1,8,0:0:0:0:
168,180,59417,6,0,P|203:161|263:172,1,85,0|2,0:0|0:0,0:0:0:0:
97,237,59772,1,0,0:0:0:0:
262,169,59949,6,0,P|192:160|124:152,1,127.500004863739,8|0,0:0|0:0,0:0:0:0:
327,113,60304,5,2,0:0:0:0:
250,261,60482,1,0,0:0:0:0:
222,83,60659,1,8,0:0:0:0:
340,201,60837,1,0,0:0:0:0:
129,190,61014,6,0,P|199:181|276:171,1,127.5,2|0,0:0|0:0,0:0:0:0:
275,253,61369,2,0,P|205:262|128:272,1,127.5,8|0,0:0|0:0,0:0:0:0:
68,251,61725,1,2,0:0:0:0:
178,99,61902,2,0,L|200:205,1,85,0|8,0:0|0:0,0:0:0:0:
178,99,62257,1,0,0:0:0:0:
177,265,62435,6,0,L|195:182,1,85,2|0,0:0|0:0,0:0:0:0:
114,332,62790,1,8,0:0:0:0:
262,292,62967,1,2,0:0:0:0:
98,220,63145,1,8,0:0:0:0:
262,292,63322,1,2,0:0:0:0:
164,140,63500,1,8,0:0:0:0:
262,292,63677,1,0,0:0:0:0:
306,104,63855,6,0,L|283:207,1,85,4|0,0:0|0:0,0:0:0:0:
167,52,64210,2,0,P|204:34|263:49,1,85,8|0,0:0|0:0,0:0:0:0:
100,104,64565,1,2,0:0:0:0:
100,104,64742,1,0,0:0:0:0:
265,45,64920,1,8,0:0:0:0:
226,216,65097,6,0,L|205:123,1,85,0|2,0:0|0:0,0:0:0:0:
388,188,65452,1,0,0:0:0:0:
347,23,65630,2,0,L|328:105,1,85,8|0,0:0|0:0,0:0:0:0:
239,230,65985,1,2,0:0:0:0:
412,193,66162,1,0,0:0:0:0:
412,193,66251,1,0,0:0:0:0:
412,193,66340,2,0,L|428:299,1,85,8|0,0:0|0:0,0:0:0:0:
397,110,66695,5,2,0:0:0:0:
397,110,66872,1,0,0:0:0:0:
321,245,67050,1,8,0:0:0:0:
321,245,67227,1,0,0:0:0:0:
186,111,67405,5,2,0:0:0:0:
328,162,67582,1,0,0:0:0:0:
143,197,67760,1,8,0:0:0:0:
285,74,67938,1,0,0:0:0:0:
209,264,68115,5,8,0:0:0:0:
101,100,68293,1,8,0:0:0:0:
252,176,68470,1,8,0:0:0:0:
50,200,68648,1,8,0:0:0:0:
173,48,68825,5,0,0:0:0:0:
173,48,69003,2,0,L|186:150,1,85,2|2,0:0|0:0,0:0:0:0:
94,326,69358,6,0,P|40:293|83:192,1,170,4|0,0:0|0:0,0:0:0:0:
178,355,69890,6,0,P|188:288|198:218,1,127.500004863739,8|0,0:0|0:0,0:0:0:0:
227,48,70245,5,2,0:0:0:0:
281,176,70423,1,0,0:0:0:0:
125,103,70600,1,8,0:0:0:0:
281,176,70778,6,0,P|240:185|190:195,1,85,2|0,0:0|0:0,0:0:0:0:
117,160,71133,1,0,0:0:0:0:
297,188,71310,6,0,P|324:256|277:311,1,127.500004863739,8|0,0:0|0:0,0:0:0:0:
384,142,71665,5,2,0:0:0:0:
250,243,71843,1,0,0:0:0:0:
393,332,72020,1,8,0:0:0:0:
384,142,72198,6,0,P|376:214|363:325,1,170,2|0,0:0|0:0,0:0:0:0:
301,153,72730,2,0,P|264:142|214:164,1,85,8|0,0:0|0:0,0:0:0:0:
100,65,73085,2,0,P|107:111|114:155,1,85,2|0,0:0|0:0,0:0:0:0:
150,314,73440,1,8,0:0:0:0:
124,147,73618,6,0,L|106:230,1,85,0|2,0:0|0:0,0:0:0:0:
39,287,73973,1,0,0:0:0:0:
196,238,74151,2,0,P|245:241|274:271,1,85,8|0,0:0|0:0,0:0:0:0:
114,260,74506,1,8,0:0:0:0:
280,276,74683,1,2,0:0:0:0:
139,169,74861,1,8,0:0:0:0:
284,288,75038,1,0,0:0:0:0:
273,96,75216,6,0,L|252:190,1,85,4|0,0:0|0:0,0:0:0:0:
115,75,75571,2,0,L|121:114|128:158,1,85,8|0,0:0|0:0,0:0:0:0:
184,297,75926,1,2,0:0:0:0:
184,297,76103,1,0,0:0:0:0:
345,220,76281,1,8,0:0:0:0:
184,297,76458,6,0,L|278:318,1,85,0|2,0:0|0:0,0:0:0:0:
112,341,76813,1,0,0:0:0:0:
167,191,76991,2,0,L|181:281,1,85,8|0,0:0|0:0,0:0:0:0:
231,116,77346,2,0,P|272:97|325:118,1,85,2|0,0:0|0:0,0:0:0:0:
332,179,77612,1,0,0:0:0:0:
332,179,77701,2,0,P|291:198|238:177,1,85,2|0,0:0|0:0,0:0:0:0:
77,129,78056,6,0,P|140:79|220:112,2,170,2|8|2,0:0|0:0|0:0,0:0:0:0:
204,225,78943,1,0,0:0:0:0:
293,64,79121,1,8,0:0:0:0:
376,229,79298,6,0,P|448:260|501:193,1,170,4|8,0:0|0:0,0:0:0:0:
322,149,79831,1,2,0:0:0:0:
322,149,80009,1,2,0:0:0:0:
364,329,80186,1,8,0:0:0:0:
185,274,80364,1,8,0:0:0:0:
375,221,80541,1,8,0:0:0:0:
369,230,80896,6,0,L|219:213,1,144.500002756119,4|8,0:0|0:0,0:0:0:0:
101,114,81429,1,2,0:0:0:0:
101,114,81606,2,0,L|122:268,1,144.500002756119,2|8,0:0|0:0,0:0:0:0:
196,124,82139,6,0,P|251:80|327:127,1,144.500002756119,2|2,0:0|0:0,0:0:0:0:
389,222,82671,1,8,0:0:0:0:
430,63,82849,1,2,0:0:0:0:
279,173,83026,5,0,0:0:0:0:
279,173,83115,1,0,0:0:0:0:
279,173,83204,1,0,0:0:0:0:
279,173,83293,1,0,0:0:0:0:
279,173,83381,2,0,L|339:193,1,42.5,8|0,0:0|0:0,0:0:0:0:
424,131,83559,2,0,L|404:185,1,42.5
376,252,83736,5,12,0:0:0:0:
416,74,92257,5,8,0:0:0:0:
416,74,92346,1,8,0:0:0:0:
416,74,92435,2,0,P|441:69|471:57,3,42.5,2|2|0|0,0:0|0:0|0:0|0:0,0:0:0:0:
337,122,92790,5,8,0:0:0:0:
337,122,92878,1,8,0:0:0:0:
337,122,92967,2,0,P|317:116|296:109,3,42.5,2|2|0|0,0:0|0:0|0:0|0:0,0:0:0:0:
414,163,93322,5,8,0:0:0:0:
414,163,93411,1,8,0:0:0:0:
414,163,93500,2,0,L|406:209,1,42.5,2|2,0:0|0:0,0:0:0:0:
331,246,93677,2,0,L|336:288,1,42.5,2|2,0:0|0:0,0:0:0:0:
401,346,93855,5,2,0:0:0:0:
367,327,93943,1,2,0:0:0:0:
328,331,94032,1,10,0:0:0:0:
300,357,94121,1,2,0:0:0:0:
261,361,94210,1,2,0:0:0:0:
227,342,94298,1,2,0:0:0:0:
217,304,94387,6,0,P|222:280|227:255,2,42.5,2|2|0,0:0|0:0|0:0,0:0:0:0:
133,326,94654,2,0,P|135:346|138:367,2,42.5,2|2|0,0:0|0:0|0:0,0:0:0:0:
113,245,94920,6,0,P|20:202|48:299,1,255,2|2,0:0|0:0,0:0:0:0:
113,245,96162,1,8,0:0:0:0:
113,245,96517,5,4,0:0:0:0:
188,280,96695,1,0,0:0:0:0:
266,149,96872,2,0,P|260:189|256:227,1,76.4999976654053,4|0,0:3|0:0,0:0:0:0:
402,278,97227,2,0,L|279:298,1,114.749996498108
258,302,97582,2,0,L|351:321,1,76.4999976654053,4|0,0:3|0:0,0:0:0:0:
182,275,97938,5,0,0:0:0:0:
197,359,98115,1,0,0:0:0:0:
80,232,98293,2,0,L|97:324,1,76.4999976654053,4|0,0:3|0:0,0:0:0:0:
246,220,98648,1,0,0:0:0:0:
115,109,98825,2,0,L|106:174,1,38.2499988327027,8|0,0:0|0:0,0:0:0:0:
180,179,99003,2,0,L|185:141,1,38.2499988327027,8|0,0:0|0:0,0:0:0:0:
42,84,99180,6,0,B|32:141|32:141|44:180|44:180|31:240,1,152.999995330811,4|0,0:0|0:0,0:0:0:0:
179,193,99713,2,0,P|186:242|190:275,1,76.4999976654053,4|0,0:3|0:0,0:0:0:0:
338,183,100068,2,0,P|331:232|327:265,1,76.4999976654053
326,266,100334,1,0,0:0:0:0:
325,273,100423,1,4,0:3:0:0:
306,121,100600,6,0,L|325:280,1,152.999995330811
464,174,101133,2,0,B|426:162|426:162|369:187,1,76.4999976654053,4|0,0:3|0:0,0:0:0:0:
461,322,101488,1,2,0:0:0:0:
466,299,101577,1,2,0:0:0:0:
471,276,101665,1,2,0:0:0:0:
343,353,101843,1,4,0:3:0:0:
274,233,102020,1,0,0:0:0:0:
174,356,102198,6,0,B|134:379|134:379|22:354,1,152.999995330811,4|8,0:0|0:0,0:0:0:0:
174,356,102730,1,2,0:0:0:0:
91,210,102908,2,0,P|86:258|82:295,1,76.4999976654053,0|2,0:0|0:0,0:0:0:0:
104,118,103263,1,8,0:0:0:0:
226,233,103440,1,2,0:0:0:0:
341,100,103618,6,0,L|350:140,2,38.2499988327027,2|0|2,0:0|0:0|0:0,0:0:0:0:
219,220,103973,2,0,L|212:278,2,38.2499988327027,8|0|2,0:0|0:0|0:0,0:0:0:0:
380,273,104328,1,8,0:0:0:0:
380,273,104417,1,8,0:0:0:0:
380,273,104506,1,2,0:0:0:0:
226,339,104683,1,8,0:0:0:0:
226,339,104861,1,8,0:0:0:0:
380,273,105038,6,0,B|396:231|396:231|383:182,1,85,2|0,0:0|0:0,0:0:0:0:
305,42,105393,2,0,B|289:84|289:84|302:133,1,85,2|0,0:0|0:0,0:0:0:0:
486,92,105748,2,0,P|442:83|395:73,1,85,2|0,0:0|0:0,0:0:0:0:
397,68,106014,1,0,0:0:0:0:
391,61,106103,1,2,0:0:0:0:
285,198,106281,6,0,P|329:192|377:187,1,85,0|2,0:0|0:0,0:0:0:0:
221,128,106636,1,0,0:0:0:0:
191,216,106813,2,0,P|152:221|103:197,1,85,2|0,0:0|0:0,0:0:0:0:
25,45,107168,2,0,P|48:76|52:130,1,85,2|0,0:0|0:0,0:0:0:0:
18,189,107435,1,2,0:0:0:0:
18,189,108056,6,0,L|121:173,1,85,4|0,0:0|0:0,0:0:0:0:
182,101,108411,1,2,0:0:0:0:
229,261,108588,2,0,P|249:221|242:180,1,85,2|0,0:0|0:0,0:0:0:0:
166,179,108855,2,0,P|135:220|178:198,1,127.5,2|2,0:0|0:0,0:0:0:0:
308,62,109298,5,2,0:0:0:0:
376,223,109476,1,2,0:0:0:0:
425,43,109654,1,2,0:0:0:0:
300,202,109831,1,2,0:0:0:0:
468,117,110009,1,0,0:0:0:0:
477,124,110097,1,0,0:0:0:0:
470,134,110186,1,0,0:0:0:0:
458,127,110275,1,0,0:0:0:0:
467,126,110719,6,0,L|340:115,1,118.999996368408,4|0,0:0|0:0,0:0:0:0:
248,208,111251,1,2,0:0:0:0:
194,74,111429,2,0,P|184:107|186:147,1,59.4999981842042,8|0,0:0|0:0,0:0:0:0:
183,248,111784,6,0,P|178:181|169:58,1,178.499994552612,2|8,0:0|0:0,0:0:0:0:
46,128,112494,2,0,P|51:165|68:204,1,59.4999981842042,2|0,0:0|0:0,0:0:0:0:
158,63,112849,1,8,0:0:0:0:
220,129,113026,2,0,P|251:126|282:114,1,59.4999981842042
158,63,113381,1,8,0:0:0:0:
338,142,113559,6,0,L|198:125,1,118.999996368408,4|0,0:0|0:0,0:0:0:0:
370,67,114091,1,2,0:0:0:0:
422,186,114269,2,0,L|432:127,1,59.4999981842042,8|0,0:0|0:0,0:0:0:0:
379,293,114624,6,0,B|339:259|339:259|319:127,1,178.499994552612,2|8,0:0|0:0,0:0:0:0:
248,238,115334,2,0,L|188:249,1,59.4999981842042,2|0,0:0|0:0,0:0:0:0:
57,191,115689,1,8,0:0:0:0:
112,329,115867,1,2,0:0:0:0:
57,191,116044,2,0,P|52:227|45:268,1,59.4999981842042,8|0,0:0|0:0,0:0:0:0:
140,80,116399,6,0,P|149:139|159:205,1,114.749996498108,4|0,0:0|0:0,0:0:0:0:
217,247,116754,2,0,P|236:206|232:166,1,76.4999976654053,8|0,0:0|0:0,0:0:0:0:
139,275,117109,1,2,0:0:0:0:
139,275,117287,1,0,0:0:0:0:
311,237,117464,1,8,0:0:0:0:
203,334,117642,1,0,0:0:0:0:
311,237,117819,5,2,0:0:0:0:
416,338,117997,1,0,0:0:0:0:
416,338,118085,1,0,0:0:0:0:
416,338,118174,2,0,B|430:302|430:302|423:260,1,76.4999976654053,8|0,0:0|0:0,0:0:0:0:
356,155,118529,1,2,0:0:0:0:
507,175,118707,1,0,0:0:0:0:
507,175,118796,1,0,0:0:0:0:
507,175,118884,2,0,L|424:191,1,76.4999976654053,8|0,0:0|0:0,0:0:0:0:
267,226,119239,6,0,P|232:190|247:131,1,114.749996498108,4|0,0:0|0:0,0:0:0:0:
326,120,119594,2,0,P|341:159|341:200,1,76.4999976654053,8|0,0:0|0:0,0:0:0:0:
228,297,119949,1,2,0:0:0:0:
142,198,120127,1,0,0:0:0:0:
255,298,120304,1,8,0:0:0:0:
89,326,120482,1,0,0:0:0:0:
145,177,120659,5,2,0:0:0:0:
187,334,120837,1,0,0:0:0:0:
187,334,120926,1,0,0:0:0:0:
187,334,121014,1,8,0:0:0:0:
240,173,121192,1,8,0:0:0:0:
143,260,121369,1,2,0:0:0:0:
307,220,121547,1,8,0:0:0:0:
307,220,121636,1,0,0:0:0:0:
307,220,121725,2,0,P|312:269|296:301,1,76.4999976654053,8|0,0:0|0:0,0:0:0:0:
404,147,122080,6,0,P|395:213|449:249,1,114.749996498108,4|0,0:0|0:0,0:0:0:0:
505,259,122435,2,0,L|421:272,1,76.4999976654053,8|0,0:0|0:0,0:0:0:0:
279,197,122790,2,0,L|363:210,1,76.4999976654053,2|0,0:0|0:0,0:0:0:0:
223,331,123145,2,0,P|188:291|223:221,1,114.749996498108,8|0,0:0|0:0,0:0:0:0:
263,183,123500,6,0,L|401:204,1,114.749996498108,2|0,0:0|0:0,0:0:0:0:
445,158,123855,2,0,P|461:122|452:79,1,76.4999976654053,8|0,0:0|0:0,0:0:0:0:
387,213,124210,1,2,0:0:0:0:
310,97,124387,1,0,0:0:0:0:
256,240,124565,2,0,P|218:245|184:229,1,76.4999976654053,8|0,0:0|0:0,0:0:0:0:
79,97,124920,6,0,P|86:148|91:186,1,76.4999976654053,2|0,0:0|0:0,0:0:0:0:
217,52,125275,2,0,P|207:102|200:140,1,76.4999976654053,8|0,0:0|0:0,0:0:0:0:
106,255,125630,1,2,0:0:0:0:
106,255,125807,1,0,0:0:0:0:
267,207,125985,1,8,0:0:0:0:
106,255,126162,6,0,P|188:246|286:233,1,170,8|8,0:0|0:0,0:0:0:0:
71,168,126695,1,0,0:0:0:0:
210,228,126872,6,0,B|156:202|156:202|102:244,1,127.500004863739,2|2,0:0|0:0,0:0:0:0:
141,63,127405,6,0,L|157:215,1,140.25000428009,8|0,0:0|0:0,0:0:0:0:
169,281,127760,5,4,0:0:0:0:
266,193,127938,1,0,0:0:0:0:
321,342,128115,2,0,P|362:346|396:325,1,76.4999976654053,8|0,0:0|0:0,0:0:0:0:
488,210,128470,2,0,P|482:251|474:300,1,76.4999976654053,2|0,0:0|0:0,0:0:0:0:
436,122,128825,1,8,0:0:0:0:
308,219,129003,6,0,P|348:215|389:210,1,76.4999976654053,0|2,0:0|0:0,0:0:0:0:
208,135,129358,2,0,P|248:131|289:126,1,76.4999976654053,0|8,0:0|0:0,0:0:0:0:
152,265,129713,1,0,0:0:0:0:
117,107,129890,1,2,0:0:0:0:
0,215,130068,1,0,0:0:0:0:
0,215,130156,1,0,0:0:0:0:
0,215,130245,6,0,P|56:206|157:189,1,140.25000428009,8|0,0:0|0:0,0:0:0:0:
216,213,130600,5,8,0:0:0:0:
174,81,130778,1,2,0:0:0:0:
174,81,130955,1,2,0:0:0:0:
299,226,131133,5,8,0:0:0:0:
337,71,131310,1,2,0:0:0:0:
337,71,131488,1,2,0:0:0:0:
375,260,131665,1,8,0:0:0:0:
460,88,131843,6,0,P|492:147|425:213,1,152.999995330811,2|2,0:0|0:0,0:0:0:0:
347,64,132375,1,8,0:0:0:0:
452,219,132553,2,0,P|390:211|294:200,1,152.999995330811,2|2,0:0|0:0,0:0:0:0:
135,111,133085,6,0,B|157:97|164:66|164:66|155:146|208:185,1,159.375,8|0,0:0|0:0,0:0:0:0:
259,201,133440,5,12,0:0:0:0:
106,180,133618,1,0,0:0:0:0:
260,281,133796,5,8,0:0:0:0:
70,255,133974,1,0,0:0:0:0:
230,358,134151,5,8,0:0:0:0:
77,337,134329,1,0,0:0:0:0:
173,218,134506,1,8,0:0:0:0:
230,358,134683,6,0,P|247:324|240:270,1,76.4999976654053,0|8,0:0|0:0,0:0:0:0:
151,156,135038,1,0,0:0:0:0:
151,156,135216,2,0,P|150:193|167:227,1,76.4999976654053,8|0,0:0|0:0,0:0:0:0:
228,70,135571,5,8,0:0:0:0:
73,136,135748,1,2,0:0:0:0:
228,70,135926,1,8,0:0:0:0:
31,40,136103,6,0,P|106:12|119:82,1,152.999995330811,4|2,0:0|0:0,0:0:0:0:
15,200,136636,1,8,0:0:0:0:
166,152,136813,1,8,0:0:0:0:
10,123,136991,1,8,0:0:0:0:
132,224,137168,1,8,0:0:0:0:
72,76,137346,1,8,0:0:0:0:
119,236,137523,1,8,0:0:0:0:
236,103,137701,5,8,0:0:0:0:
89,161,137878,1,8,0:0:0:0:
193,31,138056,1,8,0:0:0:0:
277,174,138233,1,8,0:0:0:0:
356,15,138411,2,0,P|392:65|360:126,2,114.749996498108,8|8|8,0:0|0:0|0:0,0:0:0:0:
227,145,139121,6,0,L|315:162,1,76.4999976654053,8|2,0:0|0:0,0:0:0:0:
133,70,139476,2,0,L|208:55,1,76.4999976654053,8|2,0:0|0:0,0:0:0:0:
137,218,139831,2,0,P|116:184|124:140,1,76.4999976654053,8|2,0:0|0:0,0:0:0:0:
234,272,140186,1,8,0:0:0:0:
77,309,140364,1,2,0:0:0:0:
234,272,140541,6,0,P|201:253|163:258,1,76.4999976654053,8|2,0:0|0:0,0:0:0:0:
321,343,140896,2,0,P|281:349|243:355,1,76.4999976654053,8|2,0:0|0:0,0:0:0:0:
426,274,141251,2,0,L|307:249,2,114.749996498108,8|8|8,0:0|0:0|0:0,0:0:0:0:
265,321,141961,5,2,0:0:0:0:
336,168,142139,1,2,0:0:0:0:
384,339,142316,1,2,0:0:0:0:
234,249,142494,1,2,0:0:0:0:
417,193,142671,5,8,0:0:0:0:
417,193,142760,1,8,0:0:0:0:
417,193,142849,1,2,0:0:0:0:
283,328,143026,1,8,0:0:0:0:
283,328,143115,1,8,0:0:0:0:
283,328,143204,1,2,0:0:0:0:
176,152,143381,5,2,0:0:0:0:
355,258,143559,1,2,0:0:0:0:
141,318,143736,1,2,0:0:0:0:
141,318,144624,6,0,P|138:280|134:228,1,85,4|0,0:0|0:0,0:0:0:0:
74,366,144979,1,0,0:0:0:0:
263,335,145156,6,0,P|218:296|139:326,1,127.500004863739,8|0,0:0|0:0,0:0:0:0:
289,176,145511,5,2,0:0:0:0:
347,326,145689,1,0,0:0:0:0:
405,158,145867,1,8,0:0:0:0:
238,262,146044,6,0,P|282:257|333:252,1,85,0|2,0:0|0:0,0:0:0:0:
172,199,146399,1,0,0:0:0:0:
341,243,146577,6,0,P|376:195|344:127,1,127.500004863739,8|0,0:0|0:0,0:0:0:0:
191,99,146932,5,2,0:0:0:0:
263,241,147109,1,0,0:0:0:0:
326,66,147287,1,8,0:0:0:0:
188,195,147464,1,0,0:0:0:0:
72,37,147642,6,0,P|81:107|91:184,1,127.5,2|0,0:0|0:0,0:0:0:0:
159,107,147997,2,0,P|219:77|278:120,1,127.5,8|0,0:0|0:0,0:0:0:0:
257,191,148352,2,0,P|217:206|161:177,1,85,2|0,0:0|0:0,0:0:0:0:
340,151,148707,1,8,0:0:0:0:
287,305,148884,1,0,0:0:0:0:
467,255,149062,6,0,L|477:344,1,85,2|0,0:0|0:0,0:0:0:0:
350,238,149417,1,8,0:0:0:0:
510,178,149594,1,2,0:0:0:0:
306,151,149772,1,8,0:0:0:0:
456,246,149949,1,2,0:0:0:0:
253,270,150127,1,8,0:0:0:0:
413,178,150304,1,0,0:0:0:0:
212,103,150482,6,0,P|223:156|231:192,1,85,4|0,0:0|0:0,0:0:0:0:
347,40,150837,2,0,P|339:82|329:129,1,85,8|0,0:0|0:0,0:0:0:0:
235,274,151192,1,2,0:0:0:0:
235,274,151369,1,0,0:0:0:0:
79,174,151547,1,8,0:0:0:0:
235,274,151725,6,0,L|136:289,1,85,0|2,0:0|0:0,0:0:0:0:
303,197,152080,1,0,0:0:0:0:
362,366,152257,2,0,P|380:333|370:276,1,85,8|0,0:0|0:0,0:0:0:0:
293,188,152612,1,2,0:0:0:0:
479,153,152790,1,0,0:0:0:0:
479,153,152878,1,0,0:0:0:0:
479,153,152967,2,0,P|474:198|465:258,1,85,8|0,0:0|0:0,0:0:0:0:
407,80,153322,5,2,0:0:0:0:
407,80,153500,1,0,0:0:0:0:
474,255,153677,1,8,0:0:0:0:
474,255,153855,1,0,0:0:0:0:
294,202,154032,5,2,0:0:0:0:
443,158,154210,1,0,0:0:0:0:
328,281,154387,1,8,0:0:0:0:
374,117,154565,1,0,0:0:0:0:
429,287,154742,5,8,0:0:0:0:
252,267,154920,1,8,0:0:0:0:
419,186,155097,1,8,0:0:0:0:
326,360,155275,1,8,0:0:0:0:
175,238,155452,5,0,0:0:0:0:
175,238,155630,2,0,L|166:337,1,85,2|2,0:0|0:0,0:0:0:0:
0,197,155985,6,0,P|40:146|134:186,1,170,4|0,0:0|0:0,0:0:0:0:
293,256,156517,6,0,P|235:281|181:240,1,127.500004863739,8|0,0:0|0:0,0:0:0:0:
358,179,156872,5,2,0:0:0:0:
305,341,157050,1,0,0:0:0:0:
244,174,157227,1,8,0:0:0:0:
198,356,157405,6,0,P|191:316|182:264,1,85,2|0,0:0|0:0,0:0:0:0:
88,131,157760,1,0,0:0:0:0:
282,163,157938,6,0,P|225:177|141:197,1,127.500004863739,8|0,0:0|0:0,0:0:0:0:
340,238,158293,5,2,0:0:0:0:
274,74,158470,1,0,0:0:0:0:
413,172,158648,1,8,0:0:0:0:
219,146,158825,6,0,P|165:213|211:282,1,170,2|2,0:0|0:0,0:0:0:0:
363,333,159358,2,0,P|324:340|274:350,1,85,8|0,0:0|0:0,0:0:0:0:
415,245,159713,2,0,P|369:238|325:231,1,85,2|0,0:0|0:0,0:0:0:0:
470,344,160068,1,8,0:0:0:0:
495,168,160245,6,0,P|501:212|508:260,1,85,2|0,0:0|0:0,0:0:0:0:
395,101,160600,1,0,0:0:0:0:
395,101,160778,2,0,P|389:142|382:192,1,85,8|0,0:0|0:0,0:0:0:0:
328,15,161133,1,8,0:0:0:0:
481,88,161310,1,2,0:0:0:0:
305,118,161488,1,8,0:0:0:0:
484,77,161665,1,0,0:0:0:0:
290,21,161843,6,0,P|281:63|304:109,1,85,4|0,0:0|0:0,0:0:0:0:
348,274,162198,2,0,L|355:232|364:174,1,85,8|0,0:0|0:0,0:0:0:0:
256,332,162553,1,2,0:0:0:0:
256,332,162730,1,0,0:0:0:0:
133,208,162908,1,8,0:0:0:0:
256,332,163085,6,0,L|246:242,1,85,0|2,0:0|0:0,0:0:0:0:
157,101,163440,1,0,0:0:0:0:
333,147,163618,2,0,L|236:172,1,85,8|0,0:0|0:0,0:0:0:0:
76,101,163973,1,8,0:0:0:0:
189,225,164151,1,2,0:0:0:0:
18,302,164328,2,0,L|105:322,1,85,8|0,0:0|0:0,0:0:0:0:
276,249,164683,6,0,B|236:216|236:216|110:244,1,170,2|8,0:0|0:0,0:0:0:0:
274,352,165216,1,0,0:0:0:0:
274,352,165393,1,2,0:0:0:0:
344,185,165571,1,0,0:0:0:0:
396,362,165748,1,8,0:0:0:0:
508,199,165926,6,0,P|438:207|330:219,1,170,4|8,0:0|0:0,0:0:0:0:
197,327,166458,1,2,0:0:0:0:
197,327,166636,1,2,0:0:0:0:
145,147,166813,1,8,0:0:0:0:
286,273,166991,1,8,0:0:0:0:
93,241,167168,2,0,L|197:220,1,85,8|0,0:0|0:0,0:0:0:0:
389,164,167523,5,4,0:0:0:0:
231,107,167701,1,0,0:0:0:0:
231,107,167790,1,0,0:0:0:0:
231,107,167878,1,8,0:0:0:0:
330,233,168056,2,0,L|279:243,2,38.2499988327027,0|0|2,0:0|0:0|0:0,0:0:0:0:
391,83,168411,1,0,0:0:0:0:
391,83,168500,1,0,0:0:0:0:
391,83,168588,1,8,0:0:0:0:
455,232,168766,6,0,L|465:177,2,38.2499988327027,0|0|2,0:0|0:0|0:0,0:0:0:0:
313,155,169121,1,0,0:0:0:0:
313,155,169210,1,0,0:0:0:0:
313,155,169298,1,8,0:0:0:0:
223,300,169476,5,0,0:0:0:0:
200,273,169565,1,0,0:0:0:0:
190,239,169654,1,2,0:0:0:0:
200,206,169742,1,0,0:0:0:0:
222,180,169831,1,0,0:0:0:0:
232,146,169920,1,0,0:0:0:0:
223,112,170009,1,8,0:0:0:0:
201,85,170097,1,0,0:0:0:0:
167,78,170186,1,0,0:0:0:0:
135,92,170275,1,0,0:0:0:0:
114,120,170364,5,4,0:0:0:0:
23,253,170541,2,0,L|13:210,2,38.2499988327027,0|0|8,0:0|0:0|0:0,0:0:0:0:
167,184,170896,2,0,L|161:223,2,38.2499988327027,0|0|2,0:0|0:0|0:0,0:0:0:0:
301,277,171251,2,0,L|291:234,2,38.2499988327027,0|0|8,0:0|0:0|0:0,0:0:0:0:
429,180,171606,1,0,0:0:0:0:
429,180,171695,1,0,0:0:0:0:
429,180,171784,5,2,0:0:0:0:
383,292,171961,1,0,0:0:0:0:
276,174,172139,1,8,0:0:0:0:
291,294,172316,1,0,0:0:0:0:
140,245,172494,5,2,0:0:0:0:
140,245,172671,1,2,0:0:0:0:
291,294,172849,1,8,0:0:0:0:
291,294,173026,1,0,0:0:0:0:
115,344,173204,6,0,B|164:334|164:334|204:356|204:356|277:339,1,152.999995330811,4|8,0:0|0:0,0:0:0:0:
372,231,173736,1,0,0:0:0:0:
372,231,173825,1,0,0:0:0:0:
372,231,173914,2,0,P|365:275|358:316,1,76.4999976654053,2|0,0:0|0:0,0:0:0:0:
311,144,174269,1,8,0:0:0:0:
179,233,174446,1,0,0:0:0:0:
128,75,174624,6,0,P|87:65|53:78,1,76.4999976654053,2|0,0:0|0:0,0:0:0:0:
55,76,174890,1,0,0:0:0:0:
55,76,174979,1,8,0:0:0:0:
179,154,175156,1,0,0:0:0:0:
250,16,175334,2,0,P|256:61|261:106,1,76.4999976654053,2|0,0:0|0:0,0:0:0:0:
391,169,175689,1,8,0:0:0:0:
240,242,175867,1,0,0:0:0:0:
240,242,175955,1,0,0:0:0:0:
240,242,176044,6,0,P|279:249|318:257,1,76.4999976654053,2|0,0:0|0:0,0:0:0:0:
144,218,176399,1,8,0:0:0:0:
294,162,176577,1,0,0:0:0:0:
294,162,176665,1,0,0:0:0:0:
294,162,176754,2,0,L|303:119,1,38.2499988327027,2|0,0:0|0:0,0:0:0:0:
372,71,176932,1,8,0:0:0:0:
378,104,177020,1,0,0:0:0:0:
385,137,177109,1,0,0:0:0:0:
392,170,177198,1,0,0:0:0:0:
399,203,177287,6,0,B|306:174|306:174|255:206,1,152.999995330811,4|0,0:0|0:0,0:0:0:0:
258,203,177730,1,0,0:0:0:0:
258,203,177819,1,8,0:0:0:0:
178,305,177997,1,0,0:0:0:0:
107,162,178174,2,0,B|92:198|92:198|100:239,1,76.4999976654053,0|2,0:0|0:0,0:0:0:0:
0,330,178529,2,0,B|36:322|36:322|72:337,1,76.4999976654053,8|0,0:0|0:0,0:0:0:0:
239,257,178884,6,0,B|196:230|196:230|93:255,2,152.999995330811,4|8|2,0:0|0:0|0:0,0:0:0:0:
310,376,179772,1,0,0:0:0:0:
358,214,179949,1,8,0:0:0:0:
487,324,180127,6,0,P|451:341|397:328,1,76.4999976654053,0|2,0:0|0:0,0:0:0:0:
494,169,180482,1,0,0:0:0:0:
494,169,180659,2,0,L|507:249,1,76.4999976654053,8|0,0:0|0:0,0:0:0:0:
406,117,181014,1,2,0:0:0:0:
327,209,181192,1,0,0:0:0:0:
254,73,181369,1,0,0:0:0:0:
202,183,181547,1,0,0:0:0:0:
109,51,181725,5,4,0:0:0:0:
81,178,181902,1,0,0:0:0:0:
81,178,182080,2,0,P|61:146|63:107,1,76.4999976654053,8|0,0:0|0:0,0:0:0:0:
169,237,182435,1,2,0:0:0:0:
25,286,182612,1,0,0:0:0:0:
179,218,182790,1,8,0:0:0:0:
251,369,182967,6,0,P|300:373|336:356,1,76.4999976654053,0|2,0:0|0:0,0:0:0:0:
174,315,183322,1,0,0:0:0:0:
325,259,183500,1,8,0:0:0:0:
176,200,183677,2,0,P|160:166|174:107,1,76.4999976654053,0|2,0:0|0:0,0:0:0:0:
304,70,184032,2,0,L|270:59,2,25.4999992218018
318,86,184210,2,0,P|320:123|304:158,1,76.4999976654053,8|0,0:0|0:0,0:0:0:0:
187,283,184565,5,4,0:0:0:0:
216,265,184654,1,0,0:0:0:0:
249,261,184742,1,0,0:0:0:0:
282,270,184831,1,0,0:0:0:0:
307,293,184920,1,8,0:0:0:0:
339,305,185009,1,0,0:0:0:0:
373,304,185097,1,0,0:0:0:0:
402,286,185186,1,0,0:0:0:0:
420,256,185275,6,0,L|416:212,3,38.2499988327027,2|0|0|0,0:0|0:0|0:0|0:0,0:0:0:0:
350,173,185630,2,0,L|357:134,3,38.2499988327027,8|0|0|0,0:0|0:0|0:0|0:0,0:0:0:0:
411,77,185985,5,2,0:0:0:0:
257,126,186162,1,0,0:0:0:0:
246,130,186251,1,0,0:0:0:0:
235,133,186340,2,0,L|148:115,1,76.4999976654053,8|0,0:0|0:0,0:0:0:0:
92,13,186695,1,2,0:0:0:0:
49,167,186872,1,8,0:0:0:0:
49,167,186961,1,8,0:0:0:0:
49,167,187050,1,2,0:0:0:0:
235,133,187227,6,0,P|167:107|128:180,1,152.999995330811,4|2,0:0|0:0,0:0:0:0:
307,193,187760,1,8,0:0:0:0:
260,39,187938,1,2,0:0:0:0:
227,206,188115,1,0,0:0:0:0:
330,82,188293,1,2,0:0:0:0:
437,210,188470,1,8,0:0:0:0:
303,167,188648,1,2,0:0:0:0:
462,115,188825,5,8,0:0:0:0:
384,258,189003,2,0,L|372:183,1,76.4999976654053,2|8,0:0|0:0,0:0:0:0:
483,337,189358,1,2,0:0:0:0:
483,337,189535,2,0,L|495:262,1,76.4999976654053,8|2,0:0|0:0,0:0:0:0:
337,365,189890,2,0,L|416:382,1,76.4999976654053,8|0,0:0|0:0,0:0:0:0:
286,260,190245,6,0,B|247:237|247:237|126:270,2,152.999995330811,8|8|8,0:0|0:0|0:0,0:0:0:0:
361,338,191133,1,0,0:0:0:0:
310,179,191310,1,8,0:0:0:0:
213,287,191488,1,0,0:0:0:0:
246,115,191665,5,8,0:0:0:0:
92,184,191843,1,0,0:0:0:0:
72,160,191932,1,0,0:0:0:0:
66,130,192020,1,8,0:0:0:0:
75,100,192109,1,0,0:0:0:0:
96,78,192198,1,0,0:0:0:0:
125,69,192287,1,0,0:0:0:0:
154,76,192375,2,0,P|147:139|139:208,2,114.749996498108,8|8|8,0:0|0:0|0:0,0:0:0:0:
238,224,193085,5,12,0:0:0:0:
238,224,193263,1,8,0:0:0:0:
340,100,193440,1,8,0:0:0:0:
340,100,193618,1,8,0:0:0:0:
464,202,193796,5,8,0:0:0:0:
464,202,193974,1,8,0:0:0:0:
362,326,194151,1,8,0:0:0:0:
362,326,194329,1,8,0:0:0:0:
238,224,194506,6,0,L|228:165,5,38.2499988327027,8|8|8|8|8|8,0:0|0:0|0:0|0:0|0:0|0:0,0:0:0:0:
168,106,195038,6,0,L|156:177,9,50.9999984436036,8|8|8|8|8|8|8|8|8|8,0:0|0:0|0:0|0:0|0:0|0:0|0:0|0:0|0:0|0:0,0:0:0:0:
235,49,195926,5,0,0:0:0:0:
235,49,196103,1,0,0:0:0:0:
281,164,196281,1,0,0:0:0:0:
281,164,196458,1,0,0:0:0:0:
395,61,196636,5,0,0:0:0:0:
356,200,196813,1,0,0:0:0:0:
240,111,196991,1,0,0:0:0:0:
383,51,197168,1,0,0:0:0:0:
306,210,197346,5,0,0:0:0:0:
244,44,197523,1,0,0:0:0:0:
121,148,197701,1,0,0:0:0:0:
345,120,197878,1,0,0:0:0:0:
345,120,198588,6,0,P|386:107|433:124,1,85,4|0,0:0|0:0,0:0:0:0:
285,192,198943,1,0,0:0:0:0:
224,36,199121,6,0,P|218:96|211:172,1,127.500004863739,8|0,0:0|0:0,0:0:0:0:
268,332,199476,5,2,0:0:0:0:
202,168,199654,1,0,0:0:0:0:
88,306,199831,1,8,0:0:0:0:
261,255,200009,6,0,P|216:248|163:240,1,85,0|2,0:0|0:0,0:0:0:0:
329,175,200364,1,0,0:0:0:0:
379,333,200541,6,0,P|414:285|382:217,1,127.500004863739,8|0,0:0|0:0,0:0:0:0:
259,133,200896,5,2,0:0:0:0:
423,97,201074,1,0,0:0:0:0:
307,217,201251,1,8,0:0:0:0:
251,52,201429,1,0,0:0:0:0:
152,210,201606,6,0,P|112:158|137:97,1,127.5,2|0,0:0|0:0,0:0:0:0:
194,53,201961,2,0,P|249:60|329:71,1,127.5,8|0,0:0|0:0,0:0:0:0:
363,138,202316,2,0,P|324:142|273:148,1,85,2|0,0:0|0:0,0:0:0:0:
432,70,202671,1,8,0:0:0:0:
387,220,202849,1,0,0:0:0:0:
432,70,203026,6,0,L|448:161,1,85,2|0,0:0|0:0,0:0:0:0:
372,298,203381,1,8,0:0:0:0:
457,162,203559,1,2,0:0:0:0:
362,300,203736,1,8,0:0:0:0:
300,140,203914,1,2,0:0:0:0:
428,236,204091,1,8,0:0:0:0:
251,210,204269,1,0,0:0:0:0:
436,239,204446,6,0,L|394:247|352:255,1,85,4|0,0:0|0:0,0:0:0:0:
178,290,204801,2,0,P|220:298|267:308,1,85,8|0,0:0|0:0,0:0:0:0:
123,208,205156,1,2,0:0:0:0:
123,208,205334,1,0,0:0:0:0:
81,362,205511,1,8,0:0:0:0:
22,195,205689,6,0,P|29:241|39:294,1,85,0|2,0:0|0:0,0:0:0:0:
110,126,206044,1,0,0:0:0:0:
178,280,206222,2,0,P|217:287|266:256,1,85,8|0,0:0|0:0,0:0:0:0:
344,141,206577,1,2,0:0:0:0:
395,311,206754,1,0,0:0:0:0:
395,311,206843,1,0,0:0:0:0:
395,311,206932,2,0,P|402:269|410:208,1,85,8|0,0:0|0:0,0:0:0:0:
257,178,207287,5,2,0:0:0:0:
257,178,207464,1,0,0:0:0:0:
425,119,207642,1,8,0:0:0:0:
425,119,207819,1,0,0:0:0:0:
262,65,207997,5,2,0:0:0:0:
343,219,208174,1,0,0:0:0:0:
395,44,208352,1,8,0:0:0:0:
267,183,208529,1,0,0:0:0:0:
151,34,208707,5,8,0:0:0:0:
329,119,208884,1,8,0:0:0:0:
127,150,209062,1,8,0:0:0:0:
289,47,209239,1,8,0:0:0:0:
232,235,209417,5,0,0:0:0:0:
232,235,209594,2,0,L|219:142,1,85,2|2,0:0|0:0,0:0:0:0:
350,300,209949,6,0,P|362:223|377:117,1,170,4|0,0:0|0:0,0:0:0:0:
265,308,210482,6,0,P|207:326|154:286,1,127.500004863739,8|0,0:0|0:0,0:0:0:0:
87,142,210837,5,2,0:0:0:0:
35,313,211014,1,0,0:0:0:0:
87,142,211192,1,8,0:0:0:0:
152,309,211369,6,0,P|172:277|172:223,1,85,2|0,0:0|0:0,0:0:0:0:
83,375,211725,1,0,0:0:0:0:
246,302,211902,6,0,P|304:293|363:349,1,127.500004863739,8|0,0:0|0:0,0:0:0:0:
204,372,212257,5,2,0:0:0:0:
273,215,212435,1,0,0:0:0:0:
134,326,212612,1,8,0:0:0:0:
125,150,212790,6,0,B|94:175|94:175|117:311,1,170,2|2,0:0|0:0,0:0:0:0:
206,150,213322,2,0,P|168:141|117:129,1,85,8|0,0:0|0:0,0:0:0:0:
294,35,213677,2,0,P|304:80|280:125,1,85,2|0,0:0|0:0,0:0:0:0:
193,235,214032,1,8,0:0:0:0:
370,207,214210,6,0,L|326:198|282:189,1,85,2|0,0:0|0:0,0:0:0:0:
448,265,214565,1,0,0:0:0:0:
460,180,214742,2,0,P|454:222|448:265,1,85,8|0,0:0|0:0,0:0:0:0:
420,97,215097,1,8,0:0:0:0:
273,196,215275,1,2,0:0:0:0:
435,272,215452,1,8,0:0:0:0:
341,120,215630,1,0,0:0:0:0:
266,300,215807,6,0,P|224:306|185:277,1,85,4|0,0:0|0:0,0:0:0:0:
140,119,216162,2,0,P|132:166|123:218,1,85,8|0,0:0|0:0,0:0:0:0:
0,317,216517,1,2,0:0:0:0:
0,317,216695,1,0,0:0:0:0:
179,272,216872,1,8,0:0:0:0:
0,317,217050,6,0,P|-16:279|-11:230,1,85,0|2,0:0|0:0,0:0:0:0:
43,173,217405,1,0,0:0:0:0:
189,276,217582,2,0,P|205:238|200:189,1,85,8|0,0:0|0:0,0:0:0:0:
164,84,217938,1,2,0:0:0:0:
290,227,218115,1,0,0:0:0:0:
290,227,218204,1,0,0:0:0:0:
290,227,218293,2,0,P|330:233|378:205,1,85,8|0,0:0|0:0,0:0:0:0:
492,84,218648,6,0,P|432:46|364:107,1,170,2|8,0:0|0:0,0:0:0:0:
498,193,219180,1,0,0:0:0:0:
498,193,219269,1,0,0:0:0:0:
498,193,219358,1,2,0:0:0:0:
327,249,219535,1,0,0:0:0:0:
281,70,219713,1,8,0:0:0:0:
167,227,219890,6,0,P|107:184|141:99,1,170,4|8,0:0|0:0,0:0:0:0:
256,207,220423,1,2,0:0:0:0:
256,207,220600,1,2,0:0:0:0:
79,272,220778,1,8,0:0:0:0:
260,312,220955,1,8,0:0:0:0:
80,366,221133,2,0,L|178:384,1,85,8|0,0:0|0:0,0:0:0:0:
9,306,221488,6,0,B|48:281|48:281|156:299,1,144.500002756119,4|8,0:0|0:0,0:0:0:0:
251,176,222020,1,2,0:0:0:0:
251,176,222198,2,0,L|221:326,1,144.500002756119,2|8,0:0|0:0,0:0:0:0:
169,169,222730,6,0,P|115:139|47:188,1,144.500002756119,2|2,0:0|0:0,0:0:0:0:
210,247,223263,1,8,0:0:0:0:
210,247,223440,1,2,0:0:0:0:
245,93,223618,2,0,P|299:87|339:135,1,108.375002067089,2|0,0:0|0:0,0:0:0:0:
361,194,223973,2,0,P|370:144|375:108,1,72.2500013780594,8|0,0:0|0:0,0:0:0:0:
246,252,224328,6,0,B|229:104,1,144.500002756119,4|8,0:0|0:0,0:0:0:0:
335,225,224861,1,2,0:0:0:0:
335,225,225038,2,0,P|403:244|467:184,1,144.500002756119,2|8,0:0|0:0,0:0:0:0:
415,49,225571,6,0,P|347:30|283:90,1,144.500002756119,2|8,0:0|0:0,0:0:0:0:
147,141,226103,2,0,P|185:148|240:159,1,72.2500013780594,8|2,0:0|0:0,0:0:0:0:
78,196,226458,1,2,0:0:0:0:
53,46,226636,1,8,0:0:0:0:
53,46,226813,2,0,P|47:89|41:131,1,72.2500013780594,8|0,0:0|0:0,0:0:0:0:
0,285,227168,6,0,P|54:243|131:279,1,144.500002756119,4|8,0:0|0:0,0:0:0:0:
209,376,227701,1,2,0:0:0:0:
209,376,227878,2,0,L|223:293,1,72.2500013780594,8|2,0:0|0:0,0:0:0:0:
294,175,228233,1,8,0:0:0:0:
208,300,228411,6,0,P|204:261|198:212,1,72.2500013780594,4|8,0:0|0:0,0:0:0:0:
182,99,228766,1,2,0:0:0:0:
313,172,228943,2,0,L|329:95,1,72.2500013780594,8|2,0:0|0:0,0:0:0:0:
278,254,229298,2,0,P|316:249|370:242,1,72.2500013780594,8|2,0:0|0:0,0:0:0:0:
461,195,229654,2,0,P|426:185|381:171,1,72.2500013780594,8|0,0:0|0:0,0:0:0:0:
300,326,230009,6,0,B|401:311|401:311|425:272,1,144.500002756119,4|8,0:0|0:0,0:0:0:0:
265,227,230541,1,2,0:0:0:0:
265,227,230719,2,0,P|254:302|243:374,1,144.500002756119,2|8,0:0|0:0,0:0:0:0:
113,313,231251,6,0,P|157:267|232:309,1,144.500002756119,2|2,0:0|0:0,0:0:0:0:
138,167,231784,1,8,0:0:0:0:
138,167,231961,2,0,P|131:205|120:258,1,72.2500013780594,0|2,0:0|0:0,0:0:0:0:
38,114,232316,5,8,0:0:0:0:
38,114,232405,1,0,0:0:0:0:
38,114,232494,2,0,L|89:105,1,42.5,8|0,0:0|0:0,0:0:0:0:
149,158,232671,2,0,L|195:165,1,42.5
261,115,232849,5,12,0:0:0:0:
59,73,241369,5,8,0:0:0:0:
59,73,241458,1,8,0:0:0:0:
59,73,241547,2,0,L|70:128,3,42.5,2|0|2|0,0:0|0:0|0:0|0:0,0:0:0:0:
144,156,241902,5,8,0:0:0:0:
144,156,241991,1,8,0:0:0:0:
144,156,242080,2,0,L|137:205,3,42.5,2|0|2|0,0:0|0:0|0:0|0:0,0:0:0:0:
57,230,242435,5,8,0:0:0:0:
57,230,242523,1,8,0:0:0:0:
57,230,242612,2,0,L|65:276,3,42.5,2|0|2|0,0:0|0:0|0:0|0:0,0:0:0:0:
128,333,242967,5,8,0:0:0:0:
160,344,243056,1,0,0:0:0:0:
192,334,243145,1,2,0:0:0:0:
217,311,243233,1,0,0:0:0:0:
247,295,243322,1,2,0:0:0:0:
281,295,243411,1,0,0:0:0:0:
308,315,243500,1,8,0:0:0:0:
308,315,243855,6,0,P|241:307|148:294,1,159.375
85,252,244210,6,0,P|64:216|77:165,1,85,12|2,0:0|0:0,0:0:0:0:
135,45,244565,2,0,P|141:91|149:147,1,85,8|2,0:0|0:0,0:0:0:0:
287,207,244920,1,8,0:0:0:0:
158,244,245097,1,2,0:0:0:0:
286,132,245275,1,8,0:0:0:0:
222,288,245452,1,2,0:0:0:0:
394,246,245630,6,0,L|349:237|297:227,1,85,8|2,0:0|0:0,0:0:0:0:
462,186,245985,1,8,0:0:0:0:
335,309,246162,1,2,0:0:0:0:
229,167,246340,2,0,L|236:264,1,85,8|2,0:0|0:0,0:0:0:0:
320,83,246695,2,0,L|327:180,1,85,8|2,0:0|0:0,0:0:0:0:
139,202,247050,6,0,L|132:117,1,85,8|2,0:0|0:0,0:0:0:0:
270,247,247405,2,0,P|231:267|179:255,1,85,8|2,0:0|0:0,0:0:0:0:
335,182,247760,1,8,0:0:0:0:
347,336,247938,1,0,0:0:0:0:
347,336,248115,1,8,0:0:0:0:
483,221,248293,6,0,P|476:264|467:318,1,85,2|8,0:0|0:0,0:0:0:0:
324,225,248648,1,2,0:0:0:0:
335,309,248825,2,0,P|329:266|323:224,1,85,8|2,0:0|0:0,0:0:0:0:
405,364,249180,1,8,0:0:0:0:
253,269,249358,1,2,0:0:0:0:
117,381,249535,1,8,0:0:0:0:
117,381,249624,1,8,0:0:0:0:
117,381,249713,1,2,0:0:0:0:
55,205,249890,6,0,P|39:250|55:298,1,85,12|2,0:0|0:0,0:0:0:0:
116,134,250245,2,0,P|119:92|100:54,1,85,8|2,0:0|0:0,0:0:0:0:
178,215,250600,1,8,0:0:0:0:
242,57,250778,1,0,0:0:0:0:
242,57,250955,1,8,0:0:0:0:
322,227,251133,6,0,P|366:231|405:205,1,85,2|8,0:0|0:0,0:0:0:0:
238,192,251488,1,2,0:0:0:0:
248,276,251665,2,0,L|237:191,1,85,8|2,0:0|0:0,0:0:0:0:
313,54,252020,2,0,L|302:148,1,85,8|2,0:0|0:0,0:0:0:0:
304,138,252287,1,0,0:0:0:0:
304,138,252375,2,0,P|346:132|399:124,1,85,8|2,0:0|0:0,0:0:0:0:
512,253,252730,5,8,0:0:0:0:
512,253,252819,1,8,0:0:0:0:
512,253,252908,2,0,L|459:246,3,42.5,2|0|2|0,0:0|0:0|0:0|0:0,0:0:0:0:
400,321,253263,5,8,0:0:0:0:
400,321,253352,1,8,0:0:0:0:
400,321,253440,2,0,L|333:328,3,42.5,2|0|2|0,0:0|0:0|0:0|0:0,0:0:0:0:
267,276,253796,5,8,0:0:0:0:
267,276,253884,1,8,0:0:0:0:
267,276,253973,2,0,L|258:231,1,42.5,2|0,0:0|0:0,0:0:0:0:
335,195,254151,2,0,L|340:147,1,42.5,2|0,0:0|0:0,0:0:0:0:
282,89,254328,5,8,0:0:0:0:
252,72,254417,1,0,0:0:0:0:
218,66,254506,1,2,0:0:0:0:
184,68,254594,1,0,0:0:0:0:
150,75,254683,1,2,0:0:0:0:
123,96,254772,1,0,0:0:0:0:
104,124,254861,6,0,L|112:173,1,42.5,8|0,0:0|0:0,0:0:0:0:
189,226,255038,1,8,0:0:0:0:
189,226,255127,2,0,L|196:172,2,42.5
122,285,255393,1,4,0:0:0:0:
256,192,255482,12,0,258588,0:0:0:0:
