osu file format v14

[General]
AudioFilename: understand.mp3
AudioLeadIn: 0
PreviewTime: 57553
Countdown: 0
SampleSet: Soft
StackLeniency: 0.7
Mode: 0
LetterboxInBreaks: 0
WidescreenStoryboard: 0

[Editor]
Bookmarks: 83736,92257,232849,241369
DistanceSpacing: 1
BeatDivisor: 4
GridSize: 4
TimelineZoom: 1.6

[Metadata]
Title:Understand? Understand!
TitleUnicode:Understand? Understand!
Artist:Kousaka Umi (CV.Ueda Reina) x Tanaka Kotoha (CV.Taneda Risa)
ArtistUnicode:高坂海美 (CV.上田麗奈)×田中琴葉 (CV.種田梨沙)
Creator:Setz
Version:EXTR@
Source:アイドルマスター ミリオンライブ!
Tags:THE IDOLM@STER Million Live imas im@s THE@TER DREAMERS 06 idolmaster Karia Momochikun Doormat うえしゃま
BeatmapID:941600
BeatmapSetID:437279

[Difficulty]
HPDrainRate:6
CircleSize:4
OverallDifficulty:8.5
ApproachRate:9
SliderMultiplier:1.8
SliderTickRate:1

[Events]
//Background and Video events
0,0,"imasbg2.jpg",0,0
//Break Periods
2,83936,91657
2,233049,240769
//Storyboard Layer 0 (Background)
//Storyboard Layer 1 (Fail)
//Storyboard Layer 2 (Pass)
//Storyboard Layer 3 (Foreground)
//Storyboard Sound Samples

[TimingPoints]
-49,355.029585798817,4,2,5,80,1,0
838,-133.333333333333,4,2,6,40,0,0
12199,-100,4,2,5,70,0,0
20897,-100,4,2,6,70,0,0
20986,-100,4,2,5,70,0,0
23915,-200,4,2,6,70,0,0
24980,-200,4,2,5,70,0,0
25513,-117.647058823529,4,2,5,70,0,0
31016,-133.333333333333,4,2,5,70,0,0
32613,-133.333333333333,4,2,6,70,0,0
34033,-117.647058823529,4,2,5,70,0,0
39536,-133.333333333333,4,2,5,70,0,0
45394,355.029585798817,3,2,6,60,1,0
45394,-153.846153846154,3,2,6,60,0,0
49121,-100,3,2,6,70,0,0
49565,-100,3,2,5,5,0,0
49654,355.029585798817,4,2,5,70,1,0
49655,-111.111111111111,4,2,5,70,0,0
56399,-111.111111111111,4,2,5,55,0,0
57109,-111.111111111111,4,2,5,70,0,0
57464,-200,4,2,5,70,0,0
57908,-200,4,2,5,5,0,0
57997,-97.0873786407767,4,2,5,80,0,1
69269,-97.0873786407767,4,2,5,80,0,0
69358,-97.0873786407767,4,2,5,80,0,1
80896,-117.647058823529,4,2,5,70,0,0
83026,-100,4,2,6,70,0,0
92257,-100,4,2,5,70,0,0
94920,-200,4,2,6,70,0,0
95985,-200,4,2,5,70,0,0
96517,-111.111111111111,4,2,5,70,0,0
103618,-111.111111111111,4,2,6,70,0,0
105038,-100,4,2,5,70,0,0
107612,-100,4,2,5,20,0,0
107701,-50,4,2,5,70,0,0
107967,-50,4,2,5,5,0,0
108056,-100,4,2,5,70,0,0
110719,-133.333333333333,4,2,5,70,0,0
116399,-111.111111111111,4,2,5,70,0,0
126872,-133.333333333333,4,2,5,70,0,0
127405,-83.3333333333333,4,2,5,70,0,0
127760,-111.111111111111,4,2,5,70,0,0
130245,-83.3333333333333,4,2,5,70,0,0
130600,-111.111111111111,4,2,5,70,0,0
133085,-66.6666666666667,4,2,5,70,0,0
133440,-111.111111111111,4,2,5,70,0,0
144624,-97.0873786407767,4,2,5,80,0,1
155896,-97.0873786407767,4,2,5,80,0,0
155985,-97.0873786407767,4,2,5,80,0,1
167523,-104.166666666667,4,2,2,70,0,0
190245,-104.166666666667,4,2,2,60,0,0
190955,-104.166666666667,4,2,2,70,0,0
191665,-104.166666666667,4,2,2,70,0,0
194506,-104.166666666667,4,2,2,60,0,0
195038,-104.166666666667,4,2,2,40,0,0
195926,-104.166666666667,4,2,2,70,0,0
198588,-97.0873786407767,4,2,5,70,0,1
209861,-97.0873786407767,4,2,5,70,0,0
209949,-97.0873786407767,4,2,5,70,0,1
213056,-97.0873786407767,4,2,5,5,0,1
213145,-97.0873786407767,4,2,5,80,0,1
221488,-117.647058823529,4,2,5,70,0,0
241902,-105.263157894737,4,2,5,70,0,0
242967,-100,4,2,5,70,0,0
243855,-71.4285714285714,4,2,5,70,0,0
244210,-100,4,2,5,70,0,0
252730,-117.647058823529,4,2,5,70,0,0
253263,-111.111111111111,4,2,5,70,0,0
253796,-105.263157894737,4,2,5,70,0,0
254328,-100,4,2,5,70,0,0
255571,-100,4,2,5,20,0,0
258588,-100,4,2,5,5,0,0

[Colours]
Combo1 : 0,128,255
Combo2 : 255,128,192
Combo3 : 128,128,255
Combo4 : 255,128,128
Combo5 : 255,255,128

[HitObjects]
159,133,838,6,0,L|172:203,2,67.5000025749208,2|2|2,0:0|0:0|0:0,0:0:0:0:
150,267,1371,6,0,P|185:271|223:243,1,67.5000025749208,2|0,0:0|0:0,0:0:0:0:
345,180,1726,2,0,P|313:172|262:171,1,67.5000025749208,10|0,0:0|0:0,0:0:0:0:
371,338,2081,2,0,L|360:263,1,67.5000025749208,2|0,0:0|0:0,0:0:0:0:
313,149,2436,1,10,0:0:0:0:
371,338,2613,6,0,P|435:353|495:307,1,135.000005149842,2|2,0:0|0:0,0:0:0:0:
411,221,3146,1,10,0:0:0:0:
427,87,3323,2,0,L|410:224,1,135.000005149842,2|8,0:0|0:0,0:0:0:0:
300,283,3856,2,0,P|267:283|231:267,1,67.5000025749208,8|0,0:0|0:0,0:0:0:0:
364,370,4211,5,0,0:0:0:0:
321,188,4388,1,2,0:0:0:0:
258,309,4566,1,10,0:0:0:0:
415,274,4743,1,2,0:0:0:0:
303,102,4921,5,2,0:0:0:0:
327,268,5098,1,2,0:0:0:0:
300,79,5276,1,10,0:0:0:0:
327,293,5453,6,0,P|258:322|199:309,1,135.000005149842,2|2,0:0|0:0,0:0:0:0:
100,238,5986,1,10,0:0:0:0:
208,109,6164,2,0,L|219:175,1,67.5000025749208,2|0,0:0|0:0,0:0:0:0:
300,79,6519,1,2,0:0:0:0:
331,198,6696,1,10,0:0:0:0:
208,109,6874,1,2,0:0:0:0:
278,281,7051,6,0,P|312:282|348:268,1,67.5000025749208,2|0,0:0|0:0,0:0:0:0:
460,176,7406,2,0,P|428:164|394:165,1,67.5000025749208,10|0,0:0|0:0,0:0:0:0:
253,320,7761,2,0,L|247:244,1,67.5000025749208,2|0,0:0|0:0,0:0:0:0:
336,107,8116,1,10,0:0:0:0:
167,175,8294,6,0,P|95:174|25:169,1,135.000005149842,2|2,0:0|0:0,0:0:0:0:
150,43,8826,1,10,0:0:0:0:
62,261,9004,2,0,B|63:358|63:358|79:366|100:338,1,135.000005149842,2|10,0:0|0:0,0:0:0:0:
269,237,9536,1,10,0:0:0:0:
163,269,9714,1,2,0:0:0:0:
356,302,9891,6,0,L|368:223,1,67.5000025749208,2|0,0:0|0:0,0:0:0:0:
315,150,10246,1,10,0:0:0:0:
422,343,10424,2,0,P|364:379|287:342,1,135.000005149842,2|2,0:0|0:0,0:0:0:0:
366,235,10956,1,8,0:0:0:0:
212,197,11134,6,0,L|230:64,1,135.000005149842,2|2,0:0|0:0,0:0:0:0:
353,144,11666,1,10,0:0:0:0:
74,173,11844,1,2,0:0:0:0:
58,188,12199,5,8,0:0:0:0:
174,29,12377,2,0,L|186:126,1,90,8|0,0:0|0:0,0:0:0:0:
344,283,12732,6,0,P|268:232|176:259,1,180,4|8,0:0|0:0,0:0:0:0:
302,134,13264,1,0,0:0:0:0:
250,343,13442,1,8,0:0:0:0:
190,218,13619,1,0,0:0:0:0:
190,218,13708,1,0,0:0:0:0:
190,218,13797,1,8,0:0:0:0:
422,228,13974,6,0,L|517:216,1,90,2|8,0:1|0:0,0:0:0:0:
361,381,14329,1,0,0:0:0:0:
512,326,14507,1,8,0:0:0:0:
298,181,14684,2,0,L|309:86,1,90,0|8,0:0|0:0,0:0:0:0:
477,7,15039,1,2,0:1:0:0:
358,237,15217,1,10,0:1:0:0:
317,257,15306,1,0,0:0:0:0:
272,254,15394,1,0,0:0:0:0:
231,234,15483,1,0,0:0:0:0:
200,201,15572,6,0,P|155:195|111:185,1,90,4|0,0:0|0:0,0:0:0:0:
254,79,15927,1,8,0:0:0:0:
135,277,16104,2,0,P|123:322|116:372,1,90,0|8,0:1|0:0,0:0:0:0:
272,254,16459,1,0,0:0:0:0:
90,155,16637,1,8,0:0:0:0:
338,85,16814,6,0,B|293:96|254:72|254:72|197:83|153:61,1,180,2|0,0:1|0:0,0:0:0:0:
399,49,17347,2,0,P|408:92|385:137,1,90,10|0,0:1|0:0,0:0:0:0:
291,210,17613,1,0,0:0:0:0:
291,210,17702,2,0,L|305:313,1,90,10|0,0:1|0:0,0:0:0:0:
468,382,18057,1,8,0:0:0:0:
468,382,18146,1,8,0:0:0:0:
468,382,18235,1,8,0:0:0:0:
505,131,18412,6,0,P|436:179|349:150,1,180,4|8,0:0|0:0,0:0:0:0:
495,9,18945,1,0,0:0:0:0:
420,231,19122,1,8,0:0:0:0:
313,75,19300,1,0,0:0:0:0:
342,297,19477,1,8,0:0:0:0:
487,152,19655,6,0,B|428:108|371:148|371:148|307:152,1,180,2|0,0:1|0:0,0:0:0:0:
178,329,20187,2,0,P|172:283|192:236,1,90,8|0,0:0|0:0,0:0:0:0:
251,85,20542,1,8,0:0:0:0:
312,230,20720,1,2,0:1:0:0:
56,155,20897,2,0,P|103:131|147:132,1,90,6|0,0:0|0:0,0:0:0:0:
344,153,21252,5,10,0:1:0:0:
374,159,21341,1,10,0:1:0:0:
400,176,21430,1,10,0:1:0:0:
420,200,21519,1,2,0:1:0:0:
436,226,21607,2,0,L|485:219,1,45,2|2,0:1|0:1,0:1:0:0:
351,347,21785,5,10,0:1:0:0:
318,362,21874,1,8,0:1:0:0:
282,359,21962,1,10,0:1:0:0:
249,343,22051,1,2,0:1:0:0:
217,326,22140,2,0,L|156:333,1,45,2|2,0:1|0:1,0:1:0:0:
103,190,22317,5,10,0:1:0:0:
129,165,22405,1,8,0:1:0:0:
162,152,22494,1,10,0:1:0:0:
198,153,22583,1,2,0:1:0:0:
228,172,22672,1,2,0:1:0:0:
251,199,22760,1,2,0:1:0:0:
262,233,22849,5,2,0:1:0:0:
274,189,22939,1,2,0:1:0:0:
282,145,23027,1,10,0:1:0:0:
290,100,23116,1,2,0:1:0:0:
298,55,23205,1,2,0:1:0:0:
303,10,23294,1,2,0:1:0:0:
324,32,23382,5,10,0:1:0:0:
352,45,23471,1,2,0:1:0:0:
383,44,23560,1,2,0:1:0:0:
412,32,23649,1,10,0:1:0:0:
438,15,23737,1,2,0:1:0:0:
457,39,23826,1,2,0:1:0:0:
473,61,23915,6,0,B|433:107|472:158|472:158|421:174|421:174|460:224|423:284,1,270,6|2,0:0|0:0,0:0:0:0:
427,276,25158,1,8,0:0:0:0:
0,116,25513,6,0,P|37:107|86:107,1,76.5000014591217,4|0,0:0|0:0,0:0:0:0:
204,216,25868,2,0,P|165:214|128:205,1,76.5000014591217
307,47,26223,2,0,P|295:88|293:142,1,76.5000014591217
347,205,26489,2,0,P|368:214|391:221,1,38.2500007295609
205,296,26755,1,0,0:0:0:0:
252,98,26933,5,0,0:0:0:0:
254,224,27110,1,0,0:0:0:0:
373,137,27288,2,0,P|412:130|461:125,1,76.5000014591217
331,310,27643,1,0,0:0:0:0:
297,329,27732,1,0,0:0:0:0:
259,321,27820,1,0,0:0:0:0:
223,335,27909,1,0,0:0:0:0:
185,325,27998,1,0,0:0:0:0:
71,168,28175,1,0,0:0:0:0:
83,183,28264,1,0,0:0:0:0:
95,198,28353,6,0,L|123:124,1,76.5000014591217
293,44,28708,2,0,P|256:33|207:33,1,76.5000014591217
348,172,29063,2,0,L|334:266,1,76.5000014591217
259,321,29329,2,0,L|262:366,1,38.2500007295609
202,164,29595,1,0,0:0:0:0:
145,298,29773,5,0,0:0:0:0:
290,241,29951,1,0,0:0:0:0:
92,207,30128,1,0,0:0:0:0:
312,245,30306,1,0,0:0:0:0:
210,16,30483,1,0,0:0:0:0:
209,361,31016,5,0,0:0:0:0:
294,188,31193,2,0,P|242:232|175:215,1,135.000005149842,4|0,0:0|0:0,0:0:0:0:
82,170,31726,1,2,0:0:0:0:
253,289,31903,2,0,L|224:156,1,135.000005149842,8|0,0:0|0:0,0:0:0:0:
342,215,32436,1,2,0:0:0:0:
143,144,32613,5,10,0:0:0:0:
150,110,32702,1,2,0:0:0:0:
158,77,32791,1,2,0:0:0:0:
363,174,32968,1,10,0:0:0:0:
370,208,33057,1,2,0:0:0:0:
378,241,33146,1,2,0:0:0:0:
138,364,33323,1,10,0:0:0:0:
145,330,33412,1,2,0:0:0:0:
153,297,33501,1,2,0:0:0:0:
292,23,33678,1,10,0:0:0:0:
299,57,33767,1,2,0:0:0:0:
307,90,33856,1,2,0:0:0:0:
359,317,34033,6,0,P|399:316|439:286,1,76.5000014591217,4|0,0:0|0:0,0:0:0:0:
465,209,34300,1,0,0:0:0:0:
465,209,34388,2,0,L|472:121,1,76.5000014591217
390,60,34655,1,0,0:0:0:0:
390,60,34743,2,0,L|383:136,1,76.5000014591217
310,211,35010,2,0,L|318:259,1,38.2500007295609
219,48,35276,1,0,0:0:0:0:
211,69,35365,1,0,0:0:0:0:
204,90,35453,6,0,L|125:83,1,76.5000014591217
242,263,35808,2,0,L|236:171,1,76.5000014591217
400,343,36164,2,0,L|394:251,1,76.5000014591217
462,183,36430,2,0,L|501:173,1,38.2500007295609
315,73,36696,6,0,B|290:51|290:51|255:166,1,153.000002918243
147,72,37229,2,0,P|109:60|63:54,1,76.5000014591217
234,284,37584,2,0,L|231:188,1,76.5000014591217
282,111,37850,2,0,L|320:101,1,38.2500007295609
144,37,38116,1,0,0:0:0:0:
144,37,38205,1,0,0:0:0:0:
144,37,38294,5,0,0:0:0:0:
99,189,38471,1,0,0:0:0:0:
282,111,38649,1,0,0:0:0:0:
58,70,38826,1,0,0:0:0:0:
158,304,39004,1,0,0:0:0:0:
410,82,39536,5,0,0:0:0:0:
510,241,39714,2,0,P|454:205|390:220,1,135.000005149842,4|0,0:0|0:0,0:0:0:0:
267,382,40246,2,0,L|261:306,1,67.5000025749208,2|8,0:0|0:0,0:0:0:0:
184,215,40601,1,0,0:0:0:0:
337,67,40779,6,0,B|320:226|320:226|377:201,1,202.500007724762,2|8,0:0|0:0,0:0:0:0:
467,137,41489,1,2,0:0:0:0:
480,290,41666,1,0,0:0:0:0:
360,118,41844,1,8,0:0:0:0:
340,311,42022,2,0,L|351:381,1,67.5000025749208
273,231,42377,1,0,0:0:0:0:
364,82,42554,6,0,P|306:112|243:95,1,135.000005149842,4|0,0:0|0:0,0:0:0:0:
352,220,43087,2,0,L|369:297,2,67.5000025749208,2|8|0,0:0|0:0|0:0,0:0:0:0:
305,63,43619,1,2,0:0:0:0:
148,207,43797,6,0,B|117:193|117:193|101:86,1,135.000005149842,0|8,0:0|0:0,0:0:0:0:
261,26,44329,2,0,L|272:95,1,67.5000025749208,2|0,0:0|0:0,0:0:0:0:
434,156,44684,1,8,0:0:0:0:
311,209,44862,1,2,0:0:0:0:
360,30,45039,1,0,0:0:0:0:
306,232,45217,1,0,0:0:0:0:
492,113,45394,6,0,P|436:83|376:114,1,116.999994644165,6|2,0:0|0:0,0:0:0:0:
307,312,46104,2,0,L|302:250,1,58.4999973220826,2|0,0:0|0:0,0:0:0:0:
317,100,46459,6,0,P|271:135|214:130,1,116.999994644165,2|2,0:0|0:0,0:0:0:0:
392,225,47169,1,2,0:0:0:0:
247,54,47524,6,0,P|187:49|130:46,1,116.999994644165,2|2,0:0|0:0,0:0:0:0:
24,98,48056,1,0,0:0:0:0:
201,210,48234,1,2,0:0:0:0:
179,237,48589,6,0,P|178:178|170:100,1,116.999994644165,2|2,0:0|0:0,0:0:0:0:
123,284,49121,1,0,0:0:0:0:
129,295,49210,1,0,0:0:0:0:
136,306,49299,6,0,B|194:337|241:288|241:288|276:291,1,135
382,307,49654,5,4,0:0:0:0:
179,237,49831,1,0,0:0:0:0:
339,103,50009,1,2,0:0:0:0:
345,142,50097,1,0,0:0:0:0:
351,182,50186,1,0,0:0:0:0:
233,347,50364,1,2,0:0:0:0:
420,230,50541,2,0,P|461:235|512:238,1,80.9999975280763,0|2,0:0|0:0,0:0:0:0:
339,103,50896,5,2,0:1:0:0:
276,266,51074,1,2,0:0:0:0:
239,73,51251,1,0,0:0:0:0:
233,347,51429,2,0,P|268:358|322:345,1,80.9999975280763,2|0,0:0|0:0,0:0:0:0:
458,280,51784,1,2,0:0:0:0:
215,212,51961,1,2,0:0:0:0:
512,178,52139,5,2,0:0:0:0:
313,8,52316,2,0,L|325:169,1,161.999995056153,4|0,0:0|0:0,0:0:0:0:
455,87,52849,1,2,0:0:0:0:
197,127,53026,1,0,0:0:0:0:
179,163,53115,1,0,0:0:0:0:
173,203,53204,1,2,0:0:0:0:
180,242,53293,1,0,0:0:0:0:
164,278,53381,2,0,P|123:293|83:289,1,80.9999975280763,0|2,0:0|0:0,0:0:0:0:
257,375,53736,1,0,0:0:0:0:
311,165,53914,5,2,0:0:0:0:
150,237,54091,1,0,0:0:0:0:
386,304,54269,2,0,P|430:302|477:296,1,80.9999975280763,2|0,0:0|0:0,0:0:0:0:
282,227,54624,2,0,P|279:166|274:106,2,121.499996292114,2|2|2,0:0|0:0|0:0,0:0:0:0:
147,314,55334,5,8,0:0:0:0:
363,259,55511,1,2,0:0:0:0:
164,276,55689,5,8,0:0:0:0:
388,136,55867,1,2,0:0:0:0:
180,242,56044,5,8,0:0:0:0:
457,213,56222,1,2,0:0:0:0:
263,31,56399,5,8,0:0:0:0:
241,65,56488,1,8,0:0:0:0:
229,104,56577,1,8,0:0:0:0:
239,142,56665,1,8,0:0:0:0:
260,176,56754,2,0,L|250:226,1,40.4999987640381,8|8,0:0|0:0,0:0:0:0:
359,343,56932,2,0,L|373:301,1,40.4999987640381,8|8,0:0|0:0,0:0:0:0:
388,136,57109,1,12,0:0:0:0:
197,293,57464,6,0,B|240:283|240:283|259:288|259:288|321:274,1,112.5,2|0,0:1|0:0,0:0:0:0:
399,225,57997,6,0,P|402:181|380:122,1,92.6999992220307,4|0,0:0|0:0,0:0:0:0:
329,81,58263,1,0,0:0:0:0:
329,81,58352,1,0,0:0:0:0:
378,303,58529,2,0,P|431:301|463:275,1,92.6999992220307,10|0,0:1|0:0,0:0:0:0:
268,380,58884,1,2,0:0:0:0:
378,303,59062,1,0,0:0:0:0:
144,235,59239,1,8,0:0:0:0:
329,81,59417,6,0,L|337:173,1,92.6999992220307,2|0,0:1|0:0,0:0:0:0:
190,307,59772,1,0,0:0:0:0:
399,225,59949,1,8,0:0:0:0:
185,131,60127,1,0,0:0:0:0:
185,131,60216,1,0,0:0:0:0:
185,131,60304,2,0,P|135:127|93:122,1,92.6999992220307,2|0,0:0|0:0,0:0:0:0:
283,267,60659,1,8,0:0:0:0:
416,99,60837,1,0,0:0:0:0:
407,53,60926,1,0,0:0:0:0:
396,8,61014,6,0,L|358:196,1,185.399998444061,2|8,0:1|0:0,0:0:0:0:
428,340,61547,1,0,0:0:0:0:
236,203,61725,2,0,P|189:205|138:210,1,92.6999992220307,2|0,0:0|0:0,0:0:0:0:
82,256,61991,1,0,0:0:0:0:
82,256,62080,1,8,0:0:0:0:
307,106,62257,6,0,B|344:87|344:87|321:253,1,185.399998444061,2|0,0:1|0:0,0:0:0:0:
232,362,62790,1,8,0:0:0:0:
396,322,62967,1,2,0:0:0:0:
236,203,63145,1,2,0:0:0:0:
412,346,63322,1,0,0:0:0:0:
380,123,63500,1,8,0:0:0:0:
214,280,63677,1,0,0:0:0:0:
483,242,63855,6,0,B|476:226|476:226|401:214,1,92.6999992220307,4|0,0:0|0:0,0:0:0:0:
214,280,64210,2,0,L|317:296,1,92.6999992220307,8|0,0:0|0:0,0:0:0:0:
412,346,64476,1,0,0:0:0:0:
412,346,64565,1,2,0:1:0:0:
339,166,64742,1,0,0:0:0:0:
264,374,64920,1,8,0:0:0:0:
483,242,65097,6,0,L|466:146,1,92.6999992220307
384,25,65452,1,0,0:0:0:0:
253,167,65630,2,0,B|324:180|324:180|346:158,1,92.6999992220307,8|0,0:0|0:0,0:0:0:0:
278,91,65896,1,0,0:0:0:0:
278,91,65985,2,0,L|182:72,1,92.6999992220307
291,355,66340,2,0,P|303:311|309:257,1,92.6999992220307,10|0,0:1|0:0,0:0:0:0:
278,91,66695,5,4,0:0:0:0:
160,203,66872,1,0,0:0:0:0:
160,203,66961,1,0,0:0:0:0:
160,203,67050,1,8,0:0:0:0:
309,265,67227,1,0,0:0:0:0:
197,71,67405,1,2,0:0:0:0:
89,254,67582,1,0,0:0:0:0:
222,39,67760,1,8,0:0:0:0:
0,79,67938,1,0,0:0:0:0:
183,271,68115,5,2,0:0:0:0:
102,14,68293,1,2,0:0:0:0:
323,166,68470,1,8,0:0:0:0:
66,134,68648,1,2,0:0:0:0:
66,134,68736,1,2,0:0:0:0:
66,134,68825,1,2,0:0:0:0:
267,9,69003,1,8,0:0:0:0:
221,340,69180,1,8,0:0:0:0:
398,77,69358,6,0,B|354:93|319:74|319:74|267:109|214:73,1,185.399998444061,4|0,0:0|0:0,0:0:0:0:
390,325,69890,2,0,L|373:222,1,92.6999992220307,10|0,0:1|0:0,0:0:0:0:
323,166,70156,1,0,0:0:0:0:
323,166,70245,2,0,B|292:209|292:209|302:263,1,92.6999992220307
424,348,70600,1,8,0:0:0:0:
398,77,70778,6,0,B|298:55|298:55|241:135,1,185.399998444061,2|0,0:1|0:0,0:0:0:0:
341,294,71310,1,8,0:0:0:0:
163,178,71488,1,0,0:0:0:0:
163,178,71577,1,0,0:0:0:0:
163,178,71665,1,8,0:0:0:0:
375,167,71843,1,8,0:0:0:0:
102,122,72020,1,8,0:0:0:0:
398,77,72198,6,0,P|461:140|442:227,1,185.399998444061,8|0,0:0|0:0,0:0:0:0:
341,294,72642,1,0,0:0:0:0:
341,294,72730,2,0,P|294:297|246:307,1,92.6999992220307,8|0,0:0|0:0,0:0:0:0:
461,369,73085,1,0,0:0:0:0:
347,172,73263,1,0,0:0:0:0:
231,324,73440,1,8,0:0:0:0:
483,216,73618,6,0,P|479:168|461:123,1,92.6999992220307,2|0,0:1|0:0,0:0:0:0:
286,26,73973,1,0,0:0:0:0:
286,26,74062,1,0,0:0:0:0:
286,26,74151,1,8,0:0:0:0:
375,206,74328,1,0,0:0:0:0:
375,206,74417,1,0,0:0:0:0:
375,206,74506,1,8,0:0:0:0:
445,47,74683,1,0,0:0:0:0:
200,142,74861,2,0,L|218:237,1,92.6999992220307,8|0,0:0|0:0,0:0:0:0:
361,110,75216,5,2,0:0:0:0:
125,56,75393,1,0,0:0:0:0:
280,267,75571,2,0,P|240:302|174:285,1,92.6999992220307,8|0,0:0|0:0,0:0:0:0:
420,309,75926,1,0,0:0:0:0:
271,148,76103,1,0,0:0:0:0:
227,377,76281,1,8,0:0:0:0:
180,140,76458,6,0,B|254:123|254:123|279:129|279:129|366:108,1,185.399998444061,2|0,0:1|0:0,0:0:0:0:
462,278,76991,2,0,P|462:233|441:169,1,92.6999992220307,8|0,0:0|0:0,0:0:0:0:
297,73,77346,1,8,0:0:0:0:
191,232,77523,1,0,0:0:0:0:
191,232,77612,1,0,0:0:0:0:
191,232,77701,2,0,L|179:134,1,92.6999992220307,8|0,0:0|0:0,0:0:0:0:
397,14,78056,6,0,B|436:26|436:26|455:176,1,185.399998444061,2|8,0:0|0:0,0:0:0:0:
311,256,78588,1,0,0:0:0:0:
311,256,78677,1,0,0:0:0:0:
311,256,78766,1,0,0:0:0:0:
480,148,78943,1,0,0:0:0:0:
443,344,79121,1,8,0:0:0:0:
379,194,79298,6,0,B|397:330|397:330|448:346,1,185.399998444061,2|8,0:0|0:0,0:0:0:0:
512,237,79831,1,0,0:0:0:0:
297,113,80009,1,0,0:0:0:0:
502,263,80186,1,8,0:0:0:0:
302,362,80364,1,8,0:0:0:0:
414,139,80541,2,0,L|434:239,1,92.6999992220307,8|0,0:0|0:0,0:0:0:0:
302,362,80896,6,0,B|225:377|225:377|167:329,1,153.000002918243,4|8,0:0|0:0,0:0:0:0:
387,269,81429,1,2,0:1:0:0:
288,143,81606,2,0,L|247:291,1,153.000002918243,2|8,0:1|0:0,0:0:0:0:
32,358,82139,6,0,L|77:190,1,153.000002918243,10|2,0:1|0:1,0:0:0:0:
288,143,82671,1,10,0:1:0:0:
69,17,82849,1,10,0:1:0:0:
193,253,83026,5,2,0:0:0:0:
231,276,83115,1,2,0:0:0:0:
272,258,83204,1,2,0:0:0:0:
310,281,83293,1,2,0:0:0:0:
355,269,83381,2,0,L|365:212,1,45,10|2,0:0|0:0,0:0:0:0:
511,93,83559,2,0,L|503:137,1,45,2|2,0:0|0:0,0:0:0:0:
355,269,83736,5,6,0:0:0:0:
251,95,92257,5,10,0:1:0:0:
221,104,92346,1,8,0:1:0:0:
189,99,92435,1,10,0:1:0:0:
160,85,92523,1,2,0:1:0:0:
131,70,92612,2,0,L|122:19,1,45,2|2,0:1|0:1,0:0:0:0:
34,174,92790,5,10,0:1:0:0:
28,209,92878,1,8,0:0:0:0:
25,244,92967,1,10,0:1:0:0:
21,279,93056,1,2,0:1:0:0:
18,314,93145,2,0,L|67:322,1,45,2|2,0:1|0:1,0:0:0:0:
212,291,93322,5,10,0:1:0:0:
247,285,93411,1,10,0:1:0:0:
282,292,93500,1,10,0:1:0:0:
313,309,93588,1,2,0:1:0:0:
342,329,93677,1,2,0:1:0:0:
366,355,93766,5,2,0:1:0:0:
370,310,93855,1,2,0:1:0:0:
376,265,93943,1,2,0:1:0:0:
380,220,94032,1,10,0:1:0:0:
383,175,94121,1,2,0:1:0:0:
386,129,94210,1,2,0:1:0:0:
413,143,94298,5,2,0:1:0:0:
444,138,94387,1,10,0:1:0:0:
469,119,94476,1,2,0:1:0:0:
486,92,94565,1,2,0:1:0:0:
493,61,94654,1,10,0:1:0:0:
474,36,94742,1,2,0:1:0:0:
447,18,94831,1,2,0:1:0:0:
423,10,94920,6,0,B|373:42|326:11|326:11|302:68|302:68|259:35|200:60,1,270,6|2,0:0|0:0,0:0:0:0:
202,58,96163,1,8,0:0:0:0:
444,358,96517,6,0,B|439:266,1,80.9999975280763,4|0,0:0|0:0,0:0:0:0:
365,115,96872,2,0,B|370:207,1,80.9999975280763,4|0,0:3|0:0,0:0:0:0:
192,310,97227,2,0,P|245:275|314:292,1,121.499996292114
369,332,97582,1,4,0:3:0:0:
161,363,97760,6,0,L|146:273,1,80.9999975280763
206,103,98115,1,0,0:0:0:0:
103,193,98293,2,0,P|61:198|22:199,1,80.9999975280763,4|0,0:3|0:0,0:0:0:0:
217,256,98648,1,0,0:0:0:0:
204,21,98825,1,8,0:0:0:0:
69,174,99003,1,8,0:0:0:0:
290,129,99180,6,0,P|332:124|370:122,1,80.9999975280763,4|0,0:0|0:0,0:0:0:0:
225,289,99535,1,0,0:0:0:0:
230,300,99624,1,0,0:0:0:0:
234,311,99713,2,0,L|239:210,1,80.9999975280763,4|0,0:3|0:0,0:0:0:0:
104,106,100068,2,0,P|145:111|194:92,1,80.9999975280763
299,46,100334,2,0,L|303:2,1,40.4999987640381,0|4,0:0|0:3,0:0:0:0:
395,189,100600,6,0,B|406:229|406:229|386:280,1,80.9999975280763
275,211,100955,1,0,0:0:0:0:
351,378,101133,1,4,0:3:0:0:
481,251,101310,1,0,0:0:0:0:
232,302,101488,1,8,0:0:0:0:
232,302,101577,1,8,0:0:0:0:
232,302,101665,1,8,0:0:0:0:
326,87,101843,1,4,0:3:0:0:
391,265,102020,5,0,0:0:0:0:
441,39,102198,2,0,B|476:24|476:24|490:153,1,161.999995056153,4|8,0:0|0:0,0:0:0:0:
391,265,102730,1,2,0:0:0:0:
258,130,102908,2,0,P|293:161|343:163,1,80.9999975280763,0|2,0:0|0:0,0:0:0:0:
215,234,103263,1,8,0:0:0:0:
297,44,103440,1,0,0:0:0:0:
401,197,103618,5,10,0:0:0:0:
396,231,103707,1,2,0:0:0:0:
391,265,103796,1,10,0:0:0:0:
161,179,103973,1,10,0:0:0:0:
166,145,104062,1,2,0:0:0:0:
171,111,104151,1,2,0:0:0:0:
402,16,104328,1,10,0:0:0:0:
398,50,104417,1,10,0:0:0:0:
393,84,104506,1,10,0:0:0:0:
203,338,104683,1,10,0:0:0:0:
207,304,104772,1,2,0:0:0:0:
212,270,104861,1,2,0:0:0:0:
223,56,105038,6,0,P|180:35|125:53,1,90,4|0,0:0|0:0,0:0:0:0:
48,102,105304,1,0,0:0:0:0:
48,102,105393,2,0,L|3:108,1,45
161,179,105571,2,0,L|205:185,1,45
64,237,105748,2,0,B|96:267|96:267|144:275,1,90
260,334,106014,2,0,L|268:385,2,45
355,237,106281,2,0,L|399:230,1,45,2|0,0:1|0:0,0:0:0:0:
512,262,106458,5,0,0:0:0:0:
411,119,106636,1,0,0:0:0:0:
370,346,106813,1,0,0:0:0:0:
270,162,106991,6,0,L|256:105,2,45
197,306,107257,2,0,L|204:362,1,45
77,206,107435,2,0,P|116:222|168:218,1,90
270,162,107701,6,0,B|292:151|334:180|334:180|373:143|373:143|357:92|357:92|304:64|265:75,1,270,2|0,0:1|0:0,0:0:0:0:
149,130,108056,6,0,L|165:232,1,90,4|0,0:0|0:0,0:0:0:0:
312,345,108411,1,0,0:0:0:0:
355,355,108500,1,0,0:0:0:0:
397,341,108588,1,0,0:0:0:0:
427,308,108677,2,0,L|433:250,1,45
334,100,108855,2,0,L|316:204,1,90,4|0,0:0|0:0,0:0:0:0:
225,246,109121,2,0,L|178:254,1,45,2|0,0:0|0:0,0:0:0:0:
98,319,109298,5,6,0:0:0:0:
211,157,109476,1,2,0:0:0:0:
211,384,109654,1,2,0:0:0:0:
228,132,109831,1,2,0:0:0:0:
337,358,110009,2,0,L|382:364,1,45,2|0,0:0|0:0,0:0:0:0:
494,194,110186,2,0,L|449:187,1,45
270,291,110541,5,0,0:0:0:0:
256,317,110719,2,0,L|233:181,1,135.000005149842,4|0,0:0|0:0,0:0:0:0:
407,92,111251,2,0,L|331:86,1,67.5000025749208,2|8,0:0|0:0,0:0:0:0:
240,9,111606,1,0,0:0:0:0:
92,162,111784,6,0,B|251:145|251:145|226:202,1,202.500007724762,2|8,0:0|0:0,0:0:0:0:
140,328,112494,1,2,0:0:0:0:
267,274,112671,1,0,0:0:0:0:
78,236,112849,1,8,0:0:0:0:
223,117,113027,2,0,L|234:187,1,67.5000025749208
227,350,113382,1,0,0:0:0:0:
146,146,113559,6,0,B|137:74|137:74|198:40,1,135.000005149842,4|0,0:0|0:0,0:0:0:0:
341,96,114092,2,0,P|376:104|418:107,2,67.5000025749208,2|8|0,0:0|0:0|0:0,0:0:0:0:
146,146,114624,1,2,0:0:0:0:
298,280,114802,6,0,B|273:303|273:303|168:280,1,135.000005149842,0|8,0:0|0:0,0:0:0:0:
146,146,115334,2,0,L|214:160,1,67.5000025749208,2|0,0:0|0:0,0:0:0:0:
298,280,115689,1,8,0:0:0:0:
260,93,115867,1,2,0:0:0:0:
215,312,116044,1,0,0:0:0:0:
335,166,116222,1,0,0:0:0:0:
103,216,116399,6,0,P|143:216|190:220,1,80.9999975280763,4|0,0:0|0:0,0:0:0:0:
378,283,116754,2,0,P|338:283|291:279,1,80.9999975280763,8|0,0:0|0:0,0:0:0:0:
248,167,117109,1,0,0:0:0:0:
182,342,117287,1,0,0:0:0:0:
343,296,117464,1,8,0:0:0:0:
142,169,117642,1,0,0:0:0:0:
152,130,117730,1,0,0:0:0:0:
164,91,117819,6,0,P|205:89|249:82,1,80.9999975280763
383,1,118174,1,8,0:0:0:0:
330,181,118352,1,0,0:0:0:0:
334,220,118440,1,0,0:0:0:0:
338,260,118529,1,0,0:0:0:0:
218,356,118707,1,0,0:0:0:0:
418,279,118884,2,0,P|458:284|498:285,1,80.9999975280763,4|0,0:0|0:0,0:0:0:0:
396,93,119239,6,0,L|407:193,1,80.9999975280763,4|0,0:0|0:0,0:0:0:0:
294,245,119594,1,8,0:0:0:0:
167,106,119772,1,0,0:0:0:0:
154,146,119861,1,0,0:0:0:0:
142,184,119949,1,0,0:0:0:0:
305,126,120127,1,0,0:0:0:0:
275,319,120304,1,8,0:0:0:0:
425,170,120482,1,0,0:0:0:0:
409,132,120571,1,0,0:0:0:0:
396,93,120659,6,0,L|369:188,1,80.9999975280763
383,326,121014,1,8,0:0:0:0:
512,267,121192,1,8,0:0:0:0:
373,170,121369,1,0,0:0:0:0:
467,359,121547,1,8,0:0:0:0:
267,256,121725,2,0,P|307:255|361:248,1,80.9999975280763,8|0,0:0|0:0,0:0:0:0:
196,74,122080,6,0,B|168:57|168:57|169:127|162:187,1,161.999995056153,4|8,0:0|0:0,0:0:0:0:
267,256,122612,1,0,0:0:0:0:
95,120,122790,2,0,B|62:105|62:105|14:101,1,80.9999975280763
140,258,123145,1,8,0:0:0:0:
286,121,123322,1,0,0:0:0:0:
297,159,123411,1,0,0:0:0:0:
312,196,123500,6,0,B|344:65|344:65|374:90,1,161.999995056153,0|8,0:0|0:0,0:0:0:0:
468,174,124032,1,0,0:0:0:0:
345,270,124210,1,0,0:0:0:0:
364,82,124387,1,0,0:0:0:0:
431,312,124565,2,0,L|416:218,1,80.9999975280763,4|0,0:0|0:0,0:0:0:0:
286,121,124920,6,0,P|253:98|199:97,1,80.9999975280763,10|0,0:1|0:0,0:0:0:0:
123,268,125275,2,0,P|160:251|184:219,1,80.9999975280763,10|0,0:1|0:0,0:0:0:0:
272,20,125630,1,10,0:1:0:0:
295,212,125807,1,2,0:0:0:0:
441,130,125985,1,2,0:0:0:0:
167,105,126162,6,0,B|298:93|298:93|276:141,1,161.999995056153,4|8,0:0|0:0,0:0:0:0:
184,220,126695,1,2,0:0:0:0:
366,23,126872,6,0,B|376:100|376:100|350:160,1,135.000005149842,4|2,0:0|0:0,0:0:0:0:
108,251,127405,6,0,P|183:217|260:247,1,161.999995056153,10|0,0:1|0:0,0:0:0:0:
340,322,127760,5,4,0:0:0:0:
283,129,127938,1,0,0:0:0:0:
185,264,128115,2,0,L|177:174,1,80.9999975280763,8|0,0:0|0:0,0:0:0:0:
274,48,128470,2,0,L|283:138,1,80.9999975280763,2|0,0:1|0:0,0:0:0:0:
356,197,128736,1,0,0:0:0:0:
356,197,128825,1,8,0:0:0:0:
185,264,129003,6,0,P|143:271|96:273,1,80.9999975280763,2|0,0:1|0:0,0:0:0:0:
327,331,129358,2,0,P|369:338|416:340,1,80.9999975280763,0|8,0:0|0:0,0:0:0:0:
340,164,129713,1,0,0:0:0:0:
323,127,129801,1,0,0:0:0:0:
305,90,129890,2,0,L|293:184,1,80.9999975280763
91,275,130245,6,0,B|158:306|158:306|256:276,1,161.999995056153,4|0,0:0|0:0,0:0:0:0:
294,170,130600,5,8,0:0:0:0:
327,331,130778,1,2,0:0:0:0:
323,127,130955,5,2,0:0:0:0:
416,384,131133,1,8,0:0:0:0:
374,159,131310,5,2,0:0:0:0:
206,339,131488,1,2,0:0:0:0:
166,331,131577,1,0,0:0:0:0:
126,323,131665,1,0,0:0:0:0:
86,314,131754,1,0,0:0:0:0:
45,302,131843,6,0,P|21:222|74:152,1,161.999995056153,2|2,0:0|0:0,0:0:0:0:
60,159,132375,1,8,0:0:0:0:
248,309,132553,2,0,B|214:258|214:258|116:238,1,161.999995056153,2|0,0:0|0:0,0:0:0:0:
367,23,133085,6,0,B|347:65|383:103|383:103|351:128|351:128|385:165|365:219,1,202.500007724762,4|0,0:0|0:0,0:0:0:0:
269,304,133440,5,4,0:0:0:0:
512,226,133618,1,0,0:0:0:0:
243,207,133796,5,8,0:0:0:0:
490,130,133973,1,0,0:0:0:0:
214,112,134151,5,8,0:0:0:0:
460,41,134328,1,0,0:0:0:0:
386,228,134506,1,8,0:0:0:0:
241,38,134683,6,0,P|199:31|159:52,1,80.9999975280763,0|8,0:0|0:0,0:0:0:0:
316,194,135038,1,0,0:0:0:0:
413,6,135216,2,0,L|420:100,1,80.9999975280763,8|0,0:0|0:0,0:0:0:0:
278,272,135571,1,8,0:0:0:0:
512,156,135748,1,8,0:0:0:0:
241,38,135926,1,8,0:0:0:0:
416,337,136103,6,0,L|403:163,1,161.999995056153,4|8,0:0|0:0,0:0:0:0:
331,97,136547,1,0,0:0:0:0:
331,97,136636,1,8,0:0:0:0:
512,228,136813,1,8,0:0:0:0:
284,66,136991,1,8,0:0:0:0:
288,321,137168,1,8,0:0:0:0:
417,64,137346,1,8,0:0:0:0:
416,337,137523,1,8,0:0:0:0:
189,171,137701,5,8,0:0:0:0:
512,228,137878,1,8,0:0:0:0:
173,299,138056,1,8,0:0:0:0:
466,123,138233,1,8,0:0:0:0:
121,48,138411,2,0,B|104:129|104:129|121:169,2,121.499996292114,8|8|8,0:0|0:0|0:0,0:0:0:0:
206,22,139032,1,0,0:0:0:0:
206,22,139121,6,0,L|189:105,1,80.9999975280763,4|0,0:0|0:0,0:0:0:0:
236,278,139476,2,0,L|252:198,1,80.9999975280763,10|0,0:1|0:0,0:0:0:0:
122,241,139831,1,10,0:1:0:0:
360,166,140009,1,0,0:0:0:0:
367,126,140097,1,0,0:0:0:0:
374,86,140186,1,10,0:1:0:0:
191,280,140364,6,0,B|227:290|227:290|287:286,1,80.9999975280763,0|10,0:0|0:1,0:0:0:0:
81,345,140719,1,0,0:0:0:0:
46,123,140896,2,0,L|22:218,1,80.9999975280763,4|0,0:0|0:0,0:0:0:0:
160,349,141251,2,0,B|219:365|219:365|306:359,2,121.499996292114,8|8|8,0:0|0:0|0:0,0:0:0:0:
38,182,141961,5,8,0:0:0:0:
284,232,142138,1,2,0:0:0:0:
46,222,142316,5,8,0:0:0:0:
279,360,142494,1,2,0:0:0:0:
56,261,142671,5,8,0:0:0:0:
56,261,142760,1,8,0:0:0:0:
56,261,142849,1,8,0:0:0:0:
369,312,143026,1,8,0:0:0:0:
360,272,143115,1,8,0:0:0:0:
353,231,143204,1,8,0:0:0:0:
341,191,143293,1,8,0:0:0:0:
333,151,143381,5,4,0:0:0:0:
512,220,143559,1,8,0:0:0:0:
194,321,143736,1,8,0:0:0:0:
205,156,144269,5,0,0:0:0:0:
175,335,144446,1,0,0:0:0:0:
170,75,144624,6,0,P|214:72|273:94,1,92.6999992220307,4|0,0:0|0:0,0:0:0:0:
88,284,144979,1,0,0:0:0:0:
88,284,145068,1,0,0:0:0:0:
88,284,145156,2,0,L|103:191,1,92.6999992220307,10|0,0:1|0:0,0:0:0:0:
337,259,145511,1,0,0:0:0:0:
221,136,145689,1,0,0:0:0:0:
175,335,145866,1,8,0:0:0:0:
313,127,146044,6,0,P|270:125|216:136,1,92.6999992220307,2|0,0:1|0:0,0:0:0:0:
88,284,146399,1,0,0:0:0:0:
170,75,146576,1,8,0:0:0:0:
264,289,146754,1,0,0:0:0:0:
264,289,146843,1,0,0:0:0:0:
264,289,146931,2,0,P|268:339|273:381,1,92.6999992220307
128,191,147286,1,8,0:0:0:0:
396,108,147464,1,0,0:0:0:0:
396,108,147553,1,0,0:0:0:0:
396,108,147641,6,0,P|306:82|231:140,1,185.399998444061,2|8,0:1|0:0,0:0:0:0:
165,266,148174,1,0,0:0:0:0:
318,135,148352,2,0,P|316:88|311:37,1,92.6999992220307
228,17,148618,1,0,0:0:0:0:
228,17,148707,1,8,0:0:0:0:
398,234,148884,6,0,B|417:271|417:271|251:248,1,185.399998444061,2|0,0:1|0:0,0:0:0:0:
142,159,149417,1,8,0:0:0:0:
182,323,149594,1,2,0:0:0:0:
333,155,149772,1,2,0:0:0:0:
158,339,149949,1,0,0:0:0:0:
381,307,150127,1,8,0:0:0:0:
233,104,150304,1,0,0:0:0:0:
270,378,150482,6,0,B|286:371|286:371|298:296,1,92.6999992220307,4|0,0:0|0:0,0:0:0:0:
233,104,150837,2,0,L|217:207,1,92.6999992220307,8|0,0:0|0:0,0:0:0:0:
167,302,151103,1,0,0:0:0:0:
167,302,151192,1,0,0:0:0:0:
347,229,151369,1,0,0:0:0:0:
139,154,151547,1,8,0:0:0:0:
269,378,151724,6,0,L|365:361,1,92.6999992220307
488,274,152079,1,0,0:0:0:0:
345,143,152257,2,0,B|332:214|332:214|354:236,1,92.6999992220307,8|0,0:0|0:0,0:0:0:0:
430,168,152523,1,0,0:0:0:0:
430,168,152612,2,0,L|449:72,1,92.6999992220307
150,177,152967,2,0,P|193:189|247:195,1,92.6999992220307,10|0,0:1|0:0,0:0:0:0:
359,320,153322,5,4,0:0:0:0:
247,202,153499,1,0,0:0:0:0:
247,202,153588,1,0,0:0:0:0:
247,202,153677,1,8,0:0:0:0:
185,351,153854,1,0,0:0:0:0:
379,239,154032,1,2,0:0:0:0:
196,131,154209,1,0,0:0:0:0:
411,264,154387,1,8,0:0:0:0:
371,42,154565,1,0,0:0:0:0:
178,249,154742,5,2,0:0:0:0:
436,144,154920,1,2,0:0:0:0:
284,365,155097,1,8,0:0:0:0:
316,108,155275,1,2,0:0:0:0:
316,108,155363,1,2,0:0:0:0:
316,108,155452,1,2,0:0:0:0:
453,302,155630,1,8,0:0:0:0:
106,259,155807,1,8,0:0:0:0:
371,42,155985,6,0,B|352:189|352:189|320:161,1,185.399998444061,4|0,0:0|0:0,0:0:0:0:
222,111,156429,1,0,0:0:0:0:
222,111,156517,2,0,P|175:102|125:99,1,92.6999992220307,10|0,0:1|0:0,0:0:0:0:
15,175,156872,1,0,0:0:0:0:
144,242,157050,1,0,0:0:0:0:
129,22,157227,1,8,0:0:0:0:
42,301,157405,6,0,B|63:147|63:147|93:168,1,185.399998444061,2|0,0:1|0:0,0:0:0:0:
225,260,157938,2,0,B|273:264|273:264|317:254,1,92.6999992220307,8|0,0:0|0:0,0:0:0:0:
400,199,158204,1,0,0:0:0:0:
400,199,158293,1,8,0:0:0:0:
204,132,158470,1,8,0:0:0:0:
220,358,158648,1,8,0:0:0:0:
182,108,158825,6,0,B|237:127|287:83|287:83|370:76,1,185.399998444061,8|0,0:0|0:0,0:0:0:0:
453,120,159269,1,0,0:0:0:0:
453,120,159358,2,0,B|413:148|413:148|354:154,1,92.6999992220307,8|0,0:0|0:0,0:0:0:0:
258,220,159713,1,0,0:0:0:0:
358,64,159890,1,0,0:0:0:0:
369,271,160068,1,8,0:0:0:0:
139,157,160245,6,0,B|122:129|122:129|275:117,1,185.399998444061,2|0,0:1|0:0,0:0:0:0:
369,152,160689,1,0,0:0:0:0:
369,152,160778,1,8,0:0:0:0:
180,252,160955,1,0,0:0:0:0:
143,256,161044,1,0,0:0:0:0:
106,260,161133,1,8,0:0:0:0:
324,317,161310,1,0,0:0:0:0:
361,321,161399,1,0,0:0:0:0:
397,325,161488,2,0,P|409:276|414:226,1,92.6999992220307,8|0,0:0|0:0,0:0:0:0:
342,40,161843,5,2,0:0:0:0:
280,206,162020,1,0,0:0:0:0:
98,113,162198,2,0,P|145:106|191:103,1,92.6999992220307,8|0,0:0|0:0,0:0:0:0:
143,256,162553,1,2,0:1:0:0:
144,73,162730,1,0,0:0:0:0:
97,297,162908,1,8,0:0:0:0:
227,58,163085,6,0,B|251:48|251:48|280:209,1,185.399998444061,2|0,0:1|0:0,0:0:0:0:
379,105,163618,2,0,B|430:92|430:92|472:107,1,92.6999992220307,8|0,0:0|0:0,0:0:0:0:
341,296,163973,2,0,B|290:309|290:309|248:294,1,92.6999992220307,8|0,0:0|0:0,0:0:0:0:
162,251,164239,1,0,0:0:0:0:
162,251,164328,2,0,P|111:255|56:263,1,92.6999992220307,8|0,0:0|0:0,0:0:0:0:
227,58,164683,6,0,B|245:211|245:211|267:189,1,185.399998444061,4|8,0:0|0:0,0:0:0:0:
368,96,165216,1,0,0:0:0:0:
368,96,165304,1,0,0:0:0:0:
368,96,165393,1,0,0:0:0:0:
126,51,165571,1,0,0:0:0:0:
267,188,165748,1,8,0:0:0:0:
71,334,165926,6,0,P|152:276|237:316,1,185.399998444061,2|8,0:0|0:0,0:0:0:0:
116,180,166458,1,0,0:0:0:0:
159,374,166636,1,0,0:0:0:0:
194,135,166813,1,8,0:0:0:0:
71,334,166991,1,8,0:0:0:0:
337,234,167168,2,0,P|380:231|447:224,1,92.6999992220307,8|0,0:0|0:0,0:0:0:0:
276,348,167523,5,6,0:0:0:0:
199,174,167701,1,2,0:0:0:0:
194,135,167790,1,2,0:0:0:0:
190,96,167878,1,10,0:0:0:0:
428,4,168056,1,2,0:0:0:0:
437,37,168145,1,2,0:0:0:0:
442,70,168233,1,2,0:0:0:0:
331,205,168411,1,2,0:0:0:0:
337,234,168500,1,2,0:0:0:0:
343,263,168588,1,10,0:0:0:0:
197,364,168766,1,2,0:0:0:0:
192,338,168855,1,2,0:0:0:0:
188,312,168943,5,2,0:0:0:0:
111,190,169121,1,2,0:0:0:0:
107,168,169210,1,2,0:0:0:0:
101,147,169298,1,10,0:0:0:0:
221,38,169476,1,2,0:0:0:0:
224,54,169565,1,2,0:0:0:0:
231,69,169654,5,2,0:0:0:0:
264,57,169742,1,2,0:0:0:0:
296,68,169831,1,2,0:0:0:0:
327,54,169920,1,2,0:0:0:0:
359,64,170009,1,10,0:0:0:0:
391,52,170097,1,2,0:0:0:0:
424,61,170186,2,0,L|431:111,1,43.2000010546875,2|2,0:0|0:0,0:0:0:0:
331,205,170364,5,4,0:0:0:0:
444,351,170541,1,2,0:0:0:0:
464,356,170630,1,2,0:0:0:0:
484,361,170719,1,10,0:0:0:0:
469,219,170896,1,2,0:0:0:0:
443,213,170985,1,2,0:0:0:0:
417,207,171074,1,2,0:0:0:0:
265,296,171251,1,2,0:0:0:0:
235,288,171340,1,2,0:0:0:0:
205,281,171429,1,10,0:0:0:0:
91,78,171606,1,2,0:0:0:0:
124,86,171695,1,2,0:0:0:0:
157,94,171784,6,0,L|147:139,1,43.2000010546875,2|2,0:0|0:0,0:0:0:0:
205,281,171961,2,0,L|218:226,1,43.2000010546875,2|2,0:0|0:0,0:0:0:0:
95,224,172139,2,0,L|33:209,1,43.2000010546875,10|2,0:0|0:0,0:0:0:0:
252,145,172316,2,0,L|314:160,1,43.2000010546875,2|2,0:0|0:0,0:0:0:0:
310,338,172494,2,0,L|258:327,1,43.2000010546875,8|0,0:0|0:0,0:0:0:0:
166,192,172671,1,10,0:0:0:0:
397,175,172849,1,10,0:0:0:0:
141,166,173026,1,2,0:0:0:0:
348,17,173204,6,0,B|361:9|361:9|375:79,1,86.4000021093751,6|0,0:0|0:0,0:0:0:0:
290,233,173559,1,8,0:0:0:0:
461,115,173736,1,2,0:0:0:0:
461,115,173825,1,2,0:0:0:0:
461,115,173914,1,2,0:0:0:0:
233,74,174091,1,2,0:0:0:0:
384,270,174269,1,10,0:0:0:0:
357,142,174446,1,2,0:0:0:0:
251,338,174624,6,0,B|271:346|271:346|339:336,1,86.4000021093751,2|0,0:0|0:0,0:0:0:0:
384,270,174890,1,2,0:0:0:0:
384,270,174979,1,10,0:0:0:0:
141,170,175156,1,2,0:0:0:0:
346,93,175334,2,0,L|362:178,1,86.4000021093751,2|2,0:0|0:0,0:0:0:0:
199,267,175689,1,8,0:0:0:0:
414,54,175867,1,2,0:0:0:0:
406,43,175955,1,2,0:0:0:0:
397,33,176044,6,0,P|337:15|268:89,1,172.80000421875,2|8,0:0|0:0,0:0:0:0:
439,232,176577,1,2,0:0:0:0:
444,265,176665,1,2,0:0:0:0:
428,299,176754,1,10,0:0:0:0:
401,321,176843,1,2,0:0:0:0:
360,327,176932,1,10,0:0:0:0:
327,303,177020,1,2,0:0:0:0:
292,294,177109,1,2,0:0:0:0:
258,302,177198,1,2,0:0:0:0:
290,377,177287,6,0,B|316:223|316:223|338:232,1,172.80000421875,4|2,0:0|0:0,0:0:0:0:
428,299,177730,1,2,0:0:0:0:
428,299,177819,1,10,0:0:0:0:
210,232,177997,2,0,P|167:229|122:220,1,86.4000021093751,6|0,0:0|0:0,0:0:0:0:
306,145,178352,1,2,0:0:0:0:
118,103,178529,1,10,0:0:0:0:
210,232,178707,1,2,0:0:0:0:
27,121,178884,6,0,L|52:31,1,86.4000021093751,6|0,0:0|0:0,0:0:0:0:
220,201,179239,2,0,L|196:284,1,86.4000021093751,8|0,0:0|0:0,0:0:0:0:
39,324,179594,1,0,0:0:0:0:
285,377,179772,1,2,0:0:0:0:
132,224,179949,1,10,0:0:0:0:
157,82,180127,6,0,B|112:228|112:228|160:216,1,172.80000421875,2|2,0:0|0:0,0:0:0:0:
272,144,180659,1,10,0:0:0:0:
205,356,180837,2,0,L|198:268,1,86.4000021093751,2|0,0:0|0:0,0:0:0:0:
272,144,181192,1,2,0:0:0:0:
435,219,181369,1,10,0:0:0:0:
313,266,181547,1,2,0:0:0:0:
355,52,181725,5,4,0:0:0:0:
435,219,181902,2,0,L|441:262,1,43.2000010546875
325,351,182080,2,0,L|312:264,1,86.4000021093751,8|0,0:0|0:0,0:0:0:0:
261,41,182435,1,2,0:0:0:0:
196,185,182612,1,2,0:0:0:0:
426,129,182790,1,10,0:0:0:0:
143,115,182967,6,0,B|207:102|207:102|230:110,1,86.4000021093751,2|0,0:0|0:0,0:0:0:0:
312,265,183322,1,2,0:0:0:0:
261,41,183500,1,10,0:0:0:0:
196,185,183677,2,0,L|109:202,1,86.4000021093751,2|0,0:0|0:0,0:0:0:0:
302,308,184032,2,0,L|308:353,2,28.800000703125,2|2|2,0:0|0:0|0:0,0:0:0:0:
330,237,184210,1,10,0:0:0:0:
181,379,184387,1,2,0:0:0:0:
143,115,184565,5,6,0:0:0:0:
176,104,184654,1,2,0:0:0:0:
209,108,184742,1,2,0:0:0:0:
240,123,184831,1,2,0:0:0:0:
264,147,184920,1,10,0:0:0:0:
279,177,185009,1,2,0:0:0:0:
300,203,185097,1,2,0:0:0:0:
331,216,185186,1,2,0:0:0:0:
365,221,185275,1,2,0:0:0:0:
397,210,185364,1,2,0:0:0:0:
426,192,185452,2,2,L|441:248,1,43.2000010546875
353,361,185630,2,0,L|339:319,1,43.2000010546875,10|2,0:0|0:0,0:0:0:0:
279,177,185807,2,0,L|265:219,1,43.2000010546875,2|2,0:0|0:0,0:0:0:0:
158,201,185985,6,0,L|184:118,1,86.4000021093751,2|2,0:0|0:0,0:0:0:0:
281,45,186251,2,0,P|302:43|328:38,2,43.2000010546875,2|8|2,0:0|0:0|0:0,0:0:0:0:
144,5,186517,1,2,0:0:0:0:
279,177,186695,2,0,L|252:259,1,86.4000021093751,2|10,0:0|0:0,0:0:0:0:
174,327,186961,1,8,0:0:0:0:
174,327,187050,1,10,0:0:0:0:
357,112,187227,6,0,B|378:96|378:96|226:104,1,172.80000421875,6|2,0:0|0:0,0:0:0:0:
158,201,187760,1,10,0:0:0:0:
210,29,187938,1,2,0:0:0:0:
269,245,188115,5,10,0:0:0:0:
327,18,188293,1,2,0:0:0:0:
387,287,188470,5,10,0:0:0:0:
451,13,188648,1,2,0:0:0:0:
229,164,188825,1,10,0:0:0:0:
512,113,189003,2,0,B|437:104|437:104|429:113,1,86.4000021093751,2|8,0:0|0:0,0:0:0:0:
258,342,189358,2,0,L|243:249,1,86.4000021093751,2|8,0:0|0:0,0:0:0:0:
346,74,189713,1,0,0:0:0:0:
409,289,189890,1,4,0:0:0:0:
191,138,190068,1,2,0:0:0:0:
489,236,190245,5,6,0:0:0:0:
486,252,190334,1,2,0:0:0:0:
482,268,190423,1,2,0:0:0:0:
478,284,190511,1,2,0:0:0:0:
475,301,190600,1,10,0:0:0:0:
472,317,190689,1,2,0:0:0:0:
468,333,190778,1,2,0:0:0:0:
464,349,190867,1,2,0:0:0:0:
435,332,190955,5,10,0:0:0:0:
402,323,191044,1,2,0:0:0:0:
367,322,191133,1,2,0:0:0:0:
333,331,191222,1,2,0:0:0:0:
302,340,191310,1,10,0:0:0:0:
269,329,191399,1,2,0:0:0:0:
249,301,191488,1,2,0:0:0:0:
245,266,191577,1,2,0:0:0:0:
254,232,191665,5,10,0:0:0:0:
267,199,191754,1,2,0:0:0:0:
266,164,191843,2,2,L|253:90,1,43.2000010546875
170,75,192020,2,0,L|175:117,1,43.2000010546875,10|2,0:0|0:0,0:0:0:0:
344,140,192198,2,0,L|335:97,1,43.2000010546875,2|2,0:0|0:0,0:0:0:0:
98,128,192375,2,0,L|116:259,2,129.600003164063,10|10|10,0:0|0:0|0:0,0:0:0:0:
346,23,193085,5,14,0:0:0:0:
388,30,193173,1,2,0:0:0:0:
427,49,193262,1,10,0:0:0:0:
458,78,193351,1,2,0:0:0:0:
481,114,193440,1,10,0:0:0:0:
492,156,193528,1,2,0:0:0:0:
491,199,193617,1,10,0:0:0:0:
477,240,193706,1,2,0:0:0:0:
453,276,193795,1,10,0:0:0:0:
420,303,193883,1,2,0:0:0:0:
380,319,193972,1,10,0:0:0:0:
337,324,194061,1,2,0:0:0:0:
295,317,194150,1,10,0:0:0:0:
220,115,194328,5,10,0:0:0:0:
86,333,194506,2,0,L|77:377,5,43.2000010546875,14|8|8|8|8|8,0:0|0:0|0:0|0:0|0:0|0:0,0:0:0:0:
55,217,195038,2,0,L|47:187,19,21.6000005273438,14|8|8|8|8|8|8|8|8|8|8|8|8|8|8|8|8|8|8|8,0:0|0:0|0:0|0:0|0:0|0:0|0:0|0:0|0:0|0:0|0:0|0:0|0:0|0:0|0:0|0:0|0:0|0:0|0:0|0:0,0:0:0:0:
133,231,195926,5,0,0:0:0:0:
234,179,196103,1,0,0:0:0:0:
138,120,196281,1,0,0:0:0:0:
208,255,196458,5,0,0:0:0:0:
222,100,196636,1,0,0:0:0:0:
282,301,196813,1,0,0:0:0:0:
110,174,196991,1,0,0:0:0:0:
333,116,197168,1,0,0:0:0:0:
211,341,197346,5,0,0:0:0:0:
172,77,197523,1,0,0:0:0:0:
418,216,197701,1,0,0:0:0:0:
96,350,197878,1,0,0:0:0:0:
261,194,198233,5,8,0:0:0:0:
261,194,198322,1,8,0:0:0:0:
261,194,198411,2,0,L|310:183,1,43.2000010546875,8|0,0:0|0:0,0:0:0:0:
232,63,198588,6,0,L|125:89,1,92.6999992220307,4|0,0:0|0:0,0:0:0:0:
63,142,198854,1,0,0:0:0:0:
63,142,198943,1,0,0:0:0:0:
309,84,199120,2,0,P|307:31|281:-1,1,92.6999992220307,10|0,0:1|0:0,0:0:0:0:
387,194,199475,1,0,0:0:0:0:
217,277,199653,1,0,0:0:0:0:
309,84,199830,1,8,0:0:0:0:
63,142,200008,6,0,B|138:134|138:134|154:151,1,92.6999992220307,2|0,0:1|0:0,0:0:0:0:
300,289,200363,1,0,0:0:0:0:
232,63,200540,1,10,0:1:0:0:
135,246,200718,1,0,0:0:0:0:
135,246,200807,1,0,0:0:0:0:
135,246,200896,2,0,P|130:293|125:339,1,92.6999992220307
274,179,201250,1,8,0:0:0:0:
39,50,201428,1,0,0:0:0:0:
39,50,201517,1,0,0:0:0:0:
39,50,201605,6,0,B|17:74|17:74|166:104,1,185.399998444061,2|8,0:1|0:0,0:0:0:0:
322,42,202139,1,0,0:0:0:0:
214,288,202317,2,0,L|207:194,1,92.6999992220307
166,104,202583,1,0,0:0:0:0:
166,104,202672,1,8,0:0:0:0:
276,355,202849,6,0,P|174:368|126:299,1,185.399998444061,2|0,0:1|0:0,0:0:0:0:
278,242,203381,1,8,0:0:0:0:
83,198,203558,1,2,0:0:0:0:
274,83,203736,1,2,0:0:0:0:
67,222,203913,1,0,0:0:0:0:
120,14,204091,1,8,0:0:0:0:
296,160,204268,1,0,0:0:0:0:
27,122,204446,6,0,B|34:106|34:106|109:94,1,92.6999992220307,4|0,0:0|0:0,0:0:0:0:
251,293,204801,2,0,L|230:190,1,92.6999992220307,8|0,0:0|0:0,0:0:0:0:
274,83,205067,1,0,0:0:0:0:
274,83,205156,1,0,0:0:0:0:
148,203,205333,1,0,0:0:0:0:
340,233,205511,1,8,0:0:0:0:
140,37,205689,6,0,L|154:128,1,92.6999992220307
227,262,206043,1,0,0:0:0:0:
384,78,206221,2,0,P|341:64|293:73,1,92.6999992220307,8|0,0:0|0:0,0:0:0:0:
192,93,206487,1,0,0:0:0:0:
192,93,206576,2,0,P|140:90|89:84,1,92.6999992220307
246,363,206931,2,0,B|262:352|262:352|257:279,1,92.6999992220307,10|0,0:1|0:0,0:0:0:0:
110,109,207287,5,4,0:0:0:0:
280,165,207464,1,0,0:0:0:0:
280,165,207553,1,0,0:0:0:0:
280,165,207642,1,8,0:0:0:0:
253,3,207819,1,0,0:0:0:0:
126,196,207997,1,2,0:0:0:0:
373,228,208174,1,0,0:0:0:0:
83,190,208352,1,8,0:0:0:0:
245,381,208530,1,0,0:0:0:0:
344,108,208707,5,2,0:0:0:0:
139,307,208885,1,2,0:0:0:0:
160,40,209062,1,8,0:0:0:0:
261,283,209240,1,2,0:0:0:0:
261,283,209328,1,2,0:0:0:0:
261,283,209417,1,2,0:0:0:0:
373,7,209595,1,8,0:0:0:0:
126,196,209772,1,8,0:0:0:0:
471,155,209949,6,0,B|493:129|493:129|344:108,1,185.399998444061,4|0,0:0|0:0,0:0:0:0:
86,164,210482,2,0,L|182:179,1,92.6999992220307,10|0,0:1|0:0,0:0:0:0:
252,130,210748,1,0,0:0:0:0:
252,130,210837,2,0,B|230:108|230:108|155:96,1,92.6999992220307
41,128,211192,1,8,0:0:0:0:
147,350,211369,6,0,P|129:255|202:183,1,185.399998444061,2|0,0:1|0:0,0:0:0:0:
17,318,211902,1,8,0:0:0:0:
236,292,212080,1,0,0:0:0:0:
236,292,212168,1,0,0:0:0:0:
236,292,212257,1,8,0:0:0:0:
138,130,212435,1,8,0:0:0:0:
112,377,212612,1,8,0:0:0:0:
372,216,212790,6,0,B|382:202|382:202|261:189,1,139.049998833046,2|0,0:1|0:0,0:0:0:0:
168,220,213145,2,0,L|154:259,3,30.8999997406769,2|2|2|4,0:0|0:0|0:0|0:0,0:0:0:0:
146,208,213677,5,0,0:0:0:0:
259,60,213855,1,0,0:0:0:0:
267,274,214032,1,8,0:0:0:0:
53,119,214210,6,0,B|142:127|142:127|152:137|152:137|233:143,1,185.399998444061,4|0,0:0|0:0,0:0:0:0:
326,200,214654,1,0,0:0:0:0:
326,200,214743,1,8,0:0:0:0:
137,300,214920,1,0,0:0:0:0:
100,304,215009,1,0,0:0:0:0:
63,308,215098,1,8,0:0:0:0:
268,363,215275,1,0,0:0:0:0:
411,226,215452,2,0,P|370:202|312:203,1,92.6999992220307,4|0,0:0|0:0,0:0:0:0:
159,261,215807,5,4,0:0:0:0:
325,199,215984,1,0,0:0:0:0:
232,17,216162,2,0,P|225:64|222:110,1,92.6999992220307,8|0,0:0|0:0,0:0:0:0:
249,236,216517,1,0,0:0:0:0:
81,134,216694,1,0,0:0:0:0:
313,88,216872,1,8,0:0:0:0:
187,353,217050,6,0,B|208:194|208:194|232:213,1,185.399998444061,2|0,0:1|0:0,0:0:0:0:
367,310,217582,2,0,B|428:324|428:324|457:301,1,92.6999992220307,8|0,0:0|0:0,0:0:0:0:
272,363,217938,1,0,0:0:0:0:
392,146,218115,1,0,0:0:0:0:
392,146,218204,1,0,0:0:0:0:
392,146,218293,2,0,L|407:244,1,92.6999992220307,8|0,0:0|0:0,0:0:0:0:
155,48,218648,6,0,P|242:30|316:97,1,185.399998444061,2|8,0:0|0:0,0:0:0:0:
184,220,219180,1,0,0:0:0:0:
192,265,219269,1,2,0:0:0:0:
199,310,219358,1,2,0:0:0:0:
337,250,219535,1,0,0:0:0:0:
122,159,219713,1,8,0:0:0:0:
317,16,219890,6,0,B|296:167|296:167|267:138,1,185.399998444061,2|8,0:0|0:0,0:0:0:0:
185,49,220423,1,0,0:0:0:0:
184,220,220600,1,0,0:0:0:0:
352,269,220778,1,8,0:0:0:0:
272,143,220955,1,8,0:0:0:0:
231,362,221133,2,0,L|244:270,1,92.6999992220307,8|0,0:0|0:0,0:0:0:0:
371,173,221488,6,0,B|485:166|485:166|511:196,1,153.000002918243,4|8,0:0|0:0,0:0:0:0:
414,314,222020,1,2,0:0:0:0:
261,218,222198,2,0,L|271:142,1,76.5000014591217,2|2,0:0|0:0,0:0:0:0:
373,39,222553,1,8,0:0:0:0:
180,63,222730,6,0,B|45:52|45:52|54:67,1,153.000002918243,2|2,0:0|0:0,0:0:0:0:
179,223,223263,2,0,L|163:147,1,76.5000014591217,8|2,0:0|0:0,0:0:0:0:
355,269,223618,2,0,L|323:118,1,153.000002918243,2|8,0:0|0:0,0:0:0:0:
373,39,224062,1,0,0:0:0:0:
373,39,224151,1,0,0:0:0:0:
432,261,224328,6,0,P|394:337|313:335,1,153.000002918243,4|8,0:0|0:0,0:0:0:0:
236,294,224861,1,2,0:0:0:0:
332,157,225038,2,0,L|351:244,1,76.5000014591217,2|2,0:0|0:0,0:0:0:0:
212,175,225393,1,8,0:0:0:0:
416,93,225571,6,0,L|443:243,1,153.000002918243
239,338,226103,2,0,L|254:263,1,76.5000014591217,8|0,0:0|0:0,0:0:0:0:
346,176,226458,1,2,0:0:0:0:
398,335,226636,1,8,0:0:0:0:
235,191,226813,2,0,L|159:179,1,76.5000014591217,8|0,0:0|0:0,0:0:0:0:
365,42,227168,6,0,B|387:28|387:28|367:153,1,153.000002918243,12|8,0:0|0:0,0:0:0:0:
254,262,227701,1,2,0:0:0:0:
434,206,227878,2,0,L|520:200,1,76.5000014591217,10|2,0:0|0:0,0:0:0:0:
368,320,228233,1,8,0:0:0:0:
271,114,228411,6,0,L|257:197,1,76.5000014591217,2|8,0:0|0:0,0:0:0:0:
145,56,228766,1,0,0:0:0:0:
168,210,228943,1,8,0:0:0:0:
271,114,229121,1,0,0:0:0:0:
189,292,229298,2,0,L|194:373,1,76.5000014591217,8|0,0:0|0:0,0:0:0:0:
377,215,229654,2,0,L|381:138,1,76.5000014591217,8|0,0:0|0:0,0:0:0:0:
121,66,230009,6,0,P|180:23|267:46,1,153.000002918243,4|8,0:0|0:0,0:0:0:0:
254,36,230541,1,2,0:0:0:0:
234,268,230719,2,0,L|202:119,1,153.000002918243,4|8,0:0|0:0,0:0:0:0:
401,8,231251,6,0,L|433:157,1,153.000002918243,4|2,0:0|0:0,0:0:0:0:
315,286,231784,1,8,0:0:0:0:
202,118,231961,2,0,L|182:192,1,76.5000014591217,4|0,0:0|0:0,0:0:0:0:
247,342,232316,1,2,0:1:0:0:
279,362,232405,1,2,0:1:0:0:
316,371,232494,1,10,0:1:0:0:
353,365,232582,1,2,0:1:0:0:
384,342,232671,1,2,0:1:0:0:
402,308,232760,1,2,0:1:0:0:
402,269,232849,5,4,0:0:0:0:
397,348,241369,6,0,L|405:261,1,76.5000014591217,10|0,0:1|0:1,0:0:0:0:
357,204,241636,1,2,0:1:0:0:
357,204,241725,2,0,L|306:191,1,38.2500007295609,2|2,0:1|0:1,0:0:0:0:
265,97,241902,6,0,L|347:121,1,85.4999977169037,10|0,0:1|0:1,0:0:0:0:
440,69,242168,1,2,0:1:0:0:
440,69,242257,2,0,L|453:9,1,42.7499988584519,2|2,0:1|0:1,0:0:0:0:
493,176,242435,6,0,L|512:276,1,85.4999977169037,10|2,0:1|0:1,0:0:0:0:
423,370,242701,1,2,0:1:0:0:
423,370,242790,2,0,L|410:313,1,42.7499988584519,0|2,0:1|0:1,0:0:0:0:
357,204,242967,6,0,P|311:197|263:220,1,90,10|0,0:1|0:1,0:0:0:0:
210,370,243233,1,2,0:1:0:0:
210,370,243322,2,0,L|198:309,1,45,2|2,0:1|0:1,0:1:0:0:
45,246,243500,1,10,0:1:0:0:
24,266,243855,6,0,L|228:243,1,188.999994232178,8|0,0:0|0:0,0:0:0:0:
301,157,244210,6,0,P|250:233|277:325,1,180,4|8,0:0|0:0,0:0:0:0:
361,251,244742,1,0,0:0:0:0:
152,199,244920,1,8,0:0:0:0:
259,337,245097,1,0,0:0:0:0:
259,337,245186,1,0,0:0:0:0:
259,337,245275,1,8,0:0:0:0:
219,134,245452,6,0,L|207:39,1,90,2|8,0:1|0:0,0:0:0:0:
371,209,245807,1,0,0:0:0:0:
317,44,245985,1,8,0:0:0:0:
192,221,246162,2,0,L|97:210,1,90,0|8,0:0|0:0,0:0:0:0:
150,85,246517,1,2,0:1:0:0:
183,318,246695,1,2,0:1:0:0:
227,311,246784,1,0,0:0:0:0:
263,285,246872,1,0,0:0:0:0:
286,246,246961,1,0,0:0:0:0:
293,201,247050,6,0,P|287:156|277:112,1,90,4|0,0:0|0:0,0:0:0:0:
163,49,247405,1,8,0:0:0:0:
378,132,247582,2,0,P|423:120|473:113,1,90,0|8,0:0|0:0,0:0:0:0:
355,269,247937,1,0,0:0:0:0:
238,88,248115,1,8,0:0:0:0:
227,311,248293,6,0,B|246:330|246:330|283:168,1,180,2|0,0:1|0:0,0:0:0:0:
76,198,248825,2,0,L|98:110,1,90,10|0,0:1|0:0,0:0:0:0:
186,36,249091,1,0,0:0:0:0:
186,36,249180,2,0,P|228:16|278:28,1,90,10|0,0:1|0:0,0:0:0:0:
414,113,249535,1,8,0:0:0:0:
410,157,249624,1,8,0:0:0:0:
406,201,249713,1,8,0:0:0:0:
203,343,249890,6,0,P|270:289|361:321,1,180,4|8,0:0|0:0,0:0:0:0:
225,166,250423,1,0,0:0:0:0:
290,372,250600,1,8,0:0:0:0:
333,198,250778,1,0,0:0:0:0:
132,254,250955,1,8,0:0:0:0:
149,125,251133,6,0,B|112:273|112:273|153:237,1,180,2|0,0:1|0:0,0:0:0:0:
321,96,251665,2,0,P|363:80|422:88,1,90,8|0,0:0|0:0,0:0:0:0:
505,205,252020,1,8,0:0:0:0:
357,10,252198,1,2,0:1:0:0:
311,296,252375,2,0,L|303:201,1,90,10|0,0:1|0:0,0:0:0:0:
427,41,252730,6,0,L|435:128,1,76.5000014591217,10|0,0:1|0:1,0:1:0:0:
360,186,252997,1,2,0:1:0:0:
360,186,253086,2,0,L|309:199,1,38.2500007295609,0|2,0:1|0:1,0:1:0:0:
252,307,253263,6,0,L|333:284,1,80.9999975280763,10|0,0:1|0:1,0:1:0:0:
456,335,253529,1,2,0:1:0:0:
456,335,253618,2,0,L|467:380,1,40.4999987640381,2|2,0:1|0:1,0:1:0:0:
496,214,253796,6,0,L|515:114,1,85.4999977169037,10|0,0:1|0:1,0:1:0:0:
410,10,254062,1,2,0:1:0:0:
410,10,254151,2,0,L|397:67,1,42.7499988584519,0|2,0:1|0:1,0:1:0:0:
360,186,254328,6,0,P|314:193|266:170,1,90,10|2,0:1|0:1,0:1:0:0:
213,20,254594,1,2,0:1:0:0:
213,20,254683,2,0,L|201:81,1,45,2|2,0:1|0:1,0:1:0:0:
131,137,254861,5,10,0:1:0:0:
133,150,254949,1,2,0:1:0:0:
134,163,255038,1,10,0:1:0:0:
135,176,255127,1,2,0:1:0:0:
137,189,255216,1,2,0:1:0:0:
139,202,255304,1,2,0:1:0:0:
141,215,255393,1,4,0:0:0:0:
256,192,255571,12,0,258588,0:0:0:0:
