osu file format v14

[General]
AudioFilename: understand.mp3
AudioLeadIn: 0
PreviewTime: 57553
Countdown: 0
SampleSet: Soft
StackLeniency: 0.7
Mode: 0
LetterboxInBreaks: 0
WidescreenStoryboard: 0

[Editor]
Bookmarks: 83736,92257,232849,241369
DistanceSpacing: 1
BeatDivisor: 4
GridSize: 4
TimelineZoom: 1

[Metadata]
Title:Understand? Understand!
TitleUnicode:Understand? Understand!
Artist:Kousaka Umi (CV.Ueda Reina) x Tanaka Kotoha (CV.Taneda Risa)
ArtistUnicode:高坂海美 (CV.上田麗奈)×田中琴葉 (CV.種田梨沙)
Creator:Setz
Version:E@SY
Source:アイドルマスター ミリオンライブ!
Tags:THE IDOLM@STER Million Live imas im@s THE@TER DREAMERS 06 idolmaster Karia Momochikun Doormat うえしゃま
BeatmapID:952329
BeatmapSetID:437279

[Difficulty]
HPDrainRate:2
CircleSize:3
OverallDifficulty:3
ApproachRate:3
SliderMultiplier:0.999999999999999
SliderTickRate:1

[Events]
//Background and Video events
0,0,"imasbg2.jpg",0,0
//Break Periods
2,25713,29753
2,34233,38274
2,83936,90817
2,233049,239929
//Storyboard Layer 0 (Background)
//Storyboard Layer 1 (Fail)
//Storyboard Layer 2 (Pass)
//Storyboard Layer 3 (Foreground)
//Storyboard Sound Samples

[TimingPoints]
-49,355.029585798817,4,2,5,60,1,0
838,-100,4,2,6,40,0,0
12732,-100,4,2,5,70,0,0
32613,-100,4,2,6,70,0,0
39714,-100,4,2,5,70,0,0
45394,355.029585798817,3,2,5,60,1,0
49654,355.029585798817,4,2,5,70,1,0
56399,-100,4,2,5,55,0,0
57997,-100,4,2,5,80,0,1
69269,-100,4,2,5,80,0,0
69358,-100,4,2,5,80,0,1
80896,-100,4,2,5,70,0,0
103618,-100,4,2,6,70,0,0
105038,-100,4,2,5,70,0,0
144624,-100,4,2,5,80,0,1
155896,-100,4,2,5,80,0,0
155985,-100,4,2,5,80,0,1
167523,-100,4,2,2,70,0,0
198588,-100,4,2,5,80,0,1
209861,-100,4,2,5,80,0,0
209949,-100,4,2,5,80,0,1
221488,-100,4,2,5,70,0,0
255571,-100,4,2,5,20,0,0
258588,-100,4,2,5,5,0,0

[Colours]
Combo1 : 0,128,255
Combo2 : 255,128,192
Combo3 : 128,128,255
Combo4 : 255,128,128
Combo5 : 255,255,128

[HitObjects]
198,283,1371,6,0,L|304:269,1,99.9999999999999,2|10,0:0|0:0,0:0:0:0:
380,214,2081,2,0,B|328:180|328:180|224:194,1,150,2|2,0:0|0:0,0:0:0:0:
146,159,2968,1,2,0:0:0:0:
180,65,3323,2,0,P|103:68|54:120,1,150,2|8,0:0|0:0,0:0:0:0:
86,261,4388,6,0,B|127:320|127:320|214:333,2,150,2|2|2,0:0|0:0|0:0,0:0:0:0:
149,184,5808,1,2,0:0:0:0:
63,131,6164,2,0,P|118:87|208:101,1,150,2|10,0:0|0:0,0:0:0:0:
271,155,7051,6,0,L|370:168,1,99.9999999999999,2|10,0:0|0:0,0:0:0:0:
451,110,7761,2,0,P|469:181|431:248,1,150,2|2,0:0|0:0,0:0:0:0:
348,297,8649,1,2,0:0:0:0:
262,248,9004,2,0,B|171:233|171:233|127:270,1,150,2|10,0:0|0:0,0:0:0:0:
192,345,9891,6,0,P|126:371|54:337,1,150,2|2,0:0|0:0,0:0:0:0:
6,254,10779,1,2,0:0:0:0:
79,184,11134,2,0,L|64:83,2,99.9999999999999,2|2|2,0:0|0:0|0:0,0:0:0:0:
203,268,12377,1,8,0:0:0:0:
262,186,12732,6,0,B|314:181|314:181|348:148,1,99.9999999999999,4|8,0:0|0:0,0:0:0:0:
284,70,13442,2,0,P|356:46|432:92,1,150,8|2,0:0|0:1,0:0:0:0:
488,148,14329,1,0,0:0:0:0:
403,203,14684,2,0,L|384:361,1,150,0|10,0:0|0:1,0:0:0:0:
288,377,15572,6,0,L|303:263,1,99.9999999999999,4|8,0:0|0:0,0:0:0:0:
238,199,16282,2,0,B|137:186|137:186|89:217,2,150,8|2|10,0:0|0:1|0:1,0:0:0:0:
324,248,17702,2,0,P|373:257|426:242,1,99.9999999999999,10|8,0:1|0:0,0:0:0:0:
511,202,18412,6,0,L|497:91,1,99.9999999999999,4|8,0:0|0:0,0:0:0:0:
411,53,19122,2,0,B|301:38|301:38|255:60,2,150,8|2|8,0:0|0:1|0:0,0:0:0:0:
498,102,20542,1,8,0:0:0:0:
443,185,20897,1,10,0:1:0:0:
256,192,21252,12,6,23915,0:0:0:0:
112,332,25513,5,4,0:0:0:0:
208,21,31193,6,0,B|197:89|238:107|238:107|200:171|242:214,1,200,4|8,0:0|0:0,0:0:0:0:
278,291,32258,1,0,0:0:0:0:
355,227,32613,2,0,L|343:161,2,50,10|2|10,0:0|0:0|0:0,0:0:0:0:
412,308,33323,2,0,L|400:374,2,50,10|2|10,0:0|0:0|0:0,0:0:0:0:
502,265,34033,5,4,0:0:0:0:
231,301,39714,6,0,P|287:341|364:327,2,150,4|2|2,0:0|0:0|0:0,0:0:0:0:
133,186,41311,2,0,P|129:113|160:25,1,150,8|8,0:0|0:0,0:0:0:0:
350,23,42554,6,0,B|460:30|460:30|488:63,2,150,4|2|2,0:0|0:0|0:0,0:0:0:0:
228,111,44152,2,0,L|381:121,1,150,8|8,0:0|0:0,0:0:0:0:
464,169,45039,1,8,0:0:0:0:
396,240,45394,6,0,L|407:349,2,99.9999999999999,6|2|2,0:0|0:0|0:0,0:0:0:0:
305,198,46459,2,0,L|314:297,1,99.9999999999999,2|2,0:0|0:0,0:0:0:0:
232,354,47169,1,2,0:0:0:0:
143,306,47524,6,0,L|37:321,2,99.9999999999999,2|2|2,0:0|0:0|0:0,0:0:0:0:
189,217,48589,2,0,L|203:111,1,99.9999999999999,2|2,0:0|0:0,0:0:0:0:
275,49,49299,1,0,0:0:0:0:
367,86,49654,5,4,0:0:0:0:
448,144,50009,2,0,P|376:187|303:164,1,150,2|0,0:0|0:0,0:0:0:0:
229,121,50896,2,0,B|112:133|112:133|79:165,1,150,2|2,0:1|0:0,0:0:0:0:
152,233,51784,6,0,P|177:299|146:372,2,150,2|4|2,0:0|0:0|0:0,0:0:0:0:
88,155,53204,2,0,B|59:109|59:109|89:12,2,150,2|0|2,0:0|0:0|0:0,0:0:0:0:
172,102,54624,6,0,P|265:81|354:127,1,200,2|8,0:0|0:0,0:0:0:0:
427,195,55689,2,0,L|445:304,1,99.9999999999999,8|8,0:0|0:0,0:0:0:0:
367,359,56399,2,0,L|350:260,1,99.9999999999999,8|8,0:0|0:0,0:0:0:0:
272,197,57109,1,12,0:0:0:0:
80,35,57997,6,0,P|37:93|51:178,1,150,4|10,0:0|0:1,0:0:0:0:
96,252,58884,1,2,0:0:0:0:
223,173,59417,2,0,B|348:159|348:159|379:180,1,150,2|8,0:1|0:0,0:0:0:0:
450,229,60304,1,2,0:0:0:0:
482,134,60659,1,8,0:0:0:0:
412,62,61014,6,0,L|308:74,1,99.9999999999999,2|8,0:1|0:0,0:0:0:0:
216,103,61725,2,0,P|179:163|201:247,2,150,2|2|8,0:0|0:1|0:0,0:0:0:0:
312,73,63145,1,2,0:0:0:0:
404,109,63500,1,8,0:0:0:0:
336,182,63855,6,0,L|327:281,1,99.9999999999999,4|8,0:0|0:0,0:0:0:0:
403,346,64565,2,0,P|330:381|266:361,1,150,2|0,0:1|0:0,0:0:0:0:
189,299,65452,2,0,B|140:248|224:213|170:150,1,150,0|0,0:0|0:0,0:0:0:0:
116,78,66340,1,10,0:1:0:0:
206,35,66695,6,0,L|308:29,1,99.9999999999999,4|8,0:0|0:0,0:0:0:0:
366,108,67405,2,0,L|262:115,1,99.9999999999999,2|8,0:0|0:0,0:0:0:0:
173,151,68115,1,2,0:0:0:0:
253,209,68470,2,0,P|274:281|233:353,1,150,8|8,0:0|0:0,0:0:0:0:
145,371,69358,6,0,B|46:360|46:360|28:293,1,150,4|10,0:0|0:1,0:0:0:0:
21,211,70245,1,0,0:0:0:0:
98,82,70778,2,0,P|163:47|237:61,1,150,2|8,0:1|0:0,0:0:0:0:
315,119,71665,6,0,L|302:271,2,150,8|8|8,0:0|0:0|0:0,0:0:0:0:
373,37,73085,2,0,B|407:90|407:90|399:181,2,150,0|2|8,0:0|0:1|0:0,0:0:0:0:
273,28,74506,1,8,0:0:0:0:
315,119,74861,1,8,0:0:0:0:
239,184,75216,6,0,L|253:291,1,99.9999999999999,2|8,0:0|0:0,0:0:0:0:
322,353,75926,2,0,P|386:381|471:361,2,150,0|2|8,0:0|0:1|0:0,0:0:0:0:
251,283,77346,1,8,0:0:0:0:
324,215,77701,1,8,0:0:0:0:
256,141,78056,6,0,L|156:134,1,99.9999999999999,2|8,0:0|0:0,0:0:0:0:
91,57,78766,2,0,P|55:124|84:205,1,150,0|2,0:0|0:0,0:0:0:0:
146,260,79654,2,0,B|217:293|220:227|311:272,1,150,8|8,0:0|0:0,0:0:0:0:
381,307,80541,1,8,0:0:0:0:
462,248,80896,6,0,L|445:134,1,99.9999999999999,4|8,0:0|0:0,0:0:0:0:
383,71,81606,2,0,P|322:34|237:52,1,150,2|10,0:1|0:1,0:0:0:0:
159,94,82494,2,0,L|131:196,1,99.9999999999999,2|10,0:1|0:1,0:0:0:0:
191,271,83204,2,0,B|232:300|232:300|347:275,1,150,2|4,0:1|0:0,0:0:0:0:
256,192,92257,12,6,94920,0:0:0:0:
399,168,96517,5,4,0:0:0:0:
334,91,96872,2,0,P|379:68|436:73,2,99.9999999999999,4|0|4,0:3|0:0|0:3,0:0:0:0:
263,162,97938,1,0,0:0:0:0:
173,117,98293,2,0,L|23:125,1,150,4|8,0:3|0:0,0:0:0:0:
68,214,99180,6,0,B|181:208|181:208|216:228,1,150,4|4,0:0|0:3,0:0:0:0:
299,277,100068,2,0,P|372:315|440:304,2,150,0|0|4,0:0|0:0|0:3,0:0:0:0:
212,226,101488,1,8,0:0:0:0:
295,170,101843,1,4,0:3:0:0:
207,121,102198,6,0,B|248:78|248:78|402:68,1,200,4|0,0:0|0:0,0:0:0:0:
470,125,103263,1,8,0:0:0:0:
391,186,103618,2,0,L|326:176,2,50,10|10|10,0:0|0:0|0:0,0:0:0:0:
461,257,104328,2,0,L|526:247,2,50,10|10|10,0:0|0:0|0:0,0:0:0:0:
383,320,105038,5,4,0:0:0:0:
300,263,105393,2,0,P|257:239|197:241,1,99.9999999999999,0|0,0:0|0:0,0:0:0:0:
109,260,106103,1,0,0:0:0:0:
147,167,106458,2,0,P|155:120|160:53,1,99.9999999999999
250,26,107168,1,0,0:0:0:0:
382,97,107701,1,2,0:1:0:0:
463,156,108056,6,0,P|470:207|449:259,1,99.9999999999999,4|0,0:0|0:0,0:0:0:0:
367,302,108766,2,0,L|217:318,1,150,0|6,0:0|0:0,0:0:0:0:
125,279,109654,1,2,0:0:0:0:
192,205,110009,1,2,0:0:0:0:
62,52,110719,6,0,B|100:34|100:34|227:24,2,150,4|2|2,0:0|0:0|0:0,0:0:0:0:
139,179,112316,2,0,B|152:288|152:288|186:309,1,150,8|8,0:0|0:0,0:0:0:0:
372,236,113559,6,0,P|434:204|518:225,2,150,4|2|2,0:0|0:0|0:0,0:0:0:0:
256,331,115156,2,0,P|184:346|118:314,1,150,8|8,0:0|0:0,0:0:0:0:
54,236,116044,1,0,0:0:0:0:
118,159,116399,6,0,L|107:58,1,99.9999999999999,4|8,0:0|0:0,0:0:0:0:
191,5,117109,2,0,L|201:110,1,99.9999999999999,0|8,0:0|0:0,0:0:0:0:
286,155,117819,2,0,P|335:148|397:149,2,99.9999999999999,0|8|0,0:0|0:0|0:0,0:0:0:0:
209,219,118884,1,4,0:0:0:0:
284,284,119239,6,0,P|242:314|190:318,1,99.9999999999999,4|8,0:0|0:0,0:0:0:0:
96,301,119949,1,0,0:0:0:0:
72,203,120304,1,8,0:0:0:0:
158,153,120659,2,0,P|95:106|17:119,2,150,0|8|8,0:0|0:0|0:0,0:0:0:0:
225,227,122080,6,0,L|216:328,1,99.9999999999999,4|8,0:0|0:0,0:0:0:0:
303,374,122790,1,0,0:0:0:0:
386,319,123145,1,8,0:0:0:0:
337,231,123500,2,0,L|346:130,1,99.9999999999999,2|8,0:0|0:0,0:0:0:0:
432,81,124210,1,0,0:0:0:0:
352,20,124565,1,4,0:0:0:0:
273,82,124920,6,0,P|220:78|169:71,1,99.9999999999999,10|10,0:1|0:1,0:0:0:0:
83,115,125630,2,0,B|132:156|132:156|179:165|226:168,1,150,10|4,0:1|0:0,0:0:0:0:
300,223,126517,2,0,L|304:285,2,50,8|2|4,0:0|0:0|0:0,0:0:0:0:
396,108,127405,1,10,0:1:0:0:
471,173,127760,6,0,L|478:296,1,99.9999999999999,4|8,0:0|0:0,0:0:0:0:
433,363,128470,2,0,B|325:381|325:381|285:350,1,150,2|2,0:1|0:1,0:0:0:0:
218,288,129358,1,0,0:0:0:0:
308,244,129713,2,0,P|251:194|168:201,1,150,0|4,0:0|0:0,0:0:0:0:
82,217,130600,6,0,B|51:176|51:176|63:108,1,99.9999999999999,8|2,0:0|0:0,0:0:0:0:
121,49,131310,2,0,B|162:24|162:24|266:19,1,150,2|2,0:0|0:0,0:0:0:0:
358,52,132198,2,0,P|373:102|353:164,1,99.9999999999999,2|2,0:0|0:0,0:0:0:0:
283,274,133085,1,4,0:0:0:0:
333,359,133440,6,0,P|285:371|236:361,1,99.9999999999999,4|8,0:0|0:0,0:0:0:0:
153,304,134151,2,0,L|-3:318,2,150,8|2|8,0:0|0:1|0:0,0:0:0:0:
239,254,135571,6,0,B|194:218|194:218|87:227,2,150,8|4|8,0:0|0:0|0:0,0:0:0:0:
319,313,136991,2,0,L|437:321,1,99.9999999999999,8|8,0:0|0:0,0:0:0:0:
478,239,137701,2,0,L|378:231,1,99.9999999999999,8|8,0:0|0:0,0:0:0:0:
296,173,138411,6,0,P|196:149|116:211,1,200,8|4,0:0|0:0,0:0:0:0:
74,289,139476,1,10,0:1:0:0:
150,353,139831,2,0,B|192:377|192:377|300:369,2,150,10|2|4,0:1|0:0|0:0,0:0:0:0:
226,288,141251,6,0,B|381:276|381:276|410:240,1,200,8|8,0:0|0:0,0:0:0:0:
471,163,142316,1,8,0:0:0:0:
400,91,142671,2,0,P|352:73|296:98,1,99.9999999999999,8|8,0:0|0:0,0:0:0:0:
218,133,143381,1,4,0:0:0:0:
236,34,143736,1,8,0:0:0:0:
73,224,144624,6,0,B|84:323|84:323|151:341,1,150,4|10,0:0|0:1,0:0:0:0:
228,362,145511,1,0,0:0:0:0:
371,319,146044,2,0,P|406:254|392:180,1,150,2|8,0:1|0:0,0:0:0:0:
310,125,146931,6,0,L|158:138,2,150,0|0|8,0:0|0:0|0:0,0:0:0:0:
392,67,148351,2,0,B|339:33|339:33|248:41,2,150,0|2|8,0:0|0:1|0:0,0:0:0:0:
472,126,149772,1,2,0:0:0:0:
392,186,150127,1,8,0:0:0:0:
481,230,150482,6,0,L|493:329,1,99.9999999999999,4|8,0:0|0:0,0:0:0:0:
401,366,151192,2,0,B|297:376|297:376|245:343,2,150,0|0|8,0:0|0:0|0:0,0:0:0:0:
443,275,152612,2,0,L|337:285,1,99.9999999999999,0|10,0:0|0:1,0:0:0:0:
249,249,153322,6,0,L|238:138,1,99.9999999999999,4|8,0:0|0:0,0:0:0:0:
146,112,154032,2,0,L|155:211,1,99.9999999999999,2|8,0:0|0:0,0:0:0:0:
100,294,154742,1,2,0:0:0:0:
192,331,155097,2,0,P|256:349|335:300,1,150,8|8,0:0|0:0,0:0:0:0:
389,233,155985,6,0,L|408:85,1,150,4|10,0:0|0:1,0:0:0:0:
319,37,156872,1,0,0:0:0:0:
194,121,157405,2,0,B|175:288,1,150,2|8,0:1|0:0,0:0:0:0:
253,334,158292,1,8,0:0:0:0:
368,237,158825,6,0,B|411:200|470:221|470:221|507:181,1,150,8|8,0:0|0:0,0:0:0:0:
421,126,159713,2,0,P|346:143|285:197,2,150,0|2|8,0:0|0:1|0:0,0:0:0:0:
507,75,161133,1,8,0:0:0:0:
423,19,161488,1,8,0:0:0:0:
327,47,161843,6,0,P|277:51|226:53,1,99.9999999999999,2|8,0:0|0:0,0:0:0:0:
135,93,162553,2,0,P|91:150|106:239,2,150,2|2|8,0:1|0:1|0:0,0:0:0:0:
227,52,163973,1,8,0:0:0:0:
289,130,164328,1,8,0:0:0:0:
217,200,164683,6,0,L|202:303,1,99.9999999999999,4|8,0:0|0:0,0:0:0:0:
288,349,165393,2,0,P|354:375|444:350,1,150,0|0,0:0|0:0,0:0:0:0:
505,293,166281,2,0,B|493:180|493:180|450:169,1,150,8|8,0:0|0:0,0:0:0:0:
356,184,167168,1,8,0:0:0:0:
270,131,167523,6,0,L|164:124,1,99.9999999999999,6|10,0:0|0:0,0:0:0:0:
113,206,168233,2,0,L|221:213,1,99.9999999999999,2|10,0:0|0:0,0:0:0:0:
259,300,168943,2,0,L|159:293,1,99.9999999999999,2|10,0:0|0:0,0:0:0:0:
63,276,169654,2,0,P|28:191|101:118,1,200,2|4,0:0|0:0,0:0:0:0:
194,121,170719,6,0,B|266:126|266:126|275:159,1,99.9999999999999,10|2,0:0|0:0,0:0:0:0:
294,250,171429,1,10,0:0:0:0:
366,181,171784,2,0,B|418:174|465:207|465:207|507:184|507:184|506:142|506:142|456:100|395:104,1,300,2|10,0:0|0:0,0:0:0:0:
311,87,173204,5,6,0:0:0:0:
233,149,173559,1,8,0:0:0:0:
202,53,173914,2,0,P|151:35|97:45,1,99.9999999999999,2|10,0:0|0:0,0:0:0:0:
144,134,174624,2,0,B|132:284|132:284|171:319,1,200,2|2,0:0|0:0,0:0:0:0:
255,366,175689,1,8,0:0:0:0:
341,316,176044,6,0,L|455:308,1,99.9999999999999,2|8,0:0|0:0,0:0:0:0:
401,217,176754,2,0,B|306:223|306:223|255:256,1,150,10|4,0:0|0:0,0:0:0:0:
190,325,177642,1,2,0:0:0:0:
99,282,177997,2,0,P|75:215|123:142,1,150,6|10,0:0|0:0,0:0:0:0:
190,89,178884,6,0,P|278:44|389:82,1,200,6|0,0:0|0:0,0:0:0:0:
451,128,179949,1,10,0:0:0:0:
403,216,180304,2,0,L|417:369,2,150,0|2|10,0:0|0:0|0:0,0:0:0:0:
311,173,181725,6,0,L|319:284,1,99.9999999999999,4|8,0:0|0:0,0:0:0:0:
239,333,182435,2,0,P|163:353|90:309,1,150,2|2,0:0|0:0,0:0:0:0:
28,256,183322,1,2,0:0:0:0:
107,195,183677,2,0,B|137:169|137:169|149:55,1,150,2|8,0:0|0:0,0:0:0:0:
247,44,184565,6,0,P|372:79|286:175,1,300,6|10,0:0|0:0,0:0:0:0:
196,193,185985,2,0,P|172:239|177:296,1,99.9999999999999,2|8,0:0|0:0,0:0:0:0:
254,344,186695,6,0,B|356:373|356:373|402:351,2,150,2|6|10,0:0|0:0|0:0,0:0:0:0:
228,247,188115,2,0,L|331:277,1,99.9999999999999,10|10,0:0|0:0,0:0:0:0:
417,240,188825,2,0,L|405:136,2,99.9999999999999,10|8|8,0:0|0:0|0:0,0:0:0:0:
492,305,189890,1,4,0:0:0:0:
408,360,190245,6,0,P|312:377|220:313,1,200,6|10,0:0|0:0,0:0:0:0:
161,251,191310,1,10,0:0:0:0:
234,183,191665,2,0,L|224:73,1,99.9999999999999,10|10,0:0|0:0,0:0:0:0:
129,54,192375,6,0,L|138:134,2,74.9999999999999,10|10|10,0:0|0:0|0:0,0:0:0:0:
256,192,193085,12,0,195926,0:0:0:0:
377,277,198233,5,8,0:0:0:0:
432,362,198588,6,0,P|475:304|461:219,1,150,4|10,0:0|0:1,0:0:0:0:
416,145,199475,1,0,0:0:0:0:
289,224,200008,2,0,B|164:238|164:238|133:217,1,150,2|10,0:1|0:1,0:0:0:0:
62,168,200895,1,0,0:0:0:0:
30,263,201250,1,8,0:0:0:0:
100,335,201605,6,0,L|204:323,1,99.9999999999999,2|8,0:1|0:0,0:0:0:0:
296,294,202316,2,0,P|333:234|311:150,2,150,0|2|8,0:0|0:1|0:0,0:0:0:0:
200,324,203736,1,2,0:0:0:0:
108,288,204091,1,8,0:0:0:0:
176,215,204446,6,0,L|185:116,1,99.9999999999999,4|8,0:0|0:0,0:0:0:0:
109,51,205156,2,0,P|177:16|250:40,1,150
320,100,206044,2,0,B|368:150|284:185|331:239,1,150
394,315,206931,1,10,0:1:0:0:
306,362,207286,6,0,L|204:368,1,99.9999999999999,4|8,0:0|0:0,0:0:0:0:
146,289,207996,2,0,L|250:282,1,99.9999999999999,2|8,0:0|0:0,0:0:0:0:
330,238,208706,1,2,0:0:0:0:
256,170,209061,2,0,P|235:98|276:26,1,150,8|8,0:0|0:0,0:0:0:0:
367,26,209949,6,0,B|466:37|466:37|484:104,1,150,4|10,0:0|0:1,0:0:0:0:
491,186,210836,1,0,0:0:0:0:
414,315,211369,2,0,P|349:350|275:336,1,150,2|8,0:1|0:0,0:0:0:0:
197,278,212256,6,0,L|210:126,2,150,8|2|4,0:0|0:1|0:0,0:0:0:0:
139,360,213676,2,0,B|105:307|105:307|113:216,2,150,0|4|8,0:0|0:0|0:0,0:0:0:0:
239,369,215097,1,8,0:0:0:0:
197,278,215452,1,4,0:0:0:0:
273,213,215807,6,0,L|259:106,1,99.9999999999999,4|8,0:0|0:0,0:0:0:0:
190,44,216517,2,0,P|126:16|41:36,2,150,0|2|8,0:0|0:1|0:0,0:0:0:0:
261,114,217937,1,0,0:0:0:0:
188,182,218292,1,8,0:0:0:0:
256,256,218647,6,0,L|356:263,1,99.9999999999999,2|8,0:0|0:0,0:0:0:0:
421,340,219357,2,0,P|457:273|428:192,1,150,2|2,0:0|0:0,0:0:0:0:
366,137,220245,2,0,B|295:104|292:170|201:125,1,150,8|8,0:0|0:0,0:0:0:0:
131,90,221132,1,8,0:0:0:0:
61,162,221487,6,0,L|78:276,1,99.9999999999999,4|8,0:0|0:0,0:0:0:0:
146,331,222198,2,0,B|167:279|167:279|154:176,2,150,2|2|8,0:0|0:0|0:0,0:0:0:0:
49,357,223618,1,2,0:0:0:0:
0,267,223973,1,8,0:0:0:0:
74,200,224328,6,0,L|60:80,1,99.9999999999999,4|8,0:0|0:0,0:0:0:0:
142,40,225038,2,0,P|212:21|283:66,2,150,2|0|8,0:0|0:0|0:0,0:0:0:0:
200,121,226458,1,2,0:0:0:0:
141,201,226813,1,8,0:0:0:0:
191,287,227168,6,0,L|296:303,1,99.9999999999999,12|8,0:0|0:0,0:0:0:0:
389,289,227878,2,0,P|433:230|408:144,2,150,10|2|8,0:0|0:0|0:0,0:0:0:0:
289,302,229298,1,8,0:0:0:0:
253,208,229654,1,8,0:0:0:0:
174,270,230009,6,0,P|121:265|71:254,1,99.9999999999999,4|8,0:0|0:0,0:0:0:0:
0,188,230719,2,0,B|60:164|60:164|106:178|155:184,1,150,4|4,0:0|0:0,0:0:0:0:
217,115,231606,1,2,0:0:0:0:
253,208,231961,2,0,P|214:271|241:345,1,150,4|10,0:0|0:1,0:0:0:0:
329,373,232849,5,4,0:0:0:0:
263,58,241369,6,0,B|190:39|190:39|102:44,2,150,10|10|10,0:1|0:1|0:1,0:0:0:0:
404,110,242967,2,0,P|439:191|414:257,1,150,10|10,0:1|0:1,0:0:0:0:
324,264,243855,1,8,0:0:0:0:
250,198,244210,6,0,B|198:203|198:203|164:236,1,99.9999999999999,4|8,0:0|0:0,0:0:0:0:
228,314,244920,2,0,P|156:338|80:292,1,150,8|2,0:0|0:1,0:0:0:0:
24,236,245807,1,0,0:0:0:0:
109,181,246162,2,0,L|128:23,1,150,2|2,0:0|0:1,0:0:0:0:
224,7,247050,6,0,L|209:121,1,99.9999999999999,4|8,0:0|0:0,0:0:0:0:
274,185,247760,2,0,B|375:198|375:198|423:167,2,150,8|2|10,0:0|0:1|0:1,0:0:0:0:
188,136,249180,2,0,P|139:127|86:142,1,99.9999999999999,10|8,0:1|0:0,0:0:0:0:
1,182,249890,6,0,L|15:293,1,99.9999999999999,4|8,0:0|0:0,0:0:0:0:
98,333,250600,2,0,P|164:351|243:308,2,150,8|2|8,0:0|0:1|0:0,0:0:0:0:
13,281,252020,1,8,0:0:0:0:
87,214,252375,1,10,0:1:0:0:
149,134,252730,6,0,P|79:112|14:144,2,150,10|10|10,0:1|0:1|0:1,0:0:0:0:
282,203,254328,2,0,P|355:210|450:213,2,150,10|10|4,0:1|0:1|0:0,0:0:0:0:
256,192,255571,12,0,258588,0:0:0:0:
